osu file format v9

[General]
AudioFilename: Within Temptation - The Unforgiving.mp3
AudioLeadIn: 2000
PreviewTime: 2513067
Countdown: 0
SampleSet: Normal
StackLeniency: 0.7
Mode: 0
LetterboxInBreaks: 1

[Editor]
Bookmarks: 2308986
DistanceSpacing: 1.2
BeatDivisor: 4
GridSize: 4

[Metadata]
Title:The Unforgiving
Artist:Within Temptation
Creator:Armin
Version:Murder
Source:
Tags:Gonzvlo narakucrimson Roddie Vass_Bass ErufenRito Glass Card N'FoRcE force HakunoKaemi metal Why not me Shot in the Dark In the Middle of the Night Faster Fire and Ice Iron Where is the edge Sinead Lost Murder A Demon's Fate Stairway to the skies TU Marathon symphonic metal rock Sharon den Adel collab

[Difficulty]
HPDrainRate:6
CircleSize:4
OverallDifficulty:7
ApproachRate:8
SliderMultiplier:2
SliderTickRate:1

[Events]
//Background and Video events
0,0,"Within-Temptation.png"
//Break Periods
2,2394962,2400928
2,2473768,2486674
2,2513371,2525630
//Storyboard Layer 0 (Background)
//Storyboard Layer 1 (Fail)
//Storyboard Layer 2 (Pass)
//Storyboard Layer 3 (Foreground)
//Storyboard Sound Samples
//Background Colour Transformations
3,100,163,162,255

[TimingPoints]
2406,418.848167539267,4,2,0,100,1,0
15829,418.848167539267,4,2,0,100,1,0
34572,565.904267861353,4,1,0,100,1,0
47011,-100,4,2,1,100,0,0
95696,566.037735849057,4,2,1,100,1,0
97111,-100,4,1,0,80,0,1
97247,-100,4,1,0,82,0,1
97388,-100,4,1,0,84,0,1
97530,-100,4,1,0,86,0,1
97671,-100,4,1,0,90,0,1
97818,-100,4,1,0,93,0,0
97960,-100,4,1,0,96,0,1
98096,-100,4,2,1,100,0,1
106020,-100,4,1,1,80,0,1
106233,-100,4,1,1,83,0,1
106374,-100,4,1,1,86,0,1
106516,-100,4,1,1,89,0,1
106657,-100,4,1,1,92,0,1
106799,-100,4,1,1,95,0,1
106940,-100,4,2,1,98,0,1
116073,-100,4,2,1,98,0,0
124134,-100,4,1,0,100,0,0
124983,-100,4,2,1,100,0,0
160926,-100,4,1,0,100,0,0
161209,-100,4,2,1,100,0,0
165454,-100,4,1,0,100,0,0
165737,-100,4,2,1,100,0,0
169983,-100,4,1,0,100,0,0
170266,-100,4,2,0,87,0,0
172671,-100,4,1,0,100,0,0
173101,-100,4,1,0,81,0,1
173237,-100,4,1,0,84,0,1
173379,-100,4,1,0,87,0,1
173520,-100,4,1,0,90,0,1
174658,-100,4,2,0,100,0,0
174941,-100,4,2,1,100,0,1
182436,-100,4,2,0,100,0,1
183002,-100,4,1,0,100,0,1
183714,-100,4,2,0,100,0,0
183997,-100,4,2,1,100,0,1
191563,-100,4,1,0,80,0,1
191775,-100,4,1,0,83,0,1
191917,-100,4,1,0,86,0,1
192058,-100,4,1,0,89,0,1
192200,-100,4,1,0,91,0,1
192341,-100,4,1,0,93,0,1
192483,-100,4,1,0,95,0,1
192624,-100,4,1,0,97,0,1
192766,-100,4,1,0,98,0,1
192907,-100,4,1,0,99,0,1
193054,-100,4,2,0,100,0,0
209888,-100,4,1,0,63,0,0
211311,-100,4,2,0,5,0,0
214708,-100,4,2,0,30,0,0
215549,-100,4,1,0,15,0,0
215686,566.037735849057,4,1,0,15,1,0
215761,-100,4,2,0,5,0,0
217105,-100,4,2,0,31,0,0
217884,-100,4,1,0,15,0,0
218450,-100,4,2,0,30,0,0
218662,-100,4,1,0,15,0,0
219299,-100,4,2,0,29,0,0
219511,-100,4,2,0,36,0,0
220148,-100,4,1,0,16,0,0
220289,-100,4,2,0,16,0,0
220997,-100,4,1,0,16,0,0
221138,-100,4,2,0,16,0,0
222341,-100,4,1,0,16,0,0
222907,-100,4,2,0,16,0,0
223190,-100,4,1,0,16,0,0
223473,-100,4,2,0,16,0,0
224605,-100,4,1,0,16,0,0
225171,-100,4,2,0,16,0,0
225454,-100,4,1,0,16,0,0
226091,-100,4,2,0,16,0,0
226870,-100,4,1,0,16,0,0
227436,-100,4,2,0,16,0,0
227719,-100,4,1,0,16,0,0
228072,-100,4,2,0,16,0,0
229134,-100,4,1,0,16,0,0
229770,-100,4,2,0,16,0,0
229983,-100,4,1,0,16,0,0
230195,-100,4,2,0,16,0,0
231469,-100,4,1,0,16,0,0
231610,-100,4,2,0,16,0,0
232318,-100,4,1,0,16,0,0
232601,-100,4,2,0,33,0,0
233167,-100,4,2,0,21,0,0
233733,-100,4,1,0,21,0,0
243355,-100,4,1,0,41,0,0
246256,-100,4,1,0,26,0,0
247954,-100,4,1,0,39,0,0
250510,-100,4,2,0,40,0,0
250651,-100,4,2,0,50,0,0
250793,-100,4,2,0,60,0,0
251912,-100,4,2,1,100,0,1
267761,-100,4,2,1,100,0,0
270025,-100,4,2,1,100,0,1
270171,-76.9230769230769,4,2,1,83,0,1
285737,-76.9230769230769,4,1,0,36,0,1
286162,-76.9230769230769,4,1,0,45,0,1
286445,-76.9230769230769,4,1,0,52,0,1
286728,-76.9230769230769,4,1,0,60,0,1
287011,-76.9230769230769,4,1,0,68,0,1
287294,-76.9230769230769,4,1,0,76,0,1
287577,-76.9230769230769,4,1,1,83,0,1
287855,-76.9230769230769,4,2,1,100,0,0
288138,-76.9230769230769,4,2,1,100,0,1
296068,-76.9230769230769,4,1,1,54,0,1
296351,-76.9230769230769,4,1,1,60,0,1
296634,-76.9230769230769,4,1,1,71,0,1
296923,-76.9230769230769,4,2,1,93,0,0
297195,-76.9230769230769,4,2,1,100,0,1
306252,-76.9230769230769,4,2,1,100,0,0
324082,-76.9230769230769,4,2,1,100,0,0
324152,-76.9230769230769,4,2,1,65,0,0
337093,300,4,2,1,40,1,0
346663,-100,4,1,0,70,0,0
346851,-100,4,2,1,70,0,0
366193,-100,4,2,1,70,0,0
384870,-100,4,2,0,70,0,0
384943,-100,4,1,0,70,0,0
385138,-100,4,2,1,70,0,0
388663,-100,4,1,0,70,0,0
389001,-100,4,2,1,70,0,0
399493,-100,4,1,0,70,0,0
399651,-100,4,2,1,70,0,0
408343,-100,4,1,0,70,0,0
408943,-100,4,1,0,70,0,0
409093,-100,4,1,0,70,0,0
409168,-100,4,2,1,70,0,0
416593,-100,4,1,0,70,0,0
416670,-100,4,2,0,70,0,0
416743,-100,4,1,0,50,0,0
416893,-100,4,1,0,80,0,0
416968,-100,4,2,0,70,0,0
417043,-100,4,1,0,50,0,0
417193,-100,4,1,0,90,0,0
417270,-100,4,2,0,70,0,0
417493,-100,4,1,0,100,0,0
417568,-100,4,2,0,70,0,0
418693,-100,4,2,1,70,0,1
428226,-100,4,1,0,70,0,1
428451,-100,4,2,1,70,0,1
436634,-100,4,2,0,70,0,1
436784,-100,4,1,0,70,0,1
437830,-100,4,1,0,70,0,0
437893,-100,4,1,0,70,0,1
442693,-100,4,1,0,70,0,0
452001,-100,4,2,1,70,0,0
461293,-100,4,1,0,70,0,0
461976,-100,4,2,1,70,0,0
470293,-100,4,1,0,70,0,0
471576,-100,4,2,0,70,0,0
471726,-100,4,1,0,70,0,0
471876,-100,4,2,1,70,0,0
475693,-100,4,1,0,70,0,0
475926,-100,4,1,0,70,0,0
476526,-100,4,1,0,70,0,0
476676,-100,4,2,1,70,0,0
479893,-100,4,1,0,70,0,0
481176,-100,4,2,0,70,0,0
481326,-100,4,1,0,70,0,0
481476,-100,4,2,1,70,0,0
490693,-100,4,1,0,70,0,1
490851,-100,4,2,1,70,0,1
499693,-100,4,1,0,60,0,1
499993,-100,4,1,0,65,0,1
500143,-100,4,1,0,70,0,0
500293,-100,4,1,0,70,0,1
501276,-100,4,2,0,70,0,1
501426,-100,4,1,0,70,0,1
501876,-100,4,2,0,70,0,1
502326,-100,4,1,0,70,0,1
502776,-100,4,2,0,70,0,1
502926,-100,4,1,0,70,0,1
509293,-100,4,1,0,60,0,1
509593,-100,4,1,0,65,0,1
514693,-100,4,1,0,70,0,0
514709,-100,4,1,0,70,0,0
563151,-83.3333333333333,4,1,0,70,0,0
574251,-76.9230769230769,4,1,0,70,0,0
581893,-76.9230769230769,4,1,0,70,0,1
591193,-76.9230769230769,4,1,0,70,0,0
591493,-76.9230769230769,4,1,0,70,0,1
601093,-76.9230769230769,4,1,0,70,0,1
603726,-83.3333333333333,4,1,0,70,0,1
605893,-83.3333333333333,4,1,0,70,0,0
634993,-83.3333333333333,4,1,0,20,0,0
648736,500,4,2,1,100,1,0
710611,-100,4,1,0,63,0,0
710781,-100,4,1,0,65,0,0
710857,-100,4,1,0,70,0,0
710982,-100,4,1,0,76,0,0
711107,-100,4,1,0,79,0,0
711232,-100,4,1,0,85,0,0
711357,-100,4,1,0,91,0,0
711482,-100,4,1,0,94,0,0
711781,-100,4,1,0,100,0,0
712736,-76.9230769230769,4,1,0,100,0,1
712798,-76.9230769230769,4,2,1,100,0,1
720498,-76.9230769230769,4,1,0,100,0,0
720736,-76.9230769230769,4,1,0,100,0,1
721986,-76.9230769230769,4,2,1,100,0,1
727986,-76.9230769230769,4,1,0,80,0,1
728111,-76.9230769230769,4,1,0,83,0,1
728236,-76.9230769230769,4,1,0,86,0,1
728361,-76.9230769230769,4,1,0,89,0,1
728486,-76.9230769230769,4,1,0,92,0,1
728623,-76.9230769230769,4,1,0,95,0,0
728736,-76.9230769230769,4,1,0,98,0,1
744736,-100,4,1,0,100,0,0
751234,-100,4,2,1,100,0,0
752611,-100,4,1,0,100,0,0
752861,-100,4,2,1,100,0,0
759611,-100,4,1,0,100,0,0
759861,-100,4,2,0,100,0,0
760173,-100,4,1,0,100,0,0
760361,-100,4,2,0,100,0,0
760673,-100,4,1,0,100,0,0
760861,-100,4,2,1,100,0,0
784548,-100,4,2,0,100,0,0
785111,-100,4,1,0,100,0,0
785361,-83.3333333333333,4,1,0,100,0,0
785548,-83.3333333333333,4,2,0,100,0,0
786111,-83.3333333333333,4,1,0,100,0,0
786361,-71.4285714285714,4,1,0,100,0,0
786548,-71.4285714285714,4,2,0,100,0,0
787111,-62.5,4,1,0,100,0,0
787548,-62.5,4,2,0,100,0,0
788111,-55.5555555555556,4,1,0,100,0,0
789361,-50,4,1,0,100,0,0
789548,-50,4,2,0,100,0,0
790111,-76.9230769230769,4,1,0,100,0,0
790736,-76.9230769230769,4,1,0,80,0,0
790986,-76.9230769230769,4,1,0,85,0,0
791236,-76.9230769230769,4,1,0,90,0,0
791486,-76.9230769230769,4,1,0,95,0,0
791736,-76.9230769230769,4,1,0,100,0,0
792736,-76.9230769230769,4,1,0,100,0,1
800486,-76.9230769230769,4,1,0,100,0,0
800736,-76.9230769230769,4,1,0,100,0,1
808611,-76.9230769230769,4,1,0,100,0,0
808736,-76.9230769230769,4,1,0,100,0,1
824611,-76.9230769230769,4,1,0,100,0,0
824736,-76.9230769230769,4,1,0,100,0,1
824861,-76.9230769230769,4,1,0,100,0,0
852361,-76.9230769230769,4,2,0,100,0,0
858736,-76.9230769230769,4,1,0,100,0,0
860736,-66.6666666666667,4,1,0,100,0,1
868486,-66.6666666666667,4,1,0,100,0,0
868736,-66.6666666666667,4,1,0,100,0,1
872361,-66.6666666666667,4,1,0,100,0,1
873861,-66.6666666666667,4,1,0,100,0,1
884486,-66.6666666666667,4,1,0,100,0,0
884736,-66.6666666666667,4,1,0,100,0,1
886236,-66.6666666666667,4,1,0,100,0,0
912957,856.959223023638,4,2,0,21,1,0
941887,-117.647058823529,4,2,0,21,0,0
972298,-100,4,2,0,21,0,0
974654,-100,4,2,0,21,0,0
991894,-117.647058823529,4,2,0,21,0,0
992858,-100,4,2,0,21,0,0
1015131,-90.9090909090909,4,2,0,21,0,0
1015452,-90.9090909090909,4,2,0,5,0,0
1017701,-100,4,2,0,15,0,0
1022649,428.571428571429,4,2,1,78,1,0
1030031,-90.9090909090909,4,2,0,79,0,0
1031103,-100,4,2,1,79,0,0
1049960,-100,4,1,0,60,0,0
1050174,-100,4,2,0,100,0,0
1051674,-100,4,1,0,60,0,0
1051889,-100,4,2,0,100,0,0
1052103,-100,4,1,0,60,0,0
1052317,-100,4,2,0,100,0,0
1052531,-100,4,1,0,60,0,0
1052746,-100,4,2,0,100,0,0
1052960,-100,4,1,0,60,0,0
1053174,-100,4,2,0,100,0,0
1053389,-100,4,1,0,80,0,0
1053603,-100,4,2,0,100,0,0
1054246,-100,4,1,0,80,0,0
1054460,-100,4,2,1,81,0,0
1067103,-100,4,1,0,80,0,0
1067317,-100,4,2,1,100,0,0
1069674,-100,4,1,0,85,0,0
1069996,-100,4,2,1,85,0,0
1070531,-100,4,1,0,68,0,0
1070746,-100,4,2,0,100,0,0
1071389,-100,4,1,0,80,0,0
1071603,-100,4,2,0,100,0,0
1072246,-100,4,1,0,60,0,0
1072460,-100,4,2,0,100,0,0
1073103,-100,4,1,0,80,0,0
1073317,-100,4,2,0,100,0,0
1073960,-100,4,1,0,60,0,0
1074174,-100,4,2,0,100,0,0
1074389,-100,4,1,0,60,0,0
1074603,-100,4,2,0,100,0,0
1074817,-100,4,1,0,80,0,0
1075031,-100,4,2,0,100,0,0
1075674,-100,4,1,0,60,0,0
1076317,-100,4,2,0,100,0,0
1076531,-100,4,1,0,80,0,0
1076746,-100,4,2,0,100,0,0
1077389,-100,4,2,1,81,0,0
1081246,-90.9090909090909,4,2,1,82,0,0
1082317,-100,4,2,1,80,0,0
1083281,-100,4,2,1,80,0,0
1093460,-90.9090909090909,4,2,1,80,0,0
1094317,-100,4,2,1,80,0,0
1105674,-100,4,2,1,80,0,0
1118531,-100,4,1,0,80,0,0
1118746,-100,4,2,1,80,0,0
1122014,-100,4,1,0,80,0,0
1122174,-100,4,2,1,80,0,0
1128817,-133.333333333333,4,2,1,80,0,0
1135674,-100,4,2,0,22,0,0
1137505,444.444444444444,4,2,0,22,1,0
1139282,461.538461538462,4,2,0,16,1,0
1140205,571.428571428571,4,2,0,19,1,0
1141347,571.428571428571,4,2,0,19,1,0
1150313,454.545454545455,4,2,0,100,1,0
1153040,-100,4,2,1,100,0,0
1226981,-72.992700729927,4,2,1,100,0,0
1241222,-68.0272108843537,4,2,1,100,0,1
1284868,-105.042016806723,4,1,0,100,0,0
1291224,-80.7754442649435,4,1,0,100,0,0
1291299,-80.7754442649435,4,2,1,100,0,0
1291375,-80.7754442649435,4,1,0,100,0,0
1291451,-80.7754442649435,4,2,1,100,0,0
1291527,-80.7754442649435,4,1,0,100,0,0
1291602,-80.7754442649435,4,2,1,100,0,0
1291678,-74.6268656716418,4,1,0,100,0,0
1292133,-72.7272727272727,4,2,1,100,0,0
1328494,-72.992700729927,4,2,1,100,0,1
1342147,-72.992700729927,4,2,1,100,0,1
1342737,-72.992700729927,4,2,1,100,0,0
1343040,-72.992700729927,4,2,1,100,0,1
1345025,-63.2911392405063,4,2,1,100,0,1
1345935,-72.992700729927,4,2,1,100,0,1
1357585,-72.992700729927,4,2,1,100,0,0
1372139,-72.992700729927,4,2,1,100,0,0
1408427,-86.2068965517241,4,2,1,100,0,0
1409571,-87.5656742556918,4,2,1,100,0,0
1412071,-87.5656742556918,4,1,0,100,0,0
1412222,-87.5656742556918,4,2,1,100,0,0
1415767,-72.992700729927,4,2,1,100,0,1
1430009,-72.992700729927,4,2,1,100,0,0
1430312,-72.992700729927,4,2,1,100,0,1
1430632,-63.2911392405063,4,2,1,100,0,1
1444706,-63.2911392405063,4,2,1,100,0,0
1444858,-63.2911392405063,4,2,1,100,0,1
1473949,-63.2911392405063,4,2,1,100,0,0
1491562,389.61038961039,4,1,0,80,1,0
1506367,-200,4,1,0,80,0,0
1507146,-100,4,1,0,80,0,0
1550782,-100,4,1,0,80,0,1
1575717,-100,4,1,0,80,0,0
1584873,-100,4,2,0,70,0,0
1587511,-100,4,1,0,80,0,0
1589938,-200,4,1,0,80,0,0
1590523,-100,4,1,0,80,0,0
1619354,-100,4,1,0,80,0,1
1644289,-100,4,1,0,80,0,0
1662990,-100,4,2,0,40,0,0
1678575,-100,4,2,0,70,0,0
1688315,-100,4,1,0,40,0,0
1688510,-100,4,1,0,50,0,0
1688704,-100,4,1,0,60,0,0
1688899,-100,4,1,0,70,0,0
1689094,-100,4,1,0,80,0,0
1689289,-100,4,1,0,80,0,0
1689484,-100,4,1,0,80,0,0
1691042,-100,4,1,0,80,0,1
1714419,-100,4,2,0,40,0,0
1730551,512.820512820513,4,1,0,100,1,0
1747667,-181.818181818182,4,2,0,35,0,0
1763137,-120.481927710843,4,2,1,70,0,0
1795191,-120.481927710843,4,2,1,90,0,0
1796192,-90.9090909090909,4,2,1,100,0,1
1824909,-100,4,2,1,100,0,0
1830166,-119.760479041916,4,2,1,100,0,0
1874140,-90.9090909090909,4,2,1,100,0,1
1902858,-100,4,2,1,100,0,0
1917477,-120.481927710843,4,2,1,100,0,0
1950551,-120.481927710843,4,2,1,70,0,0
1951063,-120.481927710843,4,2,1,60,0,0
1952088,-90.9090909090909,4,2,1,100,0,1
1967986,-90.9090909090909,4,2,1,100,0,0
1968499,-90.9090909090909,4,2,1,100,0,1
1980807,-90.9090909090909,4,2,1,100,0,0
1994397,428.571428571429,3,2,0,30,1,0
1995484,-100,3,2,0,48,0,0
1995913,-100,3,2,0,30,0,0
2000627,-100,3,2,0,51,0,0
2001055,-100,3,2,0,30,0,0
2045825,-100,3,2,0,40,0,0
2070163,-100,3,1,0,60,0,0
2070323,-100,3,2,0,60,0,0
2071539,-100,3,1,0,50,0,0
2072825,-100,3,1,0,60,0,0
2073055,-100,3,2,0,60,0,0
2073913,-100,3,2,1,60,0,0
2130682,-100,3,2,1,60,0,1
2141198,-87.719298245614,3,2,1,60,0,1
2142484,-100,3,2,1,60,0,1
2153825,-100,3,2,1,60,0,0
2189734,-87.719298245614,3,2,1,60,0,0
2197448,-100,3,2,1,60,0,0
2245012,-100,3,1,0,60,0,0
2246397,-100,3,1,0,60,0,1
2246619,-100,3,2,1,60,0,1
2269111,-100,3,2,1,60,0,0
2269539,-100,3,2,1,60,0,1
2290111,-100,3,2,1,60,0,0
2308992,447.761194029851,4,2,0,29,1,0
2316044,-100,4,2,1,51,0,0
2336305,-100,4,1,0,41,0,0
2337318,-100,4,2,1,51,0,0
2350969,-100,4,1,0,41,0,0
2351865,-133.333333333333,4,2,1,60,0,0
2365521,-133.333333333333,4,1,0,20,0,0
2365745,-133.333333333333,4,1,0,30,0,0
2365969,-100,4,1,0,50,0,0
2366305,-100,4,1,2,60,0,1
2379408,-100,4,1,2,70,0,1
2381087,-100,4,1,2,60,0,1
2394962,-100,4,1,2,60,0,0
2402350,-100,4,2,1,55,0,0
2415223,-100,4,1,0,50,0,0
2416566,-100,4,2,1,50,0,0
2429775,-100,4,1,0,50,0,0
2430671,-133.333333333333,4,2,1,50,0,0
2444327,-133.333333333333,4,2,1,40,0,0
2444551,-133.333333333333,4,2,1,50,0,0
2445111,-100,4,1,2,60,0,1
2470186,-100,4,1,0,65,0,0
2488096,-100,4,1,0,65,0,1
2488214,-100,4,1,0,65,0,0
2502424,-100,4,1,0,65,0,1
2502542,-100,4,1,0,65,0,0
2526162,-100,4,1,0,40,0,0
2526721,-100,4,1,0,50,0,0
2527169,-100,4,1,0,60,0,0
2527499,-100,4,1,2,65,0,1
2541380,-100,4,1,2,65,0,0
2541827,-100,4,1,2,65,0,1
2553021,-100,4,1,2,65,0,1
2555596,-100,4,1,2,5,0,1
2556156,-100,4,1,2,56,0,0
2565180,447.761194029851,4,1,0,100,1,0
2579508,-100,4,2,0,100,0,0
2586112,-100,4,1,0,69,0,0
2643985,-100,4,1,0,69,0,1
2658314,-100,4,1,0,69,0,1
2671747,-100,4,1,0,69,0,1
2672642,-100,4,1,0,69,0,0
2701539,-90.9090909090909,4,1,0,69,0,0
2715643,-100,4,1,0,69,0,0
2729956,-100,4,1,0,69,0,1
2758612,-76.9230769230769,4,1,0,69,0,0
2761875,-66.6666666666667,4,1,0,69,0,0
2801605,-133.333333333333,4,1,0,60,0,0
2815926,-100,4,1,0,60,0,0
2844582,-100,4,1,0,60,0,1
2855329,-100,4,1,0,60,0,0
2858911,-100,4,1,0,60,0,1
2873239,-100,4,1,0,60,0,0
2889304,-100,4,2,0,5,0,0
2895844,370.37037037037,4,2,0,100,1,0
2901399,-166.666666666667,4,2,0,50,0,0
2924269,-200,4,2,0,50,0,0
2940108,-200,4,2,1,50,0,0
2952145,-100,4,2,1,75,0,0
2960479,-133.333333333333,4,2,1,75,0,0
2962331,-100,4,2,1,75,0,0
2976220,-100,4,2,1,75,0,0
3016775,-133.333333333333,4,2,1,75,0,0
3018627,-100,4,2,1,75,0,0
3057232,-151.515151515152,4,1,0,60,0,0
3058719,-100,4,2,0,75,0,0
3059182,-100,4,2,1,75,0,0
3082562,-100,4,2,0,10,0,0
3086775,-100,4,2,0,75,0,0
3103066,-151.515151515152,4,1,0,60,0,0
3105571,-151.515151515152,4,2,0,75,0,0
3106126,-151.515151515152,4,1,0,60,0,0
3108066,-151.515151515152,4,2,0,75,0,0
3108437,-151.515151515152,4,1,0,60,0,0
3108626,-151.515151515152,4,2,0,75,0,0
3109177,-151.515151515152,4,1,0,60,0,0
3111029,-151.515151515152,4,2,0,75,0,0
3111400,-151.515151515152,4,1,0,60,0,0
3111589,-151.515151515152,4,2,0,75,0,0
3112140,-151.515151515152,4,1,0,60,0,0
3117978,-100,4,2,1,75,0,0
3126214,-100,4,2,1,75,0,0
3165474,-100,4,2,1,75,0,1
3176960,-100,4,2,1,75,0,0
3177325,-100,4,2,1,75,0,1
3177695,-100,4,2,1,75,0,0

[Colours]
Combo1 : 106,200,184
Combo2 : 56,132,188
Combo3 : 166,185,60
Combo4 : 209,72,33
SliderBorder : 0,0,0

[HitObjects]
192,144,2308992,6,0,B|160:96|96:80,2,100,2|0|0
256,112,2309663,2,0,B|256:0,2,100,2|0|0
320,144,2310335,2,0,B|352:96|416:80,2,100,2|0|0
256,192,2311006,1,0
176,304,2311678,2,0,B|208:352|256:368|256:368|304:352|336:304,1,200,4|4
416,128,2312574,6,0,B|416:64|352:48,2,100,2|0|0
256,144,2313245,2,0,B|256:32,2,100,2|0|0
96,128,2313917,2,0,B|96:64|160:48,2,100,2|0|0
256,144,2314589,1,0
164,336,2315260,2,0,B|208:305|256:345|256:345|304:305|348:335|348:335,1,200,4|4
256,256,2316156,5,0
208,176,2316380,1,0
112,192,2316603,1,2
64,112,2316827,2,0,B|112:96|144:48,2,100,0|8|0
192,112,2317499,2,0,B|256:32|384:48,1,200,2|0
352,128,2318171,1,0
336,208,2318394,2,0,B|336:272|400:304,1,100,2|0
464,304,2318842,2,0,B|464:240|400:208,1,100,8|0
352,128,2319290,5,2
208,80,2319514,1,0
112,192,2319738,2,0,B|64:224|80:288,1,100
256,256,2320186,2,0,B|208:240|144:256,1,100,2|0
112,192,2320633,1,8
80,112,2320857,1,0
160,80,2321081,2,0,B|256:128|352:80,1,200,2|0
400,160,2321753,5,0
352,240,2321977,2,0,B|351:240|307:270|259:230|259:230|211:270|167:239,1,200,2|8
96,176,2322648,1,0
64,256,2322872,2,0,B|64:304|80:368|176:368|208:352,1,200,2|4
192,272,2323544,5,0
256,208,2323768,1,2
320,272,2323991,1,0
311,354,2324215,2,0,B|336:368|432:368|448:304|448:256,1,200,8|0
416,176,2324887,2,0,B|384:112|416:48,2,100,0|0|0
320,192,2325559,1,2
224,192,2325783,2,0,B|224:256|176:288,1,100,0|8
160,128,2326230,2,0,B|160:64|112:32,1,100,0|2
224,192,2326678,1,0
160,128,2326902,1,4
64,128,2327126,5,0
192,48,2327350,1,2
224,192,2327574,1,0
304,112,2327797,2,0,B|400:48|512:80,1,200,8|2
464,160,2328469,2,0,B|432:208|432:272,2,100,0|0|0
464,336,2329141,1,2
384,304,2329365,1,0
304,256,2329589,2,0,B|256:288|208:256,1,100,8|0
124,304,2330036,2,0,B|188:96,1,200,2|4
156,16,2330708,6,0,B|188:128,1,100,0|2
272,128,2331156,1,0
352,176,2331380,2,0,B|304:288|368:384,1,200,8|0
153,368,2332051,2,0,B|208:288|160:176,1,200
64,176,2332723,2,0,B|96:224|96:272,1,100,2|0
192,84,2333171,2,0,B|160:132|160:180,1,100,8|0
256,192,2333618,1,2
160,336,2334066,6,0,B|256:384|352:336,2,200,4|0|8
160,256,2335186,1,2
160,256,2335409,2,0,B|256:320|352:256,1,200,4|0
344,168,2336081,6,0,B|360:116|332:72,1,100,0|4
256,144,2336529,1,0
256,144,2336641,1,0
256,144,2336753,1,12
192,80,2336977,1,0
128,144,2337200,2,0,B|160:192|128:240,1,100,8|0
240,336,2337648,6,0,B|192:240|256:144,1,200,4|2
320,96,2338320,2,0,B|368:64|416:64,2,100,0|8|0
380,164,2338991,1,0
380,164,2339215,2,0,B|300:248|180:204,1,200,2|2
284,108,2339887,1,8
284,108,2340111,2,0,B|304:220|244:304,1,200,8|2
160,236,2340783,1,2
64,288,2341006,6,0,B|48:240|64:176,1,100,0|4
48,16,2341454,2,0,B|64:64|48:128,1,100,0|2
128,144,2341902,2,0,B|240:112,1,100,0|8
304,128,2342350,1,0
256,304,2342797,6,0,B|336:384|464:352,2,200,0|0|0
381,253,2343917,2,0,B|381:189|333:157,1,100,8|0
253,205,2344365,2,0,B|269:253|253:317,1,100,2|0
173,253,2344812,5,4
32,128,2345036,2,0,B|32:64|80:32,1,100,0|2
160,80,2345484,2,0,B|144:128|160:192,1,100,0|8
240,192,2345932,1,0
288,112,2346156,1,2
368,272,2346380,6,0,B|384:208|336:176,1,100,0|0
288,256,2346827,2,0,B|272:320|320:352,1,100,0|2
288,256,2347275,1,0
352,176,2347499,1,8
392,80,2347723,2,0,B|320:80|256:32|256:32|192:80|104:80,1,300,0|4
80,160,2348618,5,0
64,256,2348842,2,0,B|192:240,1,100,2|0
224,320,2349290,2,0,B|96:336,1,100,8|0
346,300,2349738,2,0,B|273:227|161:243,1,200,2|0
176,144,2350409,1,0
224,64,2350633,5,2
400,48,2350857,1,0
336,192,2351081,1,0
256,80,2351305,5,0
352,64,2351529,1,0
320,160,2351753,1,0
240,256,2351977,6,0,B|144:176|208:48,1,224.999993294478,4|2
140,112,2352872,2,0,B|120:204|27:226,1,149.999995529652,8|0
48,220,2353544,1,0
88,300,2353768,1,2
168,344,2353991,1,8
256,364,2354215,2,0,B|336:348,1,74.9999977648259,0|0
420,344,2354663,6,0,B|356:280|404:200,1,149.999995529652,8|2
464,144,2355335,1,0
384,108,2355559,2,0,B|316:68|240:120,1,150.000005722046,0|2
260,208,2356230,1,0
260,208,2356454,2,0,B|276:112|212:48|132:32|68:80,1,299.999991059304,10|0
132,144,2357574,6,0,B|168:140|184:188,2,75.0000028610231,8|2|8
140,328,2358245,2,0,B|140:232|252:200,1,149.999995529652,8|2
216,212,2358917,1,8
372,328,2359141,2,0,B|372:232|260:200,1,149.999995529652,4|2
256,132,2359812,1,0
184,80,2360036,2,0,B|256:48|256:48|328:80,2,149.999995529652,8|2|0
108,128,2361156,1,8
96,216,2361380,6,0,B|224:312,1,149.999995529652,2|8
256,224,2362051,1,2
416,216,2362275,2,0,B|288:312,2,149.999995529652,0|4|2
420,128,2363394,1,8
336,92,2363618,2,0,B|288:44|224:28|144:44|96:92|80:156,2,299.999991059304,8|0|8
288,176,2365633,5,0
160,256,2365857,1,4
304,320,2366081,1,0
288,176,2366305,5,6
224,80,2366529,2,0,B|160:112|96:96,1,100,2|0
48,48,2366977,2,2,B|16:96|48:160,1,100,2|0
128,176,2367424,2,2,B|144:240|112:272,1,100,0|2
160,368,2367872,2,2,B|240:288|224:176,1,200
128,176,2368544,5,0
227,187,2368768,2,2,B|259:139|307:123,1,100
464,48,2369215,2,0,B|432:80|368:96,1,100,2|0
368,192,2369663,2,2,B|480:224|480:352,1,200,6|2
384,320,2370335,5,0
288,336,2370559,1,2
192,352,2370783,1,0
96,352,2371006,2,0,B|128:304|96:256,1,100,2|0
97,258,2371454,2,2,B|0:192|48:64,1,200
144,80,2372126,1,0
240,112,2372350,5,0
336,80,2372574,1,2
416,128,2372797,1,0
416,32,2373021,1,2
416,128,2373245,2,2,B|320:192|304:288,1,200,4|0
384,320,2373917,2,0,B|288:256|160:304,1,200,2|0
112,336,2374589,1,0
80,256,2374812,1,0
80,256,2375036,2,2,B|48:128|144:80,1,200,2|2
208,144,2375708,6,2,B|256:160|320:144,1,100,0|2
432,80,2376156,2,2,B|381:66|333:82,1,100
240,64,2376603,1,0
144,64,2376827,2,2,B|64:128|80:272,1,200,6|0
32,176,2377499,1,0
32,176,2377723,2,2,B|112:256|32:384,1,200,6|0
120,296,2378394,2,2,B|196:196|325:267,1,200,0|4
480,296,2379066,2,0,B|428:304|380:276,1,100
432,96,2379514,5,0
336,192,2379738,1,4
472,220,2379962,1,0
428,112,2380186,1,4
352,184,2380409,1,0
456,208,2380633,1,4
256,192,2381081,6,2,B|160:112,1,100
96,112,2381529,1,2
96,112,2381753,1,0
48,192,2381977,1,2
48,192,2382200,2,2,B|204:316,1,200
288,320,2382872,2,0,B|352:304|352:240,2,100,0|0|2
288,320,2383544,1,0
256,144,2383768,6,0,B|256:192|288:256,2,100,2|0|4
192,64,2384439,2,2,B|184:121|126:149,1,100,2|2
32,144,2384887,2,0,B|80:192|64:272,1,100,2|0
128,320,2385335,1,2
32,320,2385559,1,0
128,320,2385783,6,2,B|176:224|304:256,1,200,6|0
416,240,2386454,2,0,B|360:136|240:176,1,200,0|0
188,92,2387126,1,4
288,48,2387350,1,0
368,112,2387574,1,0
264,168,2387797,5,6
368,112,2388021,2,2,B|432:96|480:32,2,100,0|2|2
331,208,2388693,2,2,B|224:272|203:384,1,200,0|2
208,358,2389365,1,0
304,360,2389589,2,2,B|277:248|186:198,1,200,6|2
128,128,2390260,1,0
164,48,2390484,2,0,B|208:17|256:57|256:57|304:17|348:47|348:47,1,200,2|0
384,128,2391156,1,2
128,128,2391603,1,4
256,192,2391827,12,0,2394066
256,48,2401678,5,0
256,48,2401790,1,0
256,48,2401902,1,0
256,48,2402014,1,0
256,48,2402126,1,4
208,112,2402350,6,0,B|256:144|304:112,1,100,0|2
344,176,2402797,1,0
344,176,2403021,2,0,B|312:208|256:224|192:208|152:168,1,200,8|0
64,160,2403693,1,2
32,240,2403917,1,0
160,176,2404141,2,0,B|224:176|256:128,1,100,0|2
160,96,2404589,2,0,B|128:48|160:-16,1,100,0|8
240,32,2405036,2,0,B|309:113|453:97,1,200
432,192,2405708,1,4
384,272,2405932,5,0
336,352,2406156,1,2
256,304,2406380,2,0,B|256:192,1,100,0|8
176,176,2406827,1,0
176,176,2407051,2,0,B|192:48|64:32,2,200,2|0|2
256,144,2408171,1,2
256,144,2408394,2,0,B|272:32|400:32,1,200,8|2
448,208,2409066,1,0
448,208,2409290,6,0,B|432:144|448:96,1,100,4|0
352,144,2409738,2,0,B|368:192|352:256,1,100,2|0
272,288,2410186,2,0,B|256:224|272:176,1,100,8|0
176,224,2410633,2,0,B|192:272|176:336,1,100,2|0
96,320,2411081,5,0
64,224,2411305,1,0
80,128,2411529,2,0,B|176:64,1,100,2|0
256,96,2411977,1,8
353,76,2412200,2,0,B|449:12,1,100,2|0
416,144,2412648,1,2
416,144,2412872,6,0,B|464:240|416:352,2,200,8|0|8
336,176,2413991,1,0
240,176,2414215,1,2
288,256,2414439,1,0
240,176,2414663,1,0
144,176,2414887,1,0
192,256,2415111,1,10
240,176,2415335,5,0
240,176,2415447,1,0
240,176,2415559,1,12
144,48,2415783,1,0
336,48,2416006,1,8
240,176,2416230,1,0
240,176,2416454,1,4
304,240,2416678,5,0
352,320,2416902,2,0,B|384:272|448:256,1,100,2|0
432,176,2417350,2,0,B|320:144|320:16,1,200,8|2
240,48,2418021,2,0,B|208:160|64:160,1,200,0|2
48,256,2418693,1,2
96,352,2418917,1,0
96,352,2419141,2,0,B|144:240|256:240,2,200,8|0|4
208,352,2420260,5,0
304,352,2420484,1,2
400,352,2420708,1,0
400,352,2420932,2,0,B|352:240|240:240,1,200,8|0
176,192,2421603,5,0
144,112,2421827,1,2
240,128,2422051,1,0
240,128,2422275,2,0,B|352:128|416:16,1,200,0|8
464,144,2422947,1,0
416,272,2423171,1,2
256,352,2423618,5,4
160,336,2423842,2,0,B|112:240|176:144,1,200
112,96,2424514,2,0,B|160:64|208:64,2,100,8|0|2
288,80,2425186,1,0
368,128,2425409,1,0
352,224,2425633,1,0
432,352,2425857,6,0,B|416:304|448:256,1,100,2|0
256,208,2426305,2,0,B|256:320,1,100,8|0
80,352,2426753,2,0,B|96:304|64:256,1,100,2|0
64,160,2427200,1,4
144,112,2427424,2,0,B|272:80,2,100,0|2|0
192,192,2428096,2,0,B|208:320,1,100,8|0
307,291,2428544,2,0,B|320:192,1,100,2|0
256,96,2428991,5,0
208,176,2429215,1,8
304,176,2429439,1,0
256,64,2429663,1,0
176,176,2429887,1,4
336,176,2430111,1,0
388,272,2430335,1,0
256,304,2430559,1,0
128,272,2430783,6,0,B|128:144|48:64,1,224.999993294478,4|0
168,88,2431678,2,0,B|252:100|312:40,1,150.000005722046,8|0
396,40,2432350,1,8
452,108,2432574,1,0
416,192,2432797,1,0
328,176,2433021,1,8
320,88,2433245,1,0
416,192,2433469,6,0,B|467:195|491:221,1,74.9999977648259,8|0
420,280,2433917,2,0,B|384:364|288:344,1,150.000005722046,0|4
324,260,2434589,1,0
324,260,2434812,2,0,B|332:180|402:139,2,149.999995529652,0|8|0
300,348,2435932,1,8
220,200,2436156,1,0
400,140,2436380,6,0,B|352:140|320:108,2,74.9999977648259,8|8|0
348,32,2437051,2,0,B|348:120|260:144,1,150.000005722046,8|0
260,232,2437723,1,0
260,60,2437947,2,0,B|163:69|157:170,1,149.999995529652,4|0
156,244,2438618,1,0
256,336,2438842,2,0,B|352:336|360:248,2,150.000005722046,8|0|0
256,336,2439962,1,8
268,248,2440186,6,0,B|168:124,1,150.000005722046,0|8
120,204,2440857,1,0
80,124,2441081,2,0,B|168:112|196:40,2,150.000005722046,0|4|0
120,204,2442200,1,8
168,280,2442424,2,0,B|216:328|280:344|360:328|408:280|424:216,2,299.999991059304,8|0|0
224,208,2444439,5,0
352,128,2444663,1,0
224,64,2444887,1,0
128,80,2445111,6,2,B|80:112|96:192,1,100,6|2
48,256,2445559,1,0
96,336,2445783,2,0,B|160:320|224:368,1,100,0|2
288,352,2446230,1,0
368,320,2446454,1,2
288,352,2446678,2,2,B|240:256|288:160,1,200
288,64,2447350,2,0,B|176:48,1,100
352,128,2447797,2,2,B|464:144,1,100,2|0
400,224,2448245,5,2
400,320,2448469,2,2,B|304:272|192:320,1,200,6|0
128,352,2449141,2,2,B|144:288|128:240,1,100,2|0
80,64,2449589,2,2,B|64:128|80:176,1,100,2|2
176,192,2450036,1,0
176,192,2450260,2,2,B|64:224|48:352,1,200
128,256,2450932,6,0,B|240:304,1,100
288,368,2451380,1,2
384,320,2451603,2,0,B|475:280,1,100
464,176,2452051,6,2,B|352:176|288:48,1,200,6|0
302,73,2452723,1,2
180,56,2452947,1,0
152,180,2453171,1,2
276,204,2453394,1,0
152,180,2453618,1,2
32,256,2453842,2,2,B|80:368|224:352,1,200,0|2
256,288,2454514,1,0
320,352,2454738,6,2,B|384:336|400:256,2,100,0|2|2
256,288,2455409,1,0
320,224,2455633,2,2,B|384:112|512:144,1,200,4|0
400,128,2456305,1,0
400,128,2456529,2,2,B|272:112|256:0,1,200,2|0
176,32,2457200,2,2,B|192:160|64:208,1,200,0|2
64,288,2457872,1,0
64,288,2458096,6,0,B|128:288|176:336,1,100
352,348,2458544,1,4
240,352,2458768,1,0
288,272,2458991,1,0
304,256,2459103,1,0
320,240,2459215,1,0
336,224,2459327,1,0
352,208,2459439,1,4
256,48,2459887,6,0,B|176:128,2,100,0|2|2
320,112,2460559,2,2,B|240:192,1,100
384,176,2461006,2,2,B|240:320,1,200
160,336,2461678,1,0
80,288,2461902,1,0
64,192,2462126,6,0,B|48:144|64:80,1,100,2|0
128,144,2462574,2,2,B|144:192|128:256,1,100,2|0
208,208,2463021,2,0,B|224:80|352:64,1,200,2|0
416,96,2463693,1,0
384,176,2463917,2,0,B|432:384,2,200,2|2|0
304,224,2465036,1,0
304,224,2465260,6,0,B|336:336,1,100
192,240,2465708,2,0,B|160:128,1,100
32,112,2466156,1,0
144,32,2466380,1,0
144,32,2466603,6,2,B|192:64|240:48,2,100,6|0|0
144,128,2467275,2,2,B|224:192|208:320,1,200
304,304,2467947,1,0
304,304,2468171,2,2,B|289:188|369:124,1,200
416,48,2468842,5,4
256,32,2469066,1,0
96,48,2469290,1,4
192,128,2469514,1,0
320,128,2469738,1,0
256,240,2469962,1,0
256,240,2470409,1,0
256,192,2470633,12,0,2472872
256,64,2487424,5,0
256,64,2487648,1,0
432,192,2488096,5,4
368,256,2488320,2,0,B|368:368,2,100,0|0|8
336,176,2488991,2,0,B|240:112,2,100,0|0|8
256,224,2489663,2,0,B|160:160,2,100,0|0|8
176,272,2490335,2,0,B|112:272|80:336,2,100,0|0|8
336,272,2491006,2,0,B|400:272|432:336,2,100,0|0|8
384,192,2491678,5,4
416,112,2491902,1,0
384,32,2492126,1,0
256,32,2492350,5,8
256,128,2492574,1,0
256,224,2492797,1,0
128,192,2493021,5,8
96,112,2493245,1,0
128,32,2493469,1,0
256,32,2493693,6,0,B|256:160,3,100,8|0|0|8
352,128,2494589,1,0
432,176,2494812,2,0,B|384:208|400:288,1,100,8|0
448,336,2495260,6,0,B|456:296|440:264|380:264|380:264|296:264,1,200,4|8
124,256,2495932,2,0,B|116:216|132:184|192:184|192:184|276:184,1,200,0|8
416,176,2496603,2,0,B|424:136|408:104|348:104|348:104|264:104,1,200,0|8
164,104,2497275,2,0,B|100:24,2,100,0|0|8
100,184,2497947,2,0,B|4:104,2,100,0|0|8
256,192,2498618,1,0
256,192,2498842,12,4,2500633
384,48,2500857,6,0,B|368:112|384:160,1,100
336,272,2501305,1,0
336,272,2501529,2,0,B|272:64,1,200,4|0
176,64,2502200,2,0,B|64:80,1,100,0|4
64,176,2502648,6,0,B|32:304,1,100,8|0
144,192,2503096,2,0,B|112:304,1,100,0|8
224,208,2503544,2,0,B|192:320,1,100,0|8
384,240,2503991,6,0,B|416:112,1,100
304,224,2504439,2,0,B|336:112,1,100,8|0
224,208,2504887,2,0,B|256:95,1,100,0|8
176,48,2505335,5,0
80,80,2505559,1,8
48,176,2505783,1,0
64,272,2506006,5,4
256,352,2506454,1,0
448,272,2506902,1,4
352,96,2507350,1,0
160,96,2507797,1,4
256,272,2508245,2,0,B|292:185|228:158|260:74,2,200,0|4|0
256,192,2509589,12,4,2513171
336,48,2526380,5,0
304,80,2526603,1,0
272,112,2526827,1,0
240,144,2527051,1,0
208,176,2527275,1,0
128,240,2527499,5,6
48,304,2527723,2,2,B|144:336,1,100,2|0
304,320,2528171,2,2,B|208:288,1,100,2|0
304,224,2528618,1,2
336,144,2528842,1,0
304,224,2529066,2,2,B|496:288,1,200
464,192,2529738,6,0,B|432:144|464:80,1,100
256,64,2530186,2,2,B|368:80,1,100
176,32,2530633,1,0
176,32,2530857,2,2,B|176:160|16:192,1,200,6|0
32,352,2531529,6,2,B|80:240,1,100,2|0
208,304,2531977,1,2
160,208,2532200,1,0
71,261,2532424,1,0
208,304,2532648,2,2,B|272:304|272:304|320:296|320:296|408:296,1,200,2|2
448,204,2533320,6,0,B|320:204,1,100
256,56,2533768,2,0,B|300:160,1,100,2|0
220,216,2534215,1,0
220,216,2534439,2,2,B|132:216|132:216|84:224|84:224|20:224,1,200,6|0
80,308,2535111,1,2
80,308,2535335,1,0
80,308,2535559,2,2,B|132:276|148:216|120:164|72:152,1,200,2|0
71,152,2536230,2,2,B|84:104|140:76|204:92|228:144,1,200,2|0
380,136,2536902,5,0
228,144,2537126,1,0
308,208,2537350,1,2
404,304,2537574,2,0,B|280:332,1,100,0|2
116,256,2538021,2,2,B|192:232|192:232|248:232|248:232|324:204,1,200,6|0
224,156,2538693,1,0
224,156,2538917,2,2,B|300:132|300:132|356:132|356:132|432:104,1,200,6|0
352,36,2539589,6,0,B|256:28|256:28|152:40,2,200
312,164,2540708,1,0
176,128,2540932,1,4
56,156,2541156,5,0
88,296,2541380,1,4
220,204,2541603,1,0
220,204,2541827,1,4
420,224,2542275,5,0
420,224,2542499,2,2,B|408:84,1,100,2|0
328,68,2542947,1,2
228,72,2543171,1,0
328,68,2543394,2,2,B|344:272,1,200
264,332,2544066,2,0,B|208:340|160:308,1,100
72,336,2544514,6,2,B|192:316|180:184,1,200,2|0
80,208,2545186,2,2,B|68:86|188:66,1,200,6|0
284,48,2545857,2,0,B|384:40,2,100,0|2|0
304,148,2546529,1,2
208,116,2546753,1,0
176,212,2546977,6,2,B|-8:316,1,200,2|0
100,336,2547648,2,2,B|284:232,1,200,2|0
376,248,2548320,2,0,B|436:248|460:200,2,100
384,148,2548991,5,6
364,48,2549215,1,0
264,56,2549439,1,2
192,124,2549663,2,2,B|144:228|208:320,1,200,0|2
315,314,2550335,1,0
315,314,2550559,2,2,B|376:228|328:124,1,200
396,52,2551230,6,0,B|508:108,1,100
328,124,2551678,2,0,B|240:80,1,100
96,132,2552126,2,0,B|208:188,1,100
256,292,2552574,1,4
256,292,2552797,1,0
256,192,2553021,12,4,2555708
