osu file format v9

[General]
AudioFilename: Within Temptation - The Unforgiving.mp3
AudioLeadIn: 2000
PreviewTime: 2513029
Countdown: 0
SampleSet: Soft
StackLeniency: 0.7
Mode: 0
LetterboxInBreaks: 1

[Editor]
Bookmarks: 3177331
DistanceSpacing: 0.9
BeatDivisor: 4
GridSize: 4

[Metadata]
Title:The Unforgiving
Artist:Within Temptation
Creator:Armin
Version:Marathon
Source:
Tags:Gonzvlo narakucrimson Roddie Vass_Bass ErufenRito Glass Card N'FoRcE force HakunoKaemi metal Why not me Shot in the Dark In the Middle of the Night Faster Fire and Ice Iron Where is the edge Sinead Lost Murder A Demon's Fate Stairway to the skies TU Marathon symphonic metal rock Sharon den Adel collab

[Difficulty]
HPDrainRate:3
CircleSize:4
OverallDifficulty:7
ApproachRate:8
SliderMultiplier:2
SliderTickRate:1

[Events]
//Background and Video events
0,0,"Within-Temptation.png"
Video,-300,"Mother Maiden_xvid_003.avi"
Video,910191,"Fire And Ice_x264.avi"
Video,648748,"17 Faster_x264_001.avi"
Video,1730578,"19 Sinead_xvid_001.avi"
Video,34667,"Within Temptation-Shot In The _x264_001.avi"
//Break Periods
2,31107,46554
2,116273,123530
2,193254,209002
2,325697,336343
2,442893,451543
2,533893,549943
2,644043,670986
2,744936,750986
2,886436,932774
2,1017706,1021899
2,1141547,1152290
2,1285058,1290472
2,1372331,1382290
2,1476876,1505227
2,1575917,1584318
2,1666307,1676266
2,1714619,1747493
2,1825109,1829544
2,1903058,1916980
2,1935879,1949288
2,1981007,1993647
2,2205454,2225075
2,2290311,2308242
2,2394266,2400928
2,2473072,2486674
2,2513371,2525630
2,2555908,2578758
2,2686971,2696967
2,2787469,2800847
2,2889559,2901019
2,2925673,2939538
2,3002710,3007686
2,3086784,3102501
//Storyboard Layer 0 (Background)
//Storyboard Layer 1 (Fail)
//Storyboard Layer 2 (Pass)
//Storyboard Layer 3 (Foreground)
//Storyboard Sound Samples
//Background Colour Transformations
3,100,163,162,255

[TimingPoints]
2406,418.848167539267,4,2,0,100,1,0
15829,418.848167539267,4,2,0,100,1,0
34572,565.904267861353,4,1,0,100,1,0
47011,-100,4,2,1,100,0,0
95696,566.037735849057,4,2,1,100,1,0
97111,-100,4,1,0,80,0,1
97247,-100,4,1,0,82,0,1
97388,-100,4,1,0,84,0,1
97530,-100,4,1,0,86,0,1
97671,-100,4,1,0,90,0,1
97818,-100,4,1,0,93,0,0
97960,-100,4,1,0,96,0,1
98096,-100,4,2,1,100,0,1
106020,-100,4,1,1,80,0,1
106233,-100,4,1,1,83,0,1
106374,-100,4,1,1,86,0,1
106516,-100,4,1,1,89,0,1
106657,-100,4,1,1,92,0,1
106799,-100,4,1,1,95,0,1
106940,-100,4,2,1,98,0,1
116073,-100,4,2,1,98,0,0
124134,-100,4,1,0,100,0,0
124983,-100,4,2,1,100,0,0
160926,-100,4,1,0,100,0,0
161209,-100,4,2,1,100,0,0
165454,-100,4,1,0,100,0,0
165737,-100,4,2,1,100,0,0
169983,-100,4,1,0,100,0,0
170266,-100,4,2,0,87,0,0
172671,-100,4,1,0,100,0,0
173101,-100,4,1,0,81,0,1
173237,-100,4,1,0,84,0,1
173379,-100,4,1,0,87,0,1
173520,-100,4,1,0,90,0,1
174658,-100,4,2,0,100,0,0
174941,-100,4,2,1,100,0,1
182436,-100,4,2,0,100,0,1
183002,-100,4,1,0,100,0,1
183714,-100,4,2,0,100,0,0
183997,-100,4,2,1,100,0,1
191563,-100,4,1,0,80,0,1
191775,-100,4,1,0,83,0,1
191917,-100,4,1,0,86,0,1
192058,-100,4,1,0,89,0,1
192200,-100,4,1,0,91,0,1
192341,-100,4,1,0,93,0,1
192483,-100,4,1,0,95,0,1
192624,-100,4,1,0,97,0,1
192766,-100,4,1,0,98,0,1
192907,-100,4,1,0,99,0,1
193054,-100,4,2,0,100,0,0
209888,-100,4,1,0,63,0,0
211311,-100,4,2,0,5,0,0
214708,-100,4,2,0,30,0,0
215549,-100,4,1,0,15,0,0
215686,566.037735849057,4,1,0,15,1,0
215761,-100,4,2,0,5,0,0
217105,-100,4,2,0,31,0,0
217884,-100,4,1,0,15,0,0
218450,-100,4,2,0,30,0,0
218662,-100,4,1,0,15,0,0
219299,-100,4,2,0,29,0,0
219511,-100,4,2,0,36,0,0
220148,-100,4,1,0,16,0,0
220289,-100,4,2,0,16,0,0
220997,-100,4,1,0,16,0,0
221138,-100,4,2,0,16,0,0
222341,-100,4,1,0,16,0,0
222907,-100,4,2,0,16,0,0
223190,-100,4,1,0,16,0,0
223473,-100,4,2,0,16,0,0
224605,-100,4,1,0,16,0,0
225171,-100,4,2,0,16,0,0
225454,-100,4,1,0,16,0,0
226091,-100,4,2,0,16,0,0
226870,-100,4,1,0,16,0,0
227436,-100,4,2,0,16,0,0
227719,-100,4,1,0,16,0,0
228072,-100,4,2,0,16,0,0
229134,-100,4,1,0,16,0,0
229770,-100,4,2,0,16,0,0
229983,-100,4,1,0,16,0,0
230195,-100,4,2,0,16,0,0
231469,-100,4,1,0,16,0,0
231610,-100,4,2,0,16,0,0
232318,-100,4,1,0,16,0,0
232601,-100,4,2,0,33,0,0
233167,-100,4,2,0,21,0,0
233733,-100,4,1,0,21,0,0
243355,-100,4,1,0,41,0,0
246256,-100,4,1,0,26,0,0
247954,-100,4,1,0,39,0,0
250510,-100,4,2,0,40,0,0
250651,-100,4,2,0,50,0,0
250793,-100,4,2,0,60,0,0
251912,-100,4,2,1,100,0,1
267761,-100,4,2,1,100,0,0
270025,-100,4,2,1,100,0,1
270171,-76.9230769230769,4,2,1,83,0,1
285737,-76.9230769230769,4,1,0,36,0,1
286162,-76.9230769230769,4,1,0,45,0,1
286445,-76.9230769230769,4,1,0,52,0,1
286728,-76.9230769230769,4,1,0,60,0,1
287011,-76.9230769230769,4,1,0,68,0,1
287294,-76.9230769230769,4,1,0,76,0,1
287577,-76.9230769230769,4,1,1,83,0,1
287855,-76.9230769230769,4,2,1,100,0,0
288138,-76.9230769230769,4,2,1,100,0,1
296068,-76.9230769230769,4,1,1,54,0,1
296351,-76.9230769230769,4,1,1,60,0,1
296634,-76.9230769230769,4,1,1,71,0,1
296923,-76.9230769230769,4,2,1,93,0,0
297195,-76.9230769230769,4,2,1,100,0,1
306252,-76.9230769230769,4,2,1,100,0,0
324082,-76.9230769230769,4,2,1,100,0,0
324152,-76.9230769230769,4,2,1,65,0,0
337093,300,4,2,1,40,1,0
346663,-100,4,1,0,70,0,0
346851,-100,4,2,1,70,0,0
366193,-100,4,2,1,70,0,0
384870,-100,4,2,0,70,0,0
384943,-100,4,1,0,70,0,0
385138,-100,4,2,1,70,0,0
388663,-100,4,1,0,70,0,0
389001,-100,4,2,1,70,0,0
399493,-100,4,1,0,70,0,0
399651,-100,4,2,1,70,0,0
408343,-100,4,1,0,70,0,0
408943,-100,4,1,0,70,0,0
409093,-100,4,1,0,70,0,0
409168,-100,4,2,1,70,0,0
416593,-100,4,1,0,70,0,0
416670,-100,4,2,0,70,0,0
416743,-100,4,1,0,50,0,0
416893,-100,4,1,0,80,0,0
416968,-100,4,2,0,70,0,0
417043,-100,4,1,0,50,0,0
417193,-100,4,1,0,90,0,0
417270,-100,4,2,0,70,0,0
417493,-100,4,1,0,100,0,0
417568,-100,4,2,0,70,0,0
418693,-100,4,2,1,70,0,1
428226,-100,4,1,0,70,0,1
428451,-100,4,2,1,70,0,1
436634,-100,4,2,0,70,0,1
436784,-100,4,1,0,70,0,1
437830,-100,4,1,0,70,0,0
437893,-100,4,1,0,70,0,1
442693,-100,4,1,0,70,0,0
452001,-100,4,2,1,70,0,0
461293,-100,4,1,0,70,0,0
461976,-100,4,2,1,70,0,0
470293,-100,4,1,0,70,0,0
471576,-100,4,2,0,70,0,0
471726,-100,4,1,0,70,0,0
471876,-100,4,2,1,70,0,0
475693,-100,4,1,0,70,0,0
475926,-100,4,1,0,70,0,0
476526,-100,4,1,0,70,0,0
476676,-100,4,2,1,70,0,0
479893,-100,4,1,0,70,0,0
481176,-100,4,2,0,70,0,0
481326,-100,4,1,0,70,0,0
481476,-100,4,2,1,70,0,0
490693,-100,4,1,0,70,0,1
490851,-100,4,2,1,70,0,1
499693,-100,4,1,0,60,0,1
499993,-100,4,1,0,65,0,1
500143,-100,4,1,0,70,0,0
500293,-100,4,1,0,70,0,1
501276,-100,4,2,0,70,0,1
501426,-100,4,1,0,70,0,1
501876,-100,4,2,0,70,0,1
502326,-100,4,1,0,70,0,1
502776,-100,4,2,0,70,0,1
502926,-100,4,1,0,70,0,1
509293,-100,4,1,0,60,0,1
509593,-100,4,1,0,65,0,1
514693,-100,4,1,0,70,0,0
514709,-100,4,1,0,70,0,0
563151,-83.3333333333333,4,1,0,70,0,0
574251,-76.9230769230769,4,1,0,70,0,0
581893,-76.9230769230769,4,1,0,70,0,1
591193,-76.9230769230769,4,1,0,70,0,0
591493,-76.9230769230769,4,1,0,70,0,1
601093,-76.9230769230769,4,1,0,70,0,1
603726,-83.3333333333333,4,1,0,70,0,1
605893,-83.3333333333333,4,1,0,70,0,0
634993,-83.3333333333333,4,1,0,20,0,0
648736,500,4,2,1,100,1,0
710611,-100,4,1,0,63,0,0
710781,-100,4,1,0,65,0,0
710857,-100,4,1,0,70,0,0
710982,-100,4,1,0,76,0,0
711107,-100,4,1,0,79,0,0
711232,-100,4,1,0,85,0,0
711357,-100,4,1,0,91,0,0
711482,-100,4,1,0,94,0,0
711781,-100,4,1,0,100,0,0
712736,-76.9230769230769,4,1,0,100,0,1
712798,-76.9230769230769,4,2,1,100,0,1
720498,-76.9230769230769,4,1,0,100,0,0
720736,-76.9230769230769,4,1,0,100,0,1
721986,-76.9230769230769,4,2,1,100,0,1
727986,-76.9230769230769,4,1,0,80,0,1
728111,-76.9230769230769,4,1,0,83,0,1
728236,-76.9230769230769,4,1,0,86,0,1
728361,-76.9230769230769,4,1,0,89,0,1
728486,-76.9230769230769,4,1,0,92,0,1
728623,-76.9230769230769,4,1,0,95,0,0
728736,-76.9230769230769,4,1,0,98,0,1
744736,-100,4,1,0,100,0,0
751234,-100,4,2,1,100,0,0
752611,-100,4,1,0,100,0,0
752861,-100,4,2,1,100,0,0
759611,-100,4,1,0,100,0,0
759861,-100,4,2,0,100,0,0
760173,-100,4,1,0,100,0,0
760361,-100,4,2,0,100,0,0
760673,-100,4,1,0,100,0,0
760861,-100,4,2,1,100,0,0
784548,-100,4,2,0,100,0,0
785111,-100,4,1,0,100,0,0
785361,-83.3333333333333,4,1,0,100,0,0
785548,-83.3333333333333,4,2,0,100,0,0
786111,-83.3333333333333,4,1,0,100,0,0
786361,-71.4285714285714,4,1,0,100,0,0
786548,-71.4285714285714,4,2,0,100,0,0
787111,-62.5,4,1,0,100,0,0
787548,-62.5,4,2,0,100,0,0
788111,-55.5555555555556,4,1,0,100,0,0
788548,-55.5555555555556,4,2,0,100,0,0
789111,-55.5555555555556,4,1,0,100,0,0
789361,-50,4,1,0,100,0,0
789548,-50,4,2,0,100,0,0
790111,-76.9230769230769,4,1,0,100,0,0
790736,-76.9230769230769,4,1,0,80,0,0
790986,-76.9230769230769,4,1,0,85,0,0
791236,-76.9230769230769,4,1,0,90,0,0
791486,-76.9230769230769,4,1,0,95,0,0
791736,-76.9230769230769,4,1,0,100,0,0
792736,-76.9230769230769,4,1,0,100,0,1
800486,-76.9230769230769,4,1,0,100,0,0
800736,-76.9230769230769,4,1,0,100,0,1
808611,-76.9230769230769,4,1,0,100,0,0
808736,-76.9230769230769,4,1,0,100,0,1
824611,-76.9230769230769,4,1,0,100,0,0
824736,-76.9230769230769,4,1,0,100,0,1
824861,-76.9230769230769,4,1,0,100,0,0
852361,-76.9230769230769,4,2,0,100,0,0
858736,-76.9230769230769,4,1,0,100,0,0
860736,-66.6666666666667,4,1,0,100,0,1
868486,-66.6666666666667,4,1,0,100,0,0
868736,-66.6666666666667,4,1,0,100,0,1
872361,-66.6666666666667,4,1,0,100,0,1
873861,-66.6666666666667,4,1,0,100,0,1
884486,-66.6666666666667,4,1,0,100,0,0
884736,-66.6666666666667,4,1,0,100,0,1
886236,-66.6666666666667,4,1,0,100,0,0
912957,856.959223023638,4,2,0,21,1,0
941887,-117.647058823529,4,2,0,21,0,0
972298,-100,4,2,0,21,0,0
974654,-100,4,2,0,21,0,0
991894,-117.647058823529,4,2,0,21,0,0
992858,-100,4,2,0,21,0,0
1015131,-90.9090909090909,4,2,0,21,0,0
1015452,-90.9090909090909,4,2,0,5,0,0
1017701,-100,4,2,0,15,0,0
1022649,428.571428571429,4,2,1,78,1,0
1030031,-90.9090909090909,4,2,0,79,0,0
1031103,-100,4,2,1,79,0,0
1049960,-100,4,1,0,60,0,0
1050174,-100,4,2,0,100,0,0
1051674,-100,4,1,0,60,0,0
1051889,-100,4,2,0,100,0,0
1052103,-100,4,1,0,60,0,0
1052317,-100,4,2,0,100,0,0
1052531,-100,4,1,0,60,0,0
1052746,-100,4,2,0,100,0,0
1052960,-100,4,1,0,60,0,0
1053174,-100,4,2,0,100,0,0
1053389,-100,4,1,0,80,0,0
1053603,-100,4,2,0,100,0,0
1054246,-100,4,1,0,80,0,0
1054460,-100,4,2,1,81,0,0
1067103,-100,4,1,0,80,0,0
1067317,-100,4,2,1,100,0,0
1069674,-100,4,1,0,85,0,0
1069996,-100,4,2,1,85,0,0
1070531,-100,4,1,0,68,0,0
1070746,-100,4,2,0,100,0,0
1071389,-100,4,1,0,80,0,0
1071603,-100,4,2,0,100,0,0
1072246,-100,4,1,0,60,0,0
1072460,-100,4,2,0,100,0,0
1073103,-100,4,1,0,80,0,0
1073317,-100,4,2,0,100,0,0
1073960,-100,4,1,0,60,0,0
1074174,-100,4,2,0,100,0,0
1074389,-100,4,1,0,60,0,0
1074603,-100,4,2,0,100,0,0
1074817,-100,4,1,0,80,0,0
1075031,-100,4,2,0,100,0,0
1075674,-100,4,1,0,60,0,0
1076317,-100,4,2,0,100,0,0
1076531,-100,4,1,0,80,0,0
1076746,-100,4,2,0,100,0,0
1077389,-100,4,2,1,81,0,0
1081246,-90.9090909090909,4,2,1,82,0,0
1082317,-100,4,2,1,80,0,0
1083281,-100,4,2,1,80,0,0
1093460,-90.9090909090909,4,2,1,80,0,0
1094317,-100,4,2,1,80,0,0
1105674,-100,4,2,1,80,0,0
1118531,-100,4,1,0,80,0,0
1118746,-100,4,2,1,80,0,0
1122014,-100,4,1,0,80,0,0
1122174,-100,4,2,1,80,0,0
1128817,-133.333333333333,4,2,1,80,0,0
1135674,-100,4,2,0,22,0,0
1137505,444.444444444444,4,2,0,22,1,0
1139282,461.538461538462,4,2,0,16,1,0
1140205,571.428571428571,4,2,0,19,1,0
1141347,571.428571428571,4,2,0,19,1,0
1150313,454.545454545455,4,2,0,100,1,0
1153040,-100,4,2,1,100,0,0
1226981,-72.992700729927,4,2,1,100,0,0
1241222,-68.0272108843537,4,2,1,100,0,1
1284868,-105.042016806723,4,1,0,100,0,0
1291224,-80.7754442649435,4,1,0,100,0,0
1291299,-80.7754442649435,4,2,1,100,0,0
1291375,-80.7754442649435,4,1,0,100,0,0
1291451,-80.7754442649435,4,2,1,100,0,0
1291527,-80.7754442649435,4,1,0,100,0,0
1291602,-80.7754442649435,4,2,1,100,0,0
1291678,-74.6268656716418,4,1,0,100,0,0
1292133,-72.7272727272727,4,2,1,100,0,0
1328494,-72.992700729927,4,2,1,100,0,1
1342147,-72.992700729927,4,2,1,100,0,1
1342737,-72.992700729927,4,2,1,100,0,0
1343040,-72.992700729927,4,2,1,100,0,1
1345025,-63.2911392405063,4,2,1,100,0,1
1345935,-72.992700729927,4,2,1,100,0,1
1357585,-72.992700729927,4,2,1,100,0,0
1372139,-72.992700729927,4,2,1,100,0,0
1408427,-86.2068965517241,4,2,1,100,0,0
1409571,-87.5656742556918,4,2,1,100,0,0
1412071,-87.5656742556918,4,1,0,100,0,0
1412222,-87.5656742556918,4,2,1,100,0,0
1415767,-72.992700729927,4,2,1,100,0,1
1430009,-72.992700729927,4,2,1,100,0,0
1430312,-72.992700729927,4,2,1,100,0,1
1430632,-63.2911392405063,4,2,1,100,0,1
1444706,-63.2911392405063,4,2,1,100,0,0
1444858,-63.2911392405063,4,2,1,100,0,1
1473949,-63.2911392405063,4,2,1,100,0,0
1491562,389.61038961039,4,1,0,80,1,0
1506367,-200,4,1,0,80,0,0
1507146,-100,4,1,0,80,0,0
1550782,-100,4,1,0,80,0,1
1575717,-100,4,1,0,80,0,0
1584873,-100,4,2,0,70,0,0
1587511,-100,4,1,0,80,0,0
1589938,-200,4,1,0,80,0,0
1590523,-100,4,1,0,80,0,0
1619354,-100,4,1,0,80,0,1
1644289,-100,4,1,0,80,0,0
1662990,-100,4,2,0,40,0,0
1678575,-100,4,2,0,70,0,0
1688315,-100,4,1,0,40,0,0
1688510,-100,4,1,0,50,0,0
1688704,-100,4,1,0,60,0,0
1688899,-100,4,1,0,70,0,0
1689094,-100,4,1,0,80,0,0
1689289,-100,4,1,0,80,0,0
1689484,-100,4,1,0,80,0,0
1691042,-100,4,1,0,80,0,1
1714419,-100,4,2,0,40,0,0
1730551,512.820512820513,4,1,0,100,1,0
1747667,-181.818181818182,4,2,0,35,0,0
1763137,-120.481927710843,4,2,1,70,0,0
1795191,-120.481927710843,4,2,1,90,0,0
1796192,-90.9090909090909,4,2,1,100,0,1
1824909,-100,4,2,1,100,0,0
1830166,-119.760479041916,4,2,1,100,0,0
1874140,-90.9090909090909,4,2,1,100,0,1
1902858,-100,4,2,1,100,0,0
1917477,-120.481927710843,4,2,1,100,0,0
1950551,-120.481927710843,4,2,1,70,0,0
1951063,-120.481927710843,4,2,1,60,0,0
1952088,-90.9090909090909,4,2,1,100,0,1
1967986,-90.9090909090909,4,2,1,100,0,0
1968499,-90.9090909090909,4,2,1,100,0,1
1980807,-90.9090909090909,4,2,1,100,0,0
1994397,428.571428571429,3,2,0,30,1,0
1995484,-100,3,2,0,48,0,0
1995913,-100,3,2,0,30,0,0
2000627,-100,3,2,0,51,0,0
2001055,-100,3,2,0,30,0,0
2045825,-100,3,2,0,40,0,0
2070163,-100,3,1,0,60,0,0
2070323,-100,3,2,0,60,0,0
2071539,-100,3,1,0,50,0,0
2072825,-100,3,1,0,60,0,0
2073055,-100,3,2,0,60,0,0
2073913,-100,3,2,1,60,0,0
2130682,-100,3,2,1,60,0,1
2141198,-87.719298245614,3,2,1,60,0,1
2142484,-100,3,2,1,60,0,1
2153825,-100,3,2,1,60,0,0
2189734,-87.719298245614,3,2,1,60,0,0
2197448,-100,3,2,1,60,0,0
2245012,-100,3,1,0,60,0,0
2246397,-100,3,1,0,60,0,1
2246619,-100,3,2,1,60,0,1
2269111,-100,3,2,1,60,0,0
2269539,-100,3,2,1,60,0,1
2290111,-100,3,2,1,60,0,0
2308992,447.761194029851,4,2,0,29,1,0
2316044,-100,4,2,1,51,0,0
2336305,-100,4,1,0,41,0,0
2337318,-100,4,2,1,51,0,0
2350969,-100,4,1,0,41,0,0
2351865,-133.333333333333,4,2,1,60,0,0
2365521,-133.333333333333,4,1,0,20,0,0
2365745,-133.333333333333,4,1,0,30,0,0
2365969,-100,4,1,0,50,0,0
2366305,-100,4,1,2,60,0,1
2379408,-100,4,1,2,70,0,1
2381087,-100,4,1,2,60,0,1
2394962,-100,4,1,2,60,0,0
2402350,-100,4,2,1,55,0,0
2415223,-100,4,1,0,50,0,0
2416566,-100,4,2,1,50,0,0
2429775,-100,4,1,0,50,0,0
2430671,-133.333333333333,4,2,1,50,0,0
2444327,-133.333333333333,4,2,1,40,0,0
2444551,-133.333333333333,4,2,1,50,0,0
2445111,-100,4,1,2,60,0,1
2470186,-100,4,1,0,65,0,0
2488096,-100,4,1,0,65,0,1
2488214,-100,4,1,0,65,0,0
2502424,-100,4,1,0,65,0,1
2502542,-100,4,1,0,65,0,0
2526162,-100,4,1,0,40,0,0
2526721,-100,4,1,0,50,0,0
2527169,-100,4,1,0,60,0,0
2527499,-100,4,1,2,65,0,1
2541380,-100,4,1,2,65,0,0
2541827,-100,4,1,2,65,0,1
2553021,-100,4,1,2,65,0,1
2555596,-100,4,1,2,5,0,1
2556156,-100,4,1,2,56,0,0
2565180,447.761194029851,4,1,0,100,1,0
2579508,-100,4,2,0,80,0,0
2586112,-100,4,1,0,69,0,0
2643985,-100,4,1,0,69,0,1
2658314,-100,4,1,0,69,0,1
2671747,-100,4,1,0,69,0,1
2672642,-100,4,1,0,69,0,0
2701539,-90.9090909090909,4,1,0,69,0,0
2715643,-100,4,1,0,69,0,0
2729956,-100,4,1,0,69,0,1
2758612,-76.9230769230769,4,1,0,69,0,0
2761875,-66.6666666666667,4,1,0,69,0,0
2801605,-133.333333333333,4,1,0,60,0,0
2815926,-100,4,1,0,60,0,0
2844582,-100,4,1,0,60,0,1
2855329,-100,4,1,0,60,0,0
2858911,-100,4,1,0,60,0,1
2873239,-100,4,1,0,60,0,0
2889304,-100,4,2,0,5,0,0
2895844,370.37037037037,4,2,0,100,1,0
2901399,-166.666666666667,4,2,0,50,0,0
2924269,-200,4,2,0,50,0,0
2940108,-200,4,2,1,50,0,0
2952145,-100,4,2,1,75,0,0
2960479,-133.333333333333,4,2,1,75,0,0
2962331,-100,4,2,1,75,0,0
2976220,-100,4,2,1,75,0,0
3016775,-133.333333333333,4,2,1,75,0,0
3018627,-100,4,2,1,75,0,0
3057232,-151.515151515152,4,1,0,60,0,0
3058719,-100,4,2,0,75,0,0
3059182,-100,4,2,1,75,0,0
3082562,-100,4,2,0,10,0,0
3086775,-100,4,2,0,75,0,0
3103066,-151.515151515152,4,1,0,60,0,0
3105571,-151.515151515152,4,2,0,75,0,0
3106126,-151.515151515152,4,1,0,60,0,0
3108066,-151.515151515152,4,2,0,75,0,0
3108437,-151.515151515152,4,1,0,60,0,0
3108626,-151.515151515152,4,2,0,75,0,0
3109177,-151.515151515152,4,1,0,60,0,0
3111029,-151.515151515152,4,2,0,75,0,0
3111400,-151.515151515152,4,1,0,60,0,0
3111589,-151.515151515152,4,2,0,75,0,0
3112140,-151.515151515152,4,1,0,60,0,0
3117978,-100,4,2,1,75,0,0
3126214,-100,4,2,1,75,0,0
3165474,-100,4,2,1,75,0,1
3176960,-100,4,2,1,75,0,0
3177325,-100,4,2,1,75,0,1
3177695,-100,4,2,1,75,0,0

[Colours]
Combo1 : 12,50,233
Combo2 : 253,225,28
Combo3 : 185,17,17
Combo4 : 30,136,35
SliderBorder : 0,0,0

[HitObjects]
40,48,2405,1,4
144,344,2824,1,0
256,48,3243,1,2
368,344,3662,1,0
472,48,4081,1,2
336,216,4500,2,0,B|308:146|192:136|171:225|171:225,1,200,0|2
256,256,5128,1,0
256,336,5337,1,0
92,88,5756,5,2
256,144,6175,1,0
420,88,6594,1,2
400,252,7013,1,0
256,336,7432,1,2
112,252,7851,1,0
92,88,8269,1,2
336,172,8688,6,0,B|308:102|192:92|171:181|171:181,1,200,0|2
348,348,9526,1,0
164,348,9945,1,2
80,160,10364,1,0
256,40,10782,1,2
432,160,11201,1,0
256,196,11620,1,2
256,196,11830,1,0
256,196,12039,1,0
176,316,12458,6,0,B|204:386|320:396|341:307|341:307,1,200,2|0
80,224,13296,1,2
256,44,13714,1,0
432,224,14133,1,2
112,92,14552,1,0
256,272,14971,1,2
400,92,15390,1,0
456,336,15829,5,4
256,44,16247,1,0
56,336,16666,1,2
256,272,17085,1,0
88,68,17504,1,2
424,68,17923,1,0
168,208,18342,1,2
256,168,18551,1,0
344,208,18760,1,0
176,312,19179,6,0,B|204:382|320:392|341:303|341:303,1,200,2|0
472,192,20017,1,2
256,40,20436,1,0
40,192,20855,1,2
256,348,21274,1,0
170,80,21692,2,0,B|179:110|211:135|252:141|252:141|280:151|302:184|280:217|256:223|227:217|199:184|225:151|252:141|252:141|296:135|323:114|337:72,1,400,2|2
432,288,22949,5,0
256,352,23368,1,2
80,288,23787,1,0
164,159,24205,2,0,B|208:128|256:168|256:168|304:128|348:158|348:158,1,200,2|0
180,36,25043,1,2
256,60,25253,1,0
332,36,25462,1,0
472,120,25881,6,0,B|402:148|392:264|481:285|481:285,1,200,2|0
336,372,26719,2,0,B|308:302|192:292|171:381|171:381,1,200,2|0
40,280,27556,2,0,B|110:252|120:136|31:115|31:115,1,200,2|0
180,68,28394,5,2
256,20,28603,1,0
332,68,28813,1,0
302,153,29022,1,0
208,152,29232,1,0
256,192,29336,12,0,30907
40,116,47304,5,2
100,44,47587,1,0
172,104,47870,2,0,B|200:174|316:184|337:95|337:95,1,200,0|2
412,44,48719,1,0
472,116,49002,1,0
428,304,49568,5,2
354,355,49851,1,0
342,265,50134,1,0
168,265,50700,1,2
156,355,50983,1,0
82,304,51266,1,0
212,171,51832,6,0,B|228:191|256:195|256:195|284:191|300:171,1,100,2|0
333,86,52397,2,0,B|312:44|256:28|256:28|204:40|177:87,1,200,0|0
256,112,53246,1,2
255,112,53529,1,0
340,252,54095,2,0,B|360:348|360:348,1,100,2|0
340,252,54661,2,0,B|312:322|196:332|175:243|175:243,1,200,0|2
151,349,55510,2,0,B|152:348|180:252,1,100,0|0
256,112,56359,5,2
300,40,56642,1,0
212,40,56925,1,0
184,129,57208,2,0,B|190:177|240:200|272:200|324:184|329:130|329:130,1,200,0|2
348,227,58057,2,0,B|314:260|257:270|201:259|164:228,1,200,0|0
104,288,58905,5,2
256,368,59471,1,0
408,288,60037,1,2
408,288,60320,1,0
256,200,60886,5,0
336,160,61169,2,0,B|308:95|199:74|172:168|172:168,1,200,2|0
300,28,62301,1,2
212,32,62584,1,0
212,32,63150,1,0
300,32,63433,1,2
342,197,63999,6,0,B|325:162|279:159|255:183|255:183|230:158|184:162|169:197|169:197,1,200,0|2
168,280,64847,2,0,B|185:315|232:318|256:294|256:294|280:318|326:315|344:280|344:280,1,200,0|2
432,272,65696,5,0
400,356,65979,1,0
336,188,66545,1,2
256,144,66828,1,8
176,188,67111,1,0
112,28,67677,5,2
84,112,67960,1,8
20,44,68243,1,0
216,88,68809,2,0,B|229:52|285:46|295:91|295:91,1,100,2|8
256,164,69375,1,0
432,112,69941,5,2
492,48,70223,1,8
400,28,70506,1,0
332,196,71072,5,2
256,244,71355,1,8
180,196,71638,1,0
336,284,72204,2,0,B|328:340|376:372|376:372,1,100,2|8
336,284,72770,2,0,B|308:354|192:364|171:275|171:275,1,200,0|2
137,371,73619,2,0,B|136:372|185:344|175:284,1,100,8|0
156,108,74468,5,2
212,36,74751,1,8
300,36,75034,1,0
356,108,75317,1,0
256,124,75883,5,8
256,124,76165,1,0
384,332,76731,1,0
384,332,77014,1,8
256,220,77580,5,0
128,332,78146,1,8
128,332,78429,1,0
256,308,78995,5,0
256,308,79278,1,8
300,232,79561,1,0
256,220,79702,1,0
212,232,79844,1,0
112,92,80410,1,8
176,32,80693,2,0,B|202:104|314:115|334:26|334:26,1,200,0|0
400,92,81542,1,8
332,248,82107,2,0,B|307:287|271:282|271:282|255:302|255:302|239:282|239:282|203:290|178:248,1,200,0|8
104,300,82956,5,0
168,364,83239,1,2
256,380,83522,1,0
344,364,83805,1,8
408,300,84088,1,0
336,240,84371,6,4,B|310:312|198:323|178:234|178:234,1,200,2|8
156,152,85220,2,0,B|396:152|396:152,1,200,2|0
336,64,86069,2,0,B|310:-8|198:-19|178:70|178:70,1,200,8|2
48,184,87201,6,0,B|8:284|8:284,1,100,8|0
100,264,87767,2,0,B|124:360|124:360,1,100,2|0
188,300,88332,2,0,B|276:360|276:360,1,100,8|0
316,280,88898,5,2
376,344,89464,1,8
376,344,89747,1,0
408,260,90313,1,0
408,260,90596,1,8
480,316,91162,1,2
464,200,91728,6,0,B|504:100|504:100,1,100,8|0
412,120,92294,2,0,B|388:24|388:24,1,100,2|0
324,84,92860,2,0,B|236:24|236:24,1,100,8|0
196,104,93426,1,2
256,192,93567,12,0,95696
448,352,96262,5,2
376,296,96545,1,0
304,352,96828,1,2
240,288,97111,1,0
200,272,97252,1,0
184,232,97394,1,0
200,192,97535,1,0
240,176,97677,1,0
280,192,97818,1,0
296,232,97960,5,4
376,200,98243,2,0,B|488:200|488:200,1,100,2|8
512,120,98809,2,0,B|512:16|512:16,1,100,0|8
432,64,99375,5,2
360,8,99658,1,8
310,88,99941,2,0,B|340:125|338:201|254:252|176:198|152:135|204:82|204:82,1,300,2|8
152,8,101073,1,2
80,64,101356,1,8
16,128,101639,6,0,B|16:240|16:240,1,100,2|8
96,272,102205,2,0,B|160:220|260:296|192:368|192:368,1,200,2|0
288,384,103054,2,0,B|320:352|320:352|400:352|400:352,1,100,8|0
447,299,103620,1,10
363,264,103903,1,0
305,199,104186,2,0,B|287:169|287:138|318:107|318:107|349:76|349:30|287:15|271:45|256:61|256:61|241:45|225:15|163:30|163:76|194:107|194:107|225:138|225:169|208:199,1,500,8|2
112,208,105884,5,0
40,160,106167,1,0
24,200,106309,1,0
32,248,106450,1,0
56,280,106592,1,0
96,296,106733,1,0
144,292,106875,1,0
184,272,107016,6,0,B|296:272|296:272,1,100,4|0
328,352,107582,2,0,B|216:352|216:352,1,100,8|0
376,272,108148,2,0,B|456:352|456:352,1,100,2|0
488,264,108714,2,0,B|408:184|408:184,1,100,8|0
328,196,109280,1,2
256,144,109563,1,0
184,196,109846,1,8
160,108,110129,6,0,B|216:12|216:12,1,100,0|2
301,25,110695,2,0,B|296:16|352:112,1,100,0|8
256,144,111262,2,0,B|256:352|256:352,1,200,2|0
344,368,112111,2,0,B|440:296|440:296,1,100,8|0
168,368,112677,2,0,B|72:296|72:296,1,100,2|0
177,242,113243,6,0,B|202:312|316:323|340:236|340:236,1,200,8|2
256,200,114092,1,0
320,136,114375,6,0,B|336:96|376:72|424:96|424:96,2,100,8|0|2
256,72,115224,1,0
192,136,115507,2,0,B|176:96|136:70|88:96|88:96,2,100,8|8|4
172,64,124280,5,0
256,36,124563,1,0
340,64,124846,1,0
256,224,125412,1,2
256,136,125695,1,8
332,184,125979,6,0,B|404:210|415:322|326:342|326:342,1,200,0|2
256,376,126828,1,8
180,340,127111,2,0,B|108:314|97:202|186:182|186:182,1,200,0|2
256,136,127960,1,8
256,224,128243,1,0
380,84,128809,6,0,B|472:28,1,100,2|8
476,120,129375,2,0,B|368:184|368:184|368:260,1,200,0|0
456,296,130224,1,8
384,348,130507,1,0
128,348,131073,5,2
56,296,131356,1,8
144,258,131639,2,0,B|144:184|144:184|36:120,1,200,0|0
46,32,132488,2,0,B|132:84,1,100,8|0
256,196,133337,5,2
300,124,133620,1,8
212,124,133903,1,0
184,213,134186,2,0,B|190:261|240:284|272:284|324:268|329:214|329:214,1,200,0|8
256,196,135035,1,0
412,284,135601,5,0
412,284,135884,1,8
256,372,136450,1,0
100,284,137016,1,8
100,284,137299,1,0
28,229,137582,2,0,B|108:40|108:40,1,200,0|8
484,163,138714,2,0,B|404:352|404:352,1,200,0|8
316,348,139563,5,0
196,44,140412,1,8
256,196,140979,1,0
352,96,141545,6,0,B|365:60|421:54|431:99|431:99,1,100,8|0
296,260,142111,2,0,B|283:296|227:302|217:257|217:257,1,100,0|0
84,96,142677,2,0,B|97:60|153:54|163:99|163:99,1,100,8|0
336,176,143526,5,0
256,132,143809,1,8
176,176,144092,1,0
80,328,144658,5,0
148,268,144941,2,0,B|216:360|216:360,1,100,8|0
432,328,145790,1,0
364,268,146073,2,0,B|296:360|296:360,1,100,8|0
260,182,146922,1,0
256,264,147205,1,8
260,180,147488,1,0
80,56,148054,5,0
148,116,148337,2,0,B|216:24|216:24,1,100,8|0
432,56,149186,1,0
364,116,149469,2,0,B|296:24|296:24,1,100,8|0
444,204,150318,5,0
420,292,150601,1,8
344,340,150884,1,0
168,340,151450,1,0
92,292,151733,1,8
68,204,152016,1,0
256,216,152865,5,8
256,216,153148,1,0
360,92,153714,5,0
300,24,153997,1,8
212,24,154280,1,0
152,92,154563,1,0
211,267,155129,2,0,B|227:291|305:301|313:244|313:244,1,100,8|0
256,188,155695,1,0
165,339,156262,2,0,B|213:380|313:386|352:337|352:337,1,200,8|0
256,188,157394,1,8
200,128,157677,2,0,B|170:91|172:15|256:-36|334:18|358:81|306:134|306:134,1,300,0|8
439,58,159092,5,0
439,58,159658,5,8
420,149,159941,1,0
348,198,160224,1,8
256,192,160507,1,0
163,185,160790,1,8
91,234,161073,1,0
72,325,161356,1,4
256,348,162205,5,0
256,192,162771,5,0
192,132,163054,1,8
212,92,163195,1,0
256,76,163337,1,0
300,92,163479,1,0
320,132,163620,1,0
72,58,164186,5,8
91,149,164469,1,0
163,198,164752,1,8
256,192,165035,1,0
348,185,165318,1,8
420,234,165601,1,0
439,325,165884,1,8
184,304,166733,6,0,B|190:352|240:375|272:375|324:359|329:305|329:305,1,200
256,256,167582,1,8
256,168,167865,1,0
72,120,168714,5,8
128,48,168997,1,0
212,16,169280,1,8
300,16,169563,1,0
384,48,169846,1,8
440,120,170129,1,0
256,192,170412,12,0,172677
36,64,173101,5,0
36,64,173243,1,0
36,64,173384,1,0
36,64,173526,1,0
96,132,173809,1,0
168,80,174092,1,0
212,64,174233,1,0
252,80,174375,1,0
264,124,174516,1,0
288,160,174658,1,0
332,168,174799,1,0
372,148,174941,5,4
428,76,175224,2,0,B|496:164|496:164,1,100,0|8
433,225,175790,2,0,B|404:326|404:326,1,100,0|2
320,292,176356,1,0
272,368,176639,1,8
196,320,176922,2,0,B|160:364|88:360|40:304|80:244|80:244,1,200
112,168,177771,2,0,B|108:104|44:88|44:88,1,100,8|0
128,32,178337,6,0,B|236:32|236:32,1,100,2|0
272,112,178903,1,8
356,80,179186,2,0,B|396:40|472:52|508:132|436:180|436:180,1,200
384,232,180035,2,0,B|340:276|372:332|372:332,1,100,8|0
284,360,180601,2,0,B|164:360,1,100,2|0
124,300,181167,2,0,B|66:343|-4:276|33:216|72:200|72:200|105:183|173:149|86:10|12:108|12:108,1,400,8|8
4,16,182582,5,0
92,8,182865,1,2
168,56,183148,1,0
208,76,183290,1,0
232,112,183431,1,0
256,152,183573,1,0
280,112,183714,1,0
304,76,183856,1,0
344,56,183997,1,4
420,8,184280,1,0
508,16,184563,1,8
484,102,184846,6,0,B|424:92|391:141|391:141,1,100,0|2
369,222,185412,2,0,B|439:321|439:321,1,100,0|8
342,362,185979,2,0,B|316:322|256:308|200:320|168:364,1,200,2|0
85,303,186828,2,0,B|73:321|143:222,1,100,8|0
117,136,187394,2,0,B|121:141|88:92|28:102,1,100,2|0
124,32,187960,5,8
220,104,188243,2,0,B|199:79|201:28|257:-5|309:30|325:72|290:108|290:108,1,200,2|0
388,32,189092,1,8
460,100,189375,5,0
392,172,189658,1,2
468,236,189941,1,0
398,303,190224,2,0,B|383:345|327:359|298:317|327:288|312:232|270:246|256:352|256:352|241:246|199:232|185:288|213:317|185:359|114:345|114:303,1,500,8|0
68,308,191780,5,0
26,288,191922,1,0
16,245,192063,1,0
40,207,192205,1,0
81,189,192346,1,0
110,154,192488,1,0
125,114,192629,1,0
104,73,192771,1,0
62,54,192912,1,0
21,72,193054,1,4
256,40,209752,5,2
144,96,210035,1,0
184,112,210177,1,0
212,148,210318,1,0
216,192,210460,1,0
256,212,210601,1,0
296,192,210743,1,0
300,148,210884,1,0
328,112,211026,1,0
368,96,211167,1,4
256,192,211309,12,0,214563
256,32,215129,5,2
236,183,215686,2,0,B|172:199|130:270|147:356|224:381|284:386|309:374|391:320|389:233|322:176|264:182|264:182,1,500,0|0
256,268,217384,1,0
448,64,217950,5,0
256,124,218516,1,0
256,124,218799,1,0
64,64,219365,1,0
64,64,219648,1,0
176,260,220214,2,0,B|204:195|313:174|340:268|340:268,1,200,0|0
336,337,221063,2,0,B|308:402|199:423|172:329|172:329,1,200,0|0
256,299,221912,1,0
256,40,222478,5,0
172,164,223044,1,0
256,204,223327,1,0
340,164,223610,1,0
460,300,224176,5,0
256,360,224742,1,0
52,300,225308,1,0
52,300,225591,5,0
256,360,226157,1,0
256,360,226440,1,0
460,300,227006,1,0
340,164,227572,5,0
256,204,227855,1,0
172,164,228138,1,0
172,76,228421,1,0
256,32,228704,1,0
340,76,228987,1,0
256,120,229270,5,0
376,252,229836,1,0
293,287,230119,2,0,B|314:312|312:363|256:396|204:361|188:319|223:283|223:283,1,200
136,252,230969,1,0
176,72,231535,2,0,B|204:137|313:158|340:64|340:64,1,200,0|0
256,32,232384,1,0
256,32,232667,5,2
480,192,233233,1,2
256,356,233799,1,0
32,192,234365,1,0
336,320,234931,6,0,B|308:255|199:234|172:328|172:328,1,200,0|0
436,112,236063,2,0,B|371:140|350:249|444:276|444:276,1,200,0|0
176,72,237195,2,0,B|204:137|313:158|340:64|340:64,1,200,0|0
76,272,238327,2,0,B|141:244|162:135|68:108|68:108,1,200,0|0
256,208,239459,5,0
472,288,240025,1,0
424,92,240591,1,0
256,340,241157,1,0
88,92,241723,1,0
40,288,242289,1,0
256,208,242855,1,0
256,44,243421,5,0
460,340,244553,1,0
52,340,245685,1,0
81,156,246252,6,0,B|81:80|139:80|196:80|196:156|196:156|196:233|254:233|311:233|311:156|311:156|311:80|368:80|437:80|427:164,1,600
348,328,248516,2,0,B|300:369|200:375|161:326|161:326,1,200
168,152,249648,2,0,B|256:200|256:200|364:140,1,200
257,103,250497,2,0,B|256:64,3,33.3333333333333
257,103,251063,1,0
452,228,251912,6,0,B|376:320,1,100,4|0
256,356,252478,2,0,B|256:236,1,100,8|0
123,305,253044,2,0,B|60:228,1,100,0|0
120,156,253610,1,8
184,61,253893,2,0,B|190:109|240:132|272:132|324:116|329:62|329:62,1,200,0|0
392,156,254742,1,8
300,232,255025,5,0
256,244,255167,1,0
212,232,255308,1,0
152,324,255591,1,0
256,368,255874,1,8
360,324,256157,1,0
256,136,256723,5,0
180,56,257006,2,0,B|120:156,1,100,8|0
332,56,257572,2,0,B|392:156,1,100,0|0
256,136,258138,1,8
184,208,258421,2,0,B|204:248|240:250|256:258|256:258|272:268|280:288|268:302|256:302|256:302|240:302|230:290|240:268|256:260|256:260|268:250|304:252|328:208|328:208,1,300,0|8
384,272,259553,5,0
352,296,259695,1,0
336,332,259836,1,0
312,364,259978,1,0
276,380,260119,1,0
236,380,260261,1,0
200,364,260402,1,8
176,332,260544,1,0
160,296,260685,1,0
128,272,260827,1,0
116,236,260969,6,0,B|48:156|137:48|228:96|255:150|255:150|282:196|338:291|530:151|381:54|381:54,1,600,4|8
304,32,262950,6,0,B|276:16|240:16|240:16,3,50
216,16,263516,2,0,B|192:28|140:20|140:20,3,50,0|0|8|0
128,24,264082,2,0,B|100:36|72:76|72:76,3,50
68,88,264648,2,0,B|68:120|44:152|44:152|48:152,3,50,0|0|8|0
44,172,265214,2,0,B|32:200|40:248|40:248,3,50
52,260,265780,2,0,B|64:288|64:324|64:324,3,50,0|0|8|0
92,336,266346,2,0,B|104:356|144:372|144:372,3,50
172,364,266912,2,0,B|208:348|248:364|248:364,3,50,0|0|8|0
260,368,267478,2,0,B|288:372|328:356|328:356,2,50
256,192,267902,12,4,270025
128,184,270308,5,0
148,72,270591,1,8
256,32,270874,1,0
364,72,271157,1,8
384,184,271440,1,0
256,152,271723,1,8
201,261,272006,2,0,B|177:291|185:358|259:403|325:356|346:301|306:252|306:252,1,259.999995350838
396,352,272855,5,8
256,291,273138,1,0
116,352,273421,1,8
200,196,273704,2,0,B|228:163|314:147|339:225|339:225,1,129.999997675419,0|8
376,112,274270,2,0,B|320:40|192:36|144:112|144:112,1,259.999995350838
100,252,275119,6,0,B|204:352,1,129.999997675419,8|0
318,342,275686,2,0,B|412:252,1,129.999997675419,8|0
275,87,276252,2,0,B|305:44|435:126|257:242|257:242|80:146|188:33|251:98,1,519.999990701676,8|8
412,252,277667,6,0,B|308:352,1,129.999997675419,0|8
194,342,278233,2,0,B|100:252,1,129.999997675419,0|8
230,87,278799,2,0,B|164:90|145:147|174:218|231:190|231:190|260:255|260:255|288:190|288:190|340:215|372:147|366:77|281:88|281:88,1,519.999990701676
416,240,280214,5,8
256,348,280497,1,0
96,240,280780,1,8
204,64,281063,2,0,B|180:94|188:161|262:206|328:159|349:104|309:55|309:55,1,259.999995350838,0|0
416,240,281912,6,0,B|480:120,1,129.999997675419,8|0
304,336,282478,2,0,B|300:305|268:290|247:290|214:300|211:335|211:335,1,129.999997675419,8|0
34,125,283044,2,0,B|96:240,1,129.999997675419,8|0
256,40,283893,5,0
432,156,284176,1,8
360,348,284459,1,0
152,348,284742,1,8
80,156,285025,1,0
256,188,285308,1,8
314,247,285874,5,0
314,247,286016,1,0
314,247,286157,1,0
314,247,286299,1,0
314,247,286440,1,0
314,247,286582,1,0
314,247,286723,1,0
314,247,286865,1,0
314,247,287006,1,0
314,247,287148,1,0
314,247,287289,1,0
314,247,287431,1,0
314,247,287572,1,0
314,247,287714,1,0
314,247,287855,1,0
314,247,287997,1,0
314,247,288138,1,4
320,40,288421,6,0,B|184:40|184:40,1,129.999997675419,0|8
420,256,288987,2,0,B|420:120|420:120,1,129.999997675419,0|8
192,344,289553,2,0,B|328:344|328:344,1,129.999997675419,0|8
92,128,290119,2,0,B|92:264|92:264,1,129.999997675419,0|8
256,192,290686,1,0
256,192,290827,1,0
256,192,290969,1,8
408,254,291252,6,0,B|312:350,1,129.999997675419,0|8
316,38,291818,2,0,B|408:130,1,129.999997675419,0|8
104,130,292384,2,0,B|195:38,1,129.999997675419,0|8
195,345,292950,2,0,B|104:254,1,129.999997675419,0|8
256,192,293516,1,0
408,130,293799,6,0,B|312:34,1,129.999997675419,8|0
316,345,294365,2,0,B|408:254,1,129.999997675419,8|0
104,254,294931,2,0,B|195:345,1,129.999997675419,8|0
195,38,295497,2,0,B|104:130,1,129.999997675419,8|0
256,192,296063,5,0
256,192,296204,1,0
256,192,296346,1,0
256,192,296487,1,0
256,192,296629,1,0
256,192,296770,1,0
256,192,296912,1,0
256,192,297053,1,0
256,192,297195,1,4
212,324,297478,6,0,B|215:354|247:369|267:369|301:358|304:324|304:324,1,129.999997675419,0|8
52,248,298044,2,0,B|84:192|84:192|44:120|44:120,1,129.999997675419,0|8
312,40,298610,2,0,B|256:72|256:72|184:32|184:32,1,129.999997675419,0|8
460,248,299176,2,0,B|428:192|428:192|468:120|468:120,1,129.999997675419,0|8
312,348,299742,6,0,B|256:316|256:316|184:356|184:356,1,129.999997675419,0|8
80,148,300308,2,0,B|50:151|35:183|35:203|46:237|80:240|80:240,1,129.999997675419,0|8
300,36,300874,2,0,B|297:66|265:81|245:81|211:70|208:36|208:36,1,129.999997675419,0|8
432,240,301440,2,0,B|462:237|477:205|477:185|466:151|432:148|432:148,1,129.999997675419,0|8
256,192,302006,5,0
136,272,302289,2,0,B|110:298|74:278|74:278|94:314|69:338|69:338,1,129.999997675419,8|0
256,344,302855,1,8
376,272,303138,2,0,B|401:298|437:278|437:278|417:314|442:338|442:338,1,129.999997675419,0|8
256,192,303704,5,0
136,112,303987,2,0,B|110:86|74:106|74:106|94:70|69:46|69:46,1,129.999997675419,8|0
256,40,304553,1,8
376,112,304836,2,0,B|401:86|437:106|437:106|417:70|442:46|442:46,1,129.999997675419,0|8
256,192,305402,6,0,B|296:256|296:256|360:256,1,129.999997675419,0|8
256,192,305969,2,0,B|216:256|216:256|152:256,1,129.999997675419,0|12
196,352,306535,2,0,B|232:352|232:352|256:336|256:336|280:352|280:352|328:352,1,129.999997675419,0|8
416,256,307101,5,0
444,120,307384,1,8
348,40,307667,2,0,B|340:101|275:131|234:131|167:110|161:41|161:41,1,259.999995350838,0|0
68,120,308516,1,8
96,256,308799,1,0
212,348,309082,6,0,B|215:318|247:303|267:303|301:314|304:348|304:348,1,129.999997675419,8|0
320,192,309648,2,0,B|184:192,1,129.999997675419,8|0
192,48,310214,2,0,B|256:68|256:68|320:48,1,129.999997675419,8|0
372,176,310780,2,0,B|256:228|256:228|132:172,1,259.999995350838,12|8
68,292,311629,1,0
256,368,311912,1,8
444,292,312195,1,0
348,45,312761,6,0,B|341:106|277:136|236:136|169:115|163:46|163:46,1,259.999995350838,0|0
82,161,313610,2,0,B|124:224|188:240|188:240,1,129.999997675419,8|0
328,238,314176,2,0,B|388:216|430:161,2,129.999997675419,8|0|8
256,356,315025,1,0
256,356,315308,5,12
328,240,315591,2,0,B|452:304|452:304,1,129.999997675419,0|8
184,240,316157,2,0,B|60:304|60:304,1,129.999997675419,0|8
151,91,316723,2,0,B|220:112|256:40|256:40|292:112|364:92,1,259.999995350838,0|0
256,356,317855,5,0
380,284,318138,1,8
380,140,318421,1,0
256,68,318704,1,8
132,140,318987,1,0
132,284,319270,1,8
256,208,319553,1,0
256,192,319695,12,0,320686
256,192,320827,12,0,322101
255,57,322950,5,0
115,303,323233,1,8
256,192,323516,1,0
396,304,323799,1,8
256,192,324082,6,0,B|256:292|256:292|312:292|380:264|392:164|368:108|332:60|244:56|164:52|120:144|136:200|120:264|244:292|244:292,1,649.999988377094,4|0
32,64,337093,5,8
48,64,337243,1,0
64,64,337393,1,8
256,92,337693,2,0,B|256:316|256:316,1,200,8|8
432,352,338293,2,0,B|368:304|368:224|432:176|432:176,1,200,8|8
82,178,338893,2,0,B|134:224|144:304|80:352,1,200,8|8
124,339,339343,5,0
167,327,339493,1,8
210,313,339643,1,0
253,301,339793,1,8
293,102,340093,2,0,B|313:77|311:26|255:-7|203:28|187:70|222:106|222:106,1,200,8|8
432,192,340693,1,8
256,296,340993,1,8
80,192,341293,1,8
208,360,341593,5,8
180,272,341743,1,0
256,216,341893,1,8
332,272,342043,1,0
304,360,342193,1,8
356,44,342493,6,0,B|152:44,1,200,8|8
356,124,343093,2,0,B|144:124,2,200,8|8|8
408,272,343993,1,8
348,344,344143,1,0
256,372,344293,1,8
164,344,344443,1,0
104,272,344593,1,8
256,192,344893,1,8
256,192,345043,12,4,346693
344,36,346993,5,8
164,36,347293,1,8
216,171,347593,2,0,B|230:139|284:129|297:175|297:175,1,100,8|8
329,245,347893,2,0,B|319:311|199:343|183:245|183:245,2,200,8|8|8
172,356,348793,1,8
256,384,348943,1,8
340,356,349093,1,8
344,56,349393,6,0,B|432:112|432:112|456:232,1,200,8|8
168,56,349993,1,8
168,56,350143,1,0
168,56,350293,2,0,B|80:112|80:112|56:232,1,200,8|8
348,328,350893,2,0,B|256:368|256:368|148:320,2,200,8|8|4
256,172,351793,5,8
388,48,352093,1,8
256,172,352393,1,8
256,260,352543,1,8
256,172,352693,1,8
124,48,352993,1,8
124,238,353293,2,0,B|192:272|192:336|192:336|240:336|256:368|256:368|272:336|320:336|320:336|320:272|393:240,1,400,8|4
256,40,354193,5,8
76,340,354493,1,8
436,340,354793,1,8
376,272,354943,6,0,B|410:236|410:236|476:237,1,100,0|8
462,146,355243,2,0,B|412:144|412:144|368:94,1,100,0|8
296,148,355543,2,0,B|282:116|228:106|215:152|215:152,1,100,0|8
132,106,355843,2,0,B|99:144|99:144|50:146,1,100,0|8
51,237,356143,2,0,B|101:236|101:236|136:272,1,100,0|4
216,236,356443,6,0,B|230:268|284:278|297:232|297:232,1,100,0|8
332,316,356743,2,0,B|352:288|352:288|384:288|384:288|404:260,2,100,0|8|0
256,360,357193,1,8
176,316,357343,2,0,B|156:288|156:288|124:288|124:288|104:260,2,100,0|8|0
212,232,357793,1,8
300,232,357943,1,0
340,152,358093,2,0,B|339:105|339:105|380:70,1,100,8|0
299,18,358393,2,0,B|256:40|256:40|206:15,1,100,8|0
132,70,358693,2,0,B|173:105|173:105|172:152,1,100,4|0
96,200,358993,5,8
20,248,359143,1,0
68,324,359293,1,8
144,276,359443,1,0
212,340,359593,2,0,B|228:340|228:340|248:332|248:332|256:344|256:344|264:332|264:332|280:340|280:340|296:340,1,100,8|0
368,276,359893,1,8
444,324,360043,1,0
492,248,360193,1,8
416,200,360343,1,0
344,144,360493,6,0,B|376:130|386:76|340:63|340:63,1,100,8|0
256,36,360793,1,8
168,64,360943,2,0,B|136:78|126:132|172:145|172:145,1,100,0|4
200,228,361243,1,0
148,300,361393,2,0,B|100:280|100:280|88:232|88:232,2,100,8|0|8
211,364,361843,2,0,B|256:341|256:341|306:366,1,100,0|8
364,300,362143,2,0,B|412:280|412:280|424:232|424:232,2,100,0|8|0
312,228,362593,1,8
304,140,362743,5,0
332,56,362893,1,8
256,4,363043,1,0
180,56,363193,1,8
208,140,363343,1,0
200,228,363493,5,4
116,192,363643,1,0
52,252,363793,1,8
92,336,363943,1,0
184,320,364093,1,8
256,372,364243,1,0
328,320,364393,1,8
420,336,364543,1,8
460,252,364693,1,8
396,192,364843,1,8
312,228,364993,1,8
294,139,365143,6,0,B|280:171|226:181|213:135|213:135,2,100,8|8|8
295,49,365593,2,0,B|281:17|227:7|214:53|214:53,2,100,8|8|4
416,181,366193,6,0,B|359:309|142:350|89:164|89:164,1,400,0|8
117,324,367093,2,0,B|176:384|364:408|416:309|426:294|426:294,2,300,0|0|8
192,209,368293,2,0,B|160:113|256:41|352:113|320:209,2,300,0|0|8
96,109,369493,6,0,B|148:5|256:-27|364:5|416:109,2,400,0|8|2
168,224,370993,2,0,B|200:264|256:276|312:264|344:224,2,200,8|0|8
32,184,371893,6,0,B|92:224|92:224|104:292|172:316,1,200,0|8
256,204,372493,1,2
340,315,372793,2,0,B|408:292|420:224|420:224|480:184,1,200,8|0
360,120,373393,2,0,B|308:128|308:128|200:84|212:20|256:0|300:20|312:84|204:128|204:128|152:120,1,400,8|8
40,204,374293,6,0,B|108:192|176:232|184:308,1,200,0|8
184,308,374743,1,4
328,308,375043,1,2
328,308,375193,2,0,B|336:232|404:192|472:204,1,200,8|4
340,156,375793,6,0,B|276:200|260:256|256:276|256:276|252:256|236:200|172:156,1,300,8|2
172,84,376393,2,0,B|204:36|256:24|308:36|340:84,2,200,8|0|8
296,152,377293,6,0,B|312:212|256:236|200:260|216:320,1,200,0|8
216,150,377893,2,0,B|200:212|256:236|312:260|295:320,2,200,0|8|2
256,16,378793,1,8
140,96,379093,6,0,B|92:240|232:308|256:352|256:352|280:308|420:240|372:96,1,600,0|8
304,120,380143,2,0,B|256:144|208:120,1,100,2|0
68,100,380593,6,0,B|96:304|292:280|324:388,1,400,8|8
188,385,381493,2,0,B|220:280|416:304|444:100,1,400,2|0
304,72,382393,1,8
184,148,382693,2,0,B|212:192|256:216|256:216|300:192|328:148,1,200,0|8
208,72,383293,1,0
256,204,383593,1,8
374,272,383893,6,0,B|342:312|342:312|296:328,1,100,8|8
216,328,384193,2,0,B|169:312|169:312|137:272,1,100,8|8
137,195,384493,2,0,B|169:155|169:155|216:140,1,100,8|8
296,140,384793,2,0,B|342:155|342:155|374:195,1,100,8|0
436,232,385093,6,0,B|484:112|484:112|448:48,1,200,4|8
380,8,385543,1,0
348,80,385693,2,0,B|296:56|296:56|256:72|256:72|216:56|216:56|164:80,1,200,0|8
132,8,386143,1,0
62,50,386293,2,0,B|28:112|28:112|76:232,1,200,0|8
120,300,386743,6,0,B|176:356|256:372|336:356|392:300,1,300,0|8
424,228,387343,1,2
344,240,387493,2,0,B|312:280|256:296|200:280|168:240,1,200,0|8
88,228,387943,1,0
140,168,388093,1,0
256,140,388243,6,0,B|256:88,6,50,8|0|8|0|8|0|4
256,140,389293,1,4
296,212,389893,6,0,B|284:339|148:363|68:339,2,300,6|2|8
256,140,390943,1,0
216,212,391093,2,0,B|227:339|363:363|443:339,2,300,0|2|8
368,268,392293,6,0,B|412:280|460:252|460:196|460:196|460:128,1,200,0|8
472,56,392743,2,0,B|428:44|384:68|380:124|380:124|380:192,1,200
300,192,393193,2,0,B|300:72|300:72|300:16|256:-4|212:16|212:72|212:72|212:192,1,400,8|8
132,191,393943,2,0,B|132:124|132:124|128:68|84:44|40:56,1,200,2|0
52,131,394393,2,0,B|52:196|52:196|52:252|100:280|144:268,1,200,8|0
296,316,394993,6,0,B|440:264|424:68,1,300,8|2
344,88,395593,2,0,B|364:244|256:288|148:244|168:88,1,400,8|8
87,71,396343,2,0,B|72:264|216:316,1,300,2|8
204,108,397093,6,0,B|336:108|336:108|400:140,1,200,0|8
360,212,397543,1,2
308,276,397693,2,0,B|176:276|176:276|112:244,1,200,0|8
152,172,398143,1,0
128,96,398293,6,0,B|48:32,2,100,8|0|8
176,32,398743,2,0,B|256:92|256:92|336:32,1,200,0|8
384,96,399193,2,0,B|464:32,2,100,8|0|4
404,256,399793,6,0,B|320:280|320:280|348:340|304:388,1,200,8|0
256,324,400243,1,0
205,384,400393,2,0,B|164:340|192:280|192:280|108:256,1,200,8|0
124,180,400843,2,0,B|204:204|204:204|240:216|260:236|264:244|256:256|248:244|252:236|272:216|308:204|308:204|388:180,1,300,2|2
364,20,401593,6,0,B|292:24|228:68|216:132,1,200,8|0
296,132,402043,2,0,B|284:68|220:24|148:20,1,200,2|0
148,100,402493,1,0
256,216,402793,1,8
364,100,403093,6,0,B|384:116|400:144|400:204|400:204|400:292,1,200,0|8
256,356,403693,1,0
112,290,403993,2,0,B|112:204|112:204|112:144|128:116|148:100,1,200,8|4
188,256,404593,6,0,B|200:200|256:164|312:200|324:256,2,200,8|0|8
112,228,405343,1,0
40,188,405493,2,0,B|60:160|94:147|128:148|156:160|156:160|176:136|216:120,1,200,2|8
296,120,405943,2,0,B|336:136|356:160|356:160|384:148|417:147|452:160|472:188,1,200
400,228,406393,1,8
256,296,406693,6,0,B|336:344|336:344|448:328,2,200,0|8|2
256,216,407443,1,0
256,136,407593,2,0,B|176:88|176:88|64:104,2,200,8|0|8
324,176,408343,5,0
324,256,408493,1,0
256,300,408643,1,0
188,256,408793,1,0
188,176,408943,1,0
256,136,409093,1,4
392,52,409393,6,0,B|396:144|432:192|496:204,1,200,0|8
496,124,409843,2,0,B|433:135|397:183|393:275,1,200,2|0
472,272,410293,2,0,B|468:328|432:360|372:360|372:360|316:360,1,200,0|8
296,284,410743,1,0
216,284,410893,1,0
191,360,411043,6,0,B|140:360|140:360|80:360|44:328|40:272,1,200
118,275,411493,2,0,B|114:183|78:135|16:124,1,200,2|8
17,203,411943,2,0,B|80:192|116:144|120:52,1,200
200,72,412393,6,0,B|196:140|256:164|316:140|312:72,1,200,8|0
376,136,412843,2,0,B|348:208|256:244|164:208|136:136,1,300,2|0
25,32,413593,5,8
24,31,413893,2,0,B|61:43|61:43|53:76|53:76|86:88|86:88|73:121|73:121|94:141|94:141|90:178|-3:154|-27:269|49:343|155:302|155:192|155:192|217:192|217:192|217:228|217:228|225:273|267:302|267:302|295:314|308:351|287:384|253:392|221:384|200:351|213:314|241:302|241:302|283:273|291:228|291:228|291:192|291:192|353:192|353:192|353:302|459:343|537:269|513:154|418:178|414:141|414:141|435:121|435:121|422:88|422:88|455:76|455:76|447:43|447:43|484:31,1,1600,0|4
340,104,416593,5,0
256,104,416743,1,0
300,32,416893,1,0
212,32,417043,1,0
172,104,417193,1,0
212,172,417343,1,0
300,172,417493,1,4
460,216,417793,5,0
392,328,418093,1,4
252,380,418393,1,0
252,380,418543,1,0
252,380,418693,1,4
120,328,418993,1,8
52,216,419293,1,0
208,144,419593,5,8
296,144,419743,1,0
328,59,419893,2,0,B|318:-7|198:-39|182:59|182:59,1,200,0|8
128,132,420343,2,0,B|212:176|212:176|212:304,1,200
300,281,420793,2,0,B|300:176|300:176|384:132,1,200,8|0
472,156,421243,1,0
408,220,421393,5,8
352,384,421693,2,0,B|288:384|288:384|256:368|256:368|224:384|224:384|136:384|136:384,1,200,0|8
104,220,422293,1,0
156,48,422593,5,8
180,140,422743,2,0,B|220:136|248:100|256:81|256:81|264:100|288:132|336:140,1,200
356,48,423193,1,8
256,204,423493,5,4
324,368,423793,2,0,B|396:300,1,100,8|0
188,368,424243,2,0,B|116:300,1,100,0|8
216,153,424693,2,0,B|164:204|200:264|235:275|268:272|296:280|352:228|333:181|292:148|292:148,2,300,0|0|8
348,44,425893,2,0,B|256:8|256:8|160:44,1,200,0|8
53,188,426493,6,0,B|120:201|143:318|50:338|50:338,1,200,0|8
216,360,427093,2,0,B|230:328|284:318|297:364|297:364,1,100,8|8
344,288,427393,2,0,B|368:244|368:244|344:200,1,100,8|8
296,132,427693,2,0,B|282:164|228:174|215:128|215:128,1,100,8|8
168,204,427993,2,0,B|144:247|144:247|168:291,1,100,8|8
256,248,428293,1,4
456,340,428593,6,0,B|389:327|366:210|459:190|459:190,1,200,8|8
336,56,429193,1,8
256,92,429343,1,0
176,56,429493,1,8
256,228,429793,1,8
334,269,429943,2,0,B|315:331|198:354|174:264|174:264,1,200
120,332,430393,1,8
105,147,430693,2,0,B|131:68|197:12|304:11|381:62|408:154,1,400,8|8
392,332,431593,1,8
184,248,431893,6,0,B|197:291|228:301|256:310|256:310|279:322|279:350|256:361|232:350|232:322|256:310|256:310|279:301|310:291|328:248,2,300,8|8|8
328,136,433093,2,0,B|314:92|283:82|256:73|256:73|232:61|232:33|256:22|279:33|279:61|256:73|256:73|232:82|201:92|184:136,2,300,8|8|8
64,60,434293,5,4
256,248,434743,1,8
448,60,435193,1,8
309,184,435493,2,0,B|378:252|330:333|283:348|239:344|201:354|133:282|153:215|208:180|208:180,1,400,4|8
86,328,436393,5,8
256,248,436693,1,0
426,328,436993,1,0
304,160,437293,1,0
328,72,437443,1,0
256,24,437593,1,0
184,72,437743,1,0
208,160,437893,1,4
336,304,438193,2,0,B|317:366|200:389|176:299|176:299,1,200
49,138,438793,1,0
149,31,439093,6,0,B|166:122|257:140|257:140|330:158|366:213|366:267|293:340|220:340|147:267|147:213|184:158|257:140|257:140|348:122|366:31,1,800
453,145,440593,5,0
370,358,440893,1,0
142,357,441193,1,0
59,145,441493,1,0
256,20,441793,1,0
179,207,442093,6,0,B|198:145|315:122|339:212|339:212,1,200
256,256,442543,1,0
256,352,442693,1,4
64,332,452293,6,0,B|64:252|64:252|64:204|96:172|136:172,1,200,4|0
212,84,452893,2,0,B|212:164|212:164|212:212|180:244|140:244,1,200,8|0
300,300,453493,6,0,B|300:219|300:219|300:171|332:139|371:139,1,200
448,50,454093,2,0,B|448:130|448:130|448:178|416:210|376:210,1,200,8|0
200,232,454693,6,0,B|176:184|176:184|132:184|100:172|80:136|84:96,1,200
136,36,455143,1,2
160,108,455293,2,0,B|212:108|212:108|256:128|256:128|300:108|300:108|352:108,1,200,8|0
376,36,455743,1,2
428,96,455893,2,0,B|432:136|412:172|380:184|336:184|336:184|312:232,1,200
128,272,456493,2,0,B|152:324|216:332|244:304|256:296|256:296|268:304|296:332|360:324|384:272,1,300,8|0
428,208,457093,6,0,B|388:180|336:196|312:240|312:240|256:208|256:208|200:240|200:240|176:196|124:180|84:208,1,400,4|8
28,152,457843,2,0,B|80:116|136:108|176:124|176:124|216:140,1,200
295,140,458293,2,0,B|336:124|336:124|376:108|432:116|484:152,2,200,2|0|8
156,232,459193,6,0,B|356:232,1,200
424,188,459643,1,2
476,252,459793,1,0
432,320,459943,2,0,B|404:372|404:372|324:372|324:372|296:320,1,200,0|2
216,318,460393,2,0,B|188:372|188:372|108:372|108:372|80:320,1,200,0|2
36,252,460843,1,0
88,188,460993,1,0
216,92,461293,6,0,B|176:52,2,50
296,92,461593,2,0,B|336:52,2,50
296,172,461893,2,0,B|384:172|384:172|424:172|456:192|472:232,1,200,4|8
464,312,462343,2,0,B|424:304|400:280|388:252|388:252|320:252|320:252|296:272,1,200,0|2
216,272,462793,2,0,B|192:252|192:252|124:252|124:252|112:280|88:304|48:312,1,200,8|0
40,230,463243,2,0,B|56:192|88:172|128:172|128:172|216:172,1,200,0|2
216,92,463693,2,0,B|216:56|216:56|216:28|240:4|272:4|296:28|296:56|296:56|296:92,1,200,0|8
424,192,464293,6,0,B|464:264|464:264|384:352,1,200,0|8
127,351,464893,2,0,B|48:264|48:264|88:192,1,200,0|8
140,252,465343,1,0
164,176,465493,2,0,B|204:188|236:244|204:300|204:300|308:300|308:300|276:244|308:188|348:176,1,400,2|0
324,100,466243,1,0
256,144,466393,1,8
188,104,466543,1,0
256,56,466693,1,0
408,108,466993,6,0,B|400:152|364:180|320:184|320:184|284:228|256:216|228:228|192:184|192:184|148:180|112:152|104:108,1,400,8|8
24,244,467893,2,0,B|148:256|148:256|176:284|212:292,1,200,0|8
299,292,468343,2,0,B|336:284|364:256|364:256|488:244,1,200,2|0
448,324,468793,6,0,B|404:328|404:328|336:372|256:388|176:372|108:328|108:328|64:324,1,400,8|8
96,252,469543,2,0,B|200:208|216:104,1,200,0|2
295,103,469993,2,0,B|312:208|416:252,1,200,8|0
360,312,470443,5,0
296,268,470593,1,0
256,204,470743,1,0
216,268,470893,1,0
152,312,471043,1,0
216,360,471193,1,0
296,360,471343,1,0
380,384,471493,6,0,B|436:368|456:304|432:252|376:236,1,200,4|0
396,160,471943,1,2
320,184,472093,2,0,B|300:136|300:136|256:116|256:116|212:136|212:136|192:184,1,200,0|8
116,160,472543,1,2
134,236,472693,2,0,B|80:252|56:304|76:368|132:384,1,200,0|8
156,312,473143,2,0,B|356:312,1,200
336,236,473593,1,8
256,236,473743,1,0
176,236,473893,6,0,B|96:240|44:192|32:124,1,200,2|8
72,56,474343,2,0,B|152:52|204:100|216:168,1,200
296,166,474793,2,0,B|308:100|360:52|440:56,1,200,8|2
479,125,475243,2,0,B|468:192|416:240|336:236,1,200
256,236,475693,1,0
212,304,475843,1,0
256,372,475993,1,0
300,304,476143,1,0
256,236,476293,6,0,B|256:32,1,200,4|0
336,36,476743,1,2
416,36,476893,2,0,B|416:76|384:112|340:116|340:116|340:160|340:200,1,200,0|8
172,195,477493,2,0,B|172:160|172:116|172:116|128:112|96:76|96:36,1,200,0|8
176,36,477943,2,0,B|224:44|244:88|244:88|268:88|268:88|288:44|336:36,1,200
352,116,478393,6,0,B|332:152|316:156|296:164|296:164|296:220|296:220|296:288,2,200,8|2|8
160,116,479293,2,0,B|180:152|196:156|216:164|216:164|216:220|216:220|216:288,2,200,0|8|0
120,184,480043,5,0
140,260,480193,1,0
216,288,480343,1,0
256,356,480493,1,0
296,288,480643,1,0
372,260,480793,1,0
392,184,480943,1,0
377,106,481093,6,0,B|449:94|503:168|451:239,1,200,4|0
392,184,481543,2,0,B|341:252|395:327|467:315,1,200,2|0
412,388,481993,2,0,B|312:372|304:316|320:268|280:280|256:260|232:280|192:268|208:316|200:372|100:388,1,400,8|8
43,315,482743,2,0,B|116:327|170:252|120:184,1,200,2|0
59,238,483193,2,0,B|8:168|62:94|135:106,1,200,8|0
296,264,483793,6,0,B|372:264|372:264|400:240|400:240|432:256|432:256|456:244|456:244|480:244,2,200,8|0|8
256,196,484543,1,2
216,120,484693,2,0,B|140:120|140:120|112:144|112:144|80:128|80:128|56:140|56:140|32:140,2,200,0|8|0
351,32,485593,6,0,B|276:104|360:264|480:68|540:348|412:348|352:348|352:348|295:348,1,500,8|0
216,348,486493,2,0,B|160:348|160:348|100:348|-28:348|32:68|152:264|236:104|160:32,1,500,2|0
104,88,487393,5,8
256,204,487693,1,2
408,88,487993,1,8
188,164,488293,5,8
188,84,488443,1,8
256,40,488593,1,8
324,84,488743,1,8
324,164,488893,1,8
256,204,489043,1,8
188,248,489193,1,8
324,248,489343,1,8
256,292,489493,6,0,B|256:340,8,50,8|0|8|0|8|0|8|0|8
324,248,490243,1,0
296,172,490393,1,8
216,172,490543,1,0
188,248,490693,1,4
176,80,490993,6,0,B|195:18|312:-5|336:85|336:85,1,200,8|8
396,252,491593,2,0,B|392:192|442:160|442:160,1,100,8|0
488,240,491893,1,8
340,340,492193,1,8
295,265,492343,2,0,B|317:234|297:196|271:187|253:182|228:183|180:218|200:250|227:280|227:280,1,200
172,340,492793,1,8
24,240,493093,1,8
73,165,493243,2,0,B|118:192|116:252,1,100,0|8
169,78,493693,6,0,B|223:78|223:78|255:46|255:46|287:78|287:78|343:78,1,200,8|8
375,277,494293,6,0,B|346:370|169:405|133:269|133:269,2,300,8|8|8
315,126,495493,2,0,B|347:77|317:21|282:6|248:-1|209:2|143:56|170:103|211:148|211:148,2,300,8|8|8
184,248,496693,2,0,B|197:291|228:301|256:310|256:310|279:322|279:350|256:361|232:350|232:322|256:310|256:310|279:301|310:291|328:248,2,300,8|8|8
101,109,497893,6,0,B|104:69|146:40|188:52|188:52|217:4|256:6|297:6|321:51|321:51|363:38|412:70|414:121,1,400,8|8
339,285,498793,2,0,B|332:301|311:315|290:309|290:309|275:333|255:336|232:331|221:310|221:310|202:316|175:303|169:277,2,200,8|8|8
256,86,499693,5,0
184,138,499843,1,0
212,222,499993,1,0
300,222,500143,1,0
328,138,500293,1,4
424,276,500593,5,0
256,372,500893,1,0
88,276,501193,1,0
88,276,501343,1,0
88,276,501493,1,0
160,92,501793,1,0
160,92,501943,1,0
352,92,502243,1,0
352,92,502393,1,0
256,248,502693,5,0
301,170,502843,2,0,B|283:152|255:151|229:152|210:170,1,100
338,292,503293,2,0,B|316:352|200:377|175:288|175:288,1,200
91,154,503893,6,0,B|44:150|21:102|10:42|65:7|131:-10|181:42|166:103|166:103,2,300
421,154,505093,2,0,B|468:150|491:102|502:42|447:7|381:-10|331:42|346:103|346:103,2,300
213,259,506293,2,0,B|161:310|197:370|232:381|265:378|293:386|349:334|330:287|289:254|289:254,2,300
170,74,507493,6,0,B|224:74|224:74|256:42|256:42|288:74|288:74|344:74,1,200
448,224,508093,1,0
330,360,508393,2,0,B|315:315|255:300|255:300|195:315|182:360,1,200
64,224,508993,1,0
256,152,509293,5,0
328,100,509443,1,0
300,16,509593,1,0
212,16,509743,1,0
184,100,509893,1,4
256,264,510193,1,0
376,72,510493,1,0
136,76,510793,1,0
380,73,511093,6,0,B|445:147|468:248|406:346|328:392|268:399|149:402|86:328|25:223|84:96|152:64,1,800
256,196,512593,1,0
256,196,512893,5,0
180,240,513043,1,0
180,328,513193,1,0
256,372,513343,1,0
332,328,513493,1,0
332,240,513643,1,0
336,152,513793,6,0,B|368:138|378:84|332:71|332:71,1,100,0|0
256,32,514093,1,0
176,72,514243,2,0,B|144:86|134:140|180:153|180:153,1,100
256,196,514543,1,0
182,251,514693,2,0,B|256:319|256:319|326:249,1,200,4|0
335,255,515068,1,0
344,263,515143,1,0
352,271,515218,1,0
360,279,515293,2,0,B|415:295|465:274|495:228|488:171,1,200,8|0
398,188,515743,1,0
386,180,515818,1,0
374,172,515893,2,0,B|318:155|268:176|238:222|245:279,2,200,8|0|8
356,28,516793,1,8
176,24,517093,5,0
80,176,517393,1,8
88,180,517468,1,0
96,184,517543,1,0
104,188,517618,1,0
112,192,517693,2,0,B|168:175|218:196|248:242|241:299,1,200,8|0
144,288,518143,1,0
136,292,518218,1,0
128,296,518293,2,0,B|73:312|23:291|-7:245|0:188,1,200,8|8
48,100,518743,1,0
48,100,518818,1,0
48,100,518893,2,0,B|124:100|124:100|168:100|208:72|216:32,1,200,0|8
464,284,519493,2,0,B|388:284|388:284|344:284|304:312|296:352,1,200,4|8
216,352,519943,6,0,B|168:352,2,50,0|0|8
296,32,520393,2,0,B|344:32,2,50,8|0|0
204,68,520693,2,0,B|248:120|248:120|380:120,1,200,0|8
308,316,521293,2,0,B|264:264|264:264|132:264,1,200,0|8
24,96,521893,6,0,B|56:136|56:136|156:124|156:124|188:160,1,200,0|8
256,232,522343,2,0,B|256:280,2,50,0|0|8
324,159,522643,1,0
324,159,522793,2,0,B|356:124|356:124|456:136|456:136|488:96,1,200,8|8
428,16,523243,5,4
24,288,523693,5,8
84,368,523843,1,4
256,120,524293,5,4
452,156,524593,2,0,B|424:100,2,50,8|0|0
504,240,524893,2,0,B|456:280|360:252|348:176,1,200,8|0
163,176,525493,2,0,B|152:252|56:280|8:240,1,200,0|8
60,156,525943,1,0
60,156,526093,2,0,B|88:100,2,50,8|0|0
60,156,526393,1,0
300,336,526693,6,0,B|340:280|340:280|384:292|440:284|460:248,1,200,0|8
388,180,527143,2,0,B|404:128,2,50,0|0|8
124,180,527593,2,0,B|108:128,2,50,8|0|0
52,249,527893,2,0,B|72:284|128:292|172:280|172:280|212:336,1,200,0|8
256,140,528493,1,0
256,140,528793,2,0,B|256:40,2,100,8|0|4
460,192,529393,6,0,B|528:192,2,50,8|0|0
360,192,529693,1,8
52,188,529993,2,0,B|-16:188,2,50,8|0|0
152,192,530293,1,8
312,308,530593,1,8
256,108,530893,1,0
200,308,531193,1,8
172,112,531493,6,0,B|172:60|212:16|276:12|316:52,1,200,0|8
340,272,532093,2,0,B|340:324|300:368|236:372|196:332,1,200,0|8
56,192,532543,5,0
56,192,532618,1,0
56,192,532693,1,0
8,100,532843,1,4
460,192,533293,5,8
504,284,533443,1,4
256,192,550693,12,4,553093
48,116,553393,6,0,B|114:126|146:246|48:262|48:262,1,200,0|0
183,36,553993,2,0,B|193:102|313:134|329:36|329:36,1,200,0|0
464,262,554593,2,0,B|398:252|366:132|464:116|464:116,1,200,0|0
300,352,555193,1,0
328,268,555343,1,0
256,212,555493,1,0
184,268,555643,1,0
212,352,555793,1,0
108,200,556093,5,0
168,40,556393,1,0
344,40,556693,1,0
404,200,556993,1,0
256,288,557293,1,0
256,108,557593,5,0
212,186,557743,1,0
301,185,557893,1,4
174,312,558193,2,0,B|183:356|231:356|255:340|255:340|279:356|327:356|335:308,1,200
470,164,558793,2,0,B|425:158|418:126|411:107|417:88|417:88|398:95|379:89|351:80|344:41,1,200
166,43,559393,2,0,B|160:80|132:89|113:95|94:88|94:88|100:107|93:126|86:158|42:164,1,200
152,288,559993,2,0,B|192:384,1,100
256,320,560293,1,4
321,380,560443,2,0,B|360:288,1,100
295,119,560893,2,0,B|317:88|297:50|271:41|253:36|228:37|180:72|200:104|227:134|227:134,1,200
56,200,561493,5,0
128,272,561643,1,0
164,298,561718,1,0
181,339,561793,1,0
256,264,561943,1,0
331,339,562093,1,0
348,298,562168,1,0
384,272,562243,1,0
432,176,562393,1,0
360,88,562543,1,0
256,56,562693,1,4
152,88,562843,1,0
80,176,562993,1,0
213,343,563293,6,0,B|199:287|199:287|254:259|254:259|310:287|310:287|296:343,1,240.000005722046
437,158,563893,2,0,B|471:123|471:123|465:38|381:32|381:32|341:72,1,240.000005722046
166,67,564493,2,0,B|131:32|131:32|47:38|41:123|41:123|76:158,1,240.000005722046
200,248,564943,2,0,B|176:304|176:304|200:360,1,120.000002861023,0|4
312,358,565243,2,0,B|336:304|336:304|312:248,1,120.000002861023
256,4,565693,5,0
456,96,565993,1,0
456,296,566293,1,0
256,376,566593,1,0
56,296,566893,1,0
56,96,567193,1,0
191,119,567343,2,0,B|231:167|191:231,1,120.000002861023
320,229,567643,2,0,B|280:165|320:117,1,120.000002861023
354,331,568093,6,0,B|303:321|271:347|254:380|254:380|238:347|205:321|155:331,1,240.000005722046
157,90,568693,2,0,B|207:99|239:73|256:40|256:40|272:73|305:99|355:90,1,240.000005722046
477,296,569293,1,0
256,204,569593,1,0
212,348,569743,1,0
332,264,569893,1,0
180,264,570043,1,0
300,348,570193,1,0
32,296,570493,1,0
160,96,570793,6,0,B|182:21|324:-6|353:102|353:102,2,240.000005722046
112,336,571693,2,0,B|161:288|160:224,1,120.000002861023
256,280,571993,1,0
352,229,572143,2,0,B|351:288|400:336,1,120.000002861023,0|4
356,64,572593,6,0,B|306:48|289:14|289:14|256:31|222:14|222:14|205:48|155:64|155:64,1,240.000005722046,0|0
376,192,573193,2,0,B|136:192,1,240.000005722046
356,320,573793,2,0,B|306:336|289:370|289:370|256:353|222:370|222:370|205:336|155:320|155:320,1,240.000005722046
153,67,574393,6,0,B|200:83|208:137|192:165|172:188|144:206|71:203|65:157|70:105|70:105,1,259.999995350838,0|4
359,67,574993,2,0,B|311:83|303:137|319:165|339:188|367:206|440:203|446:157|441:105|441:105,1,259.999995350838
367,348,575593,2,0,B|297:348|297:348|256:306|256:306|215:348|215:348|143:348,1,259.999995350838
64,128,576193,1,0
364,64,576493,2,0,B|328:10|256:-25|183:10|147:64,1,259.999995350838
196,179,576943,2,0,B|224:208|286:211|320:176,1,129.999997675419,0|4
138,298,577393,2,0,B|171:339|257:370|336:339|373:299,1,259.999995350838
440,144,577993,5,0
256,32,578293,1,0
72,144,578593,1,0
180,308,578893,1,0
256,360,579043,1,0
336,296,579193,1,0
304,216,579343,1,0
208,216,579493,1,4
128,152,579643,5,0
92,56,579793,2,0,B|172:44|212:104|212:104,1,129.999997675419
303,99,580093,2,0,B|347:46|420:56,1,129.999997675419
384,152,580393,1,0
304,216,580543,1,0
410,291,580693,5,4
400,311,580768,1,0
383,327,580843,1,0
364,339,580918,1,0
343,345,580993,1,0
322,347,581068,1,0
299,342,581143,1,0
278,333,581218,1,0
260,320,581293,1,4
234,333,581368,1,0
213,342,581443,1,0
190,347,581518,1,0
169,345,581593,1,0
148,339,581668,1,0
129,327,581743,1,0
112,311,581818,1,0
102,291,581893,1,4
188,252,582043,5,0
324,252,582193,1,0
256,188,582343,1,0
352,152,582493,1,0
160,152,582643,1,0
256,92,582793,1,0
256,92,582943,1,0
160,52,583093,6,0,B|96:52|32:108|44:192|104:240,1,259.999995350838,0|0
256,312,583543,1,0
408,240,583693,2,0,B|468:192|480:108|416:52|352:52,1,259.999995350838
352,152,584143,1,0
340,296,584293,2,0,B|316:228|256:200|256:200|196:228|172:296,1,259.999995350838
256,312,584743,1,0
172,294,584893,2,0,B|52:244,1,129.999997675419
36,152,585193,2,0,B|156:204,1,129.999997675419
236,232,585493,6,0,B|252:180|216:136|216:136|72:72,1,259.999995350838
292,108,585943,2,0,B|408:44,1,129.999997675419
320,184,586243,2,0,B|452:184,1,129.999997675419
312,268,586543,1,0
312,268,586693,6,0,B|432:316,1,129.999997675419,4|0
332,376,586993,2,0,B|296:328|292:256|360:184|444:200,1,259.999995350838
180,376,587593,2,0,B|216:328|220:256|152:184|68:200,1,259.999995350838
96,124,588043,2,0,B|172:128|216:172,1,129.999997675419
416,124,588343,2,0,B|340:128|296:172,1,129.999997675419
140,52,588793,2,0,B|200:64|256:108|256:108|312:64|372:52,1,259.999995350838
256,12,589243,1,0
256,12,589393,1,0
372,224,589693,5,0
140,224,589993,1,0
292,360,590293,2,0,B|337:315|305:263|275:254|246:256|222:249|174:294|190:335|226:364|226:364,2,259.999995350838
364,141,591193,1,0
256,101,591343,1,0
148,141,591493,1,4
363,54,591793,6,0,B|327:0|255:-35|182:0|146:54,2,259.999995350838
256,103,592543,1,0
362,150,592693,2,0,B|326:204|254:239|181:204|145:150,1,259.999995350838
138,299,593143,1,0
380,297,593443,1,0
379,296,593593,1,0
368,184,593893,6,0,B|308:180|244:244|252:324|304:376,1,259.999995350838
380,288,594343,1,0
272,320,594493,2,0,B|224:272|152:288,1,129.999997675419
64,216,594793,2,0,B|20:272|52:340,1,129.999997675419
144,200,595093,6,0,B|204:204|268:140|260:60|208:8,1,259.999995350838
132,92,595543,1,0
240,64,595693,2,0,B|288:112|360:96,1,129.999997675419
448,168,595993,2,0,B|492:112|460:44,2,129.999997675419,0|0|4
136,320,596593,1,0
136,320,596743,1,0
376,320,597043,1,0
376,320,597193,1,0
376,320,597493,6,0,B|424:268|422:191|375:126|311:112,1,259.999995350838
136,320,597943,2,0,B|87:268|89:191|136:126|200:112,1,259.999995350838
256,48,598393,1,0
196,348,598693,2,0,B|256:392|316:348,1,129.999997675419
256,272,598993,1,0
256,272,599143,1,0
308,144,599293,6,0,B|304:76|344:16|432:0|492:60,1,259.999995350838
412,132,599743,1,0
336,276,599893,2,0,B|340:204|256:148|172:204|176:276,1,259.999995350838
100,132,600343,1,0
25,55,600493,2,0,B|79:0|167:15|207:75|203:143,1,259.999995350838
256,272,600943,1,0
256,192,601018,12,0,602293
256,192,602368,12,0,603493
180,344,603793,6,0,B|205:286|205:286|257:262|257:262|310:286|310:286|334:344,1,240.000005722046
488,176,604393,2,0,B|434:168|426:130|417:108|424:85|424:85|402:93|379:86|346:75|337:29,1,240.000005722046
172,32,604993,2,0,B|164:76|131:86|108:93|86:85|86:85|93:108|85:130|76:168|24:176,1,240.000005722046
168,320,605593,1,0
256,360,605743,1,0
344,320,605893,1,4
453,145,606193,5,0
256,20,606493,1,0
59,145,606793,1,0
142,357,607093,1,0
370,358,607393,1,0
256,188,607693,1,0
315,98,607843,2,0,B|259:68|186:76|145:139|146:199,1,240.000005722046
197,285,608293,2,0,B|250:314|325:307|366:246|366:183,1,240.000005722046
464,288,608893,5,0
256,156,609193,1,0
48,288,609493,1,0
166,112,609793,2,0,B|184:57|256:39|256:39|328:57|344:112,1,240.000005722046
320,192,610243,2,0,B|320:256|255:272|255:272|182:292|198:370,1,240.000005722046
314,370,610693,2,0,B|330:292|256:272|256:272|192:256|192:192,1,240.000005722046,4|0
384,80,611293,5,0
128,80,611593,1,0
128,304,611893,1,0
384,304,612193,1,0
256,128,612493,1,0
165,185,612643,2,0,B|217:196|249:228|257:252|257:252|265:228|289:196|352:183,1,240.000005722046
346,280,613093,6,0,B|327:359|188:394|160:272|160:272,1,240.000005722046
64,88,613693,1,0
228,32,613993,2,0,B|256:24|256:24|284:32,4,60.0000014305115
164,136,614443,2,0,B|200:136|200:136|224:112|224:112|256:152|256:152|288:112|288:112|312:136|312:136|352:136,1,240.000005722046
420,208,614893,1,0
368,300,615043,1,0
256,344,615193,1,0
144,300,615343,1,0
92,208,615493,1,4
420,48,615793,5,0
92,48,616093,1,0
92,336,616393,1,0
420,336,616693,1,0
256,40,616993,1,0
88,200,617293,1,0
160,272,617443,1,0
256,304,617593,1,0
352,272,617743,1,0
424,200,617893,1,0
164,76,618193,6,0,B|183:155|322:190|350:68|350:68,1,240.000005722046
345,308,618793,2,0,B|323:230|188:196|161:312|161:312,1,240.000005722046
388,192,619393,1,0
124,192,619693,1,0
200,108,619843,2,0,B|256:128|256:128|312:108,1,120.000002861023
256,16,620143,1,0
396,48,620293,6,0,B|451:66|469:138|469:138|451:210|396:226,1,240.000005722046
116,336,620893,2,0,B|61:318|43:246|43:246|61:174|116:158,1,240.000005722046
388,280,621493,5,0
256,48,621793,1,0
124,280,622093,1,0
56,196,622243,2,0,B|116:172|116:172|136:116|136:116,1,120.000002861023
202,192,622543,2,0,B|256:218|256:218|309:192,1,120.000002861023
377,119,622843,2,0,B|376:116|396:172|396:172|456:196,1,120.000002861023
400,288,623143,1,0
304,344,623293,1,0
256,360,623368,1,0
208,344,623443,1,0
128,272,623593,5,0
160,168,623743,1,0
256,128,623893,1,0
352,168,624043,1,0
384,272,624193,1,0
256,248,624343,1,0
352,168,624493,5,0
368,112,624568,1,0
352,64,624643,1,0
312,24,624718,1,0
256,8,624793,1,0
200,24,624868,1,0
160,64,624943,1,0
144,112,625018,1,0
160,168,625093,1,4
84,244,625243,5,0
152,336,625393,1,0
256,364,625543,1,0
360,336,625693,1,0
428,244,625843,1,0
428,140,625993,1,0
360,48,626143,1,0
256,20,626293,1,0
152,48,626443,1,0
84,140,626593,1,0
206,158,626743,6,0,B|222:129|256:125|289:129|305:158,1,120.000002861023
376,240,627043,1,0
304,320,627193,2,0,B|287:349|254:353|220:349|204:320,1,120.000002861023
136,240,627493,1,0
256,248,627643,1,0
312,144,627793,5,0
312,144,627868,1,0
312,144,627943,1,0
344,48,628093,1,0
256,0,628243,1,0
168,48,628393,1,0
200,144,628543,1,0
96,168,628693,5,0
88,272,628843,1,0
192,320,628993,1,0
256,232,629143,1,0
312,144,629293,1,0
416,168,629443,1,0
424,272,629593,1,0
320,320,629743,1,0
256,232,629893,1,0
200,144,630043,5,0
208,40,630193,1,0
256,16,630268,1,0
304,40,630343,1,0
312,144,630493,1,0
416,200,630643,2,0,B|488:304,1,120.000002861023
408,376,630943,2,0,B|339:277,1,120.000002861023
256,344,631243,1,0
172,277,631393,2,0,B|104:376,1,120.000002861023
27,298,631693,2,0,B|96:200,1,120.000002861023
93,91,631993,5,0
206,63,632143,2,0,B|222:33|255:29|289:33|305:63,1,120.000002861023
419,91,632443,1,0
352,176,632593,1,0
360,184,632668,1,0
368,192,632743,1,0
400,296,632893,2,0,B|456:278|456:278|476:222,1,120.000002861023
308,356,633193,2,0,B|289:356|289:356|265:346|265:346|256:360|256:360|246:346|246:346|227:356|227:356|208:356,1,120.000002861023
35,222,633493,2,0,B|55:278|55:278|112:296,1,120.000002861023
184,96,633793,5,0
256,272,633943,1,0
328,96,634093,1,0
160,200,634243,1,0
352,200,634393,1,0
256,32,634543,1,0
256,168,634693,5,4
352,328,634993,5,0
400,88,635293,1,0
160,40,635593,1,0
112,248,635893,1,0
276,357,636193,5,0
431,167,636493,1,0
242,12,636793,1,0
102,173,637093,1,0
205,350,637393,5,0
425,244,637693,1,0
319,23,637993,1,0
124,110,638293,1,0
138,310,638593,5,0
383,315,638893,1,0
389,71,639193,1,0
175,59,639493,1,0
99,249,639793,5,0
319,358,640093,1,0
427,138,640393,1,0
239,38,640693,1,0
89,186,640993,5,0
252,369,641293,1,0
435,206,641593,1,0
297,43,641893,1,0
107,116,642193,5,0
177,351,642493,1,0
412,281,642793,1,0
304,240,642943,5,0
256,224,643018,1,0
208,240,643093,1,0
136,155,643243,2,0,B|187:189|256:155|307:103|307:51|290:17|256:0|221:17|204:51|204:103|256:155|324:189|376:155,1,480.000011444092
40,44,671736,6,0,B|40:164,1,100,8|8
120,184,672236,2,0,B|120:76,1,100,8|0
200,126,672736,2,0,B|217:74|276:53|341:72|356:135,1,200,4|8
436,72,673486,1,0
484,148,673736,1,8
412,204,673986,2,0,B|408:244|424:280|464:296|464:296,1,100,0|8
404,368,674486,5,0
325,319,674736,2,0,B|299:294|264:292|232:320|232:320|204:348|157:346|140:313,1,200,8|8
64,352,675486,2,0,B|16:316|12:208|68:160,1,200
122,106,676236,2,0,B|174:90|190:38,1,100,8|0
267,84,676736,2,0,B|243:131|281:187|370:171|373:107|349:70,1,200,8|8
428,28,677486,5,0
488,96,677736,1,8
424,160,677986,1,0
484,225,678236,2,0,B|470:274|470:274|486:322,1,100,8|0
412,368,678736,2,0,B|308:368,1,100,8|0
252,300,679236,1,8
184,360,679486,5,0
108,312,679736,2,0,B|48:328|4:284|4:204|68:188|68:188,1,200,8|8
148,148,680486,2,0,B|194:117|188:60,1,100,0|8
268,20,680986,1,0
332,80,681236,2,0,B|448:48,1,100,8|0
484,124,681736,2,0,B|388:152,1,100,8|0
376,244,682236,6,0,B|492:212,1,100,8|0
496,304,682736,1,8
328,373,683236,2,0,B|313:319|252:296|191:320|176:383,1,200,8|8
88,328,683986,2,0,B|16:248|48:136|48:136,1,200
120,192,684736,2,0,B|124:75|216:16,1,200,8|8
280,80,685486,5,0
360,32,685736,2,0,B|480:32|480:32,1,100,8|0
488,120,686236,2,0,B|440:128|440:168|488:176,1,100,8|0
432,248,686736,2,0,B|480:256|480:296|432:304,1,100,8|0
360,360,687236,1,8
288,304,687486,5,0
216,360,687736,2,0,B|104:360|104:360,1,100,8|0
72,280,688236,2,0,B|184:280|184:280,1,100,8|0
136,200,688736,2,0,B|85:203|44:162|36:100|88:60,1,200,12|8
169,24,689486,1,0
256,56,689736,2,0,B|360:36,1,100,8|0
424,88,690236,6,0,B|444:188,1,100,8|0
368,232,690736,1,8
216,344,691236,2,0,B|223:318|255:306|287:319|295:351,1,100,8|0
144,232,692236,1,8
68,186,692486,2,0,B|88:88,1,100,0|8
256,200,693236,5,8
336,72,693736,1,8
256,24,693986,1,0
176,72,694236,1,8
177,236,694736,2,0,B|198:284|254:310|321:285|336:232,1,200,8|8
408,280,695486,1,0
408,280,695736,5,8
256,368,696236,1,8
104,280,696736,1,4
104,104,697236,1,8
256,16,697736,1,8
408,104,698236,5,8
408,104,698486,1,0
408,104,698736,1,8
338,275,699236,2,0,B|315:320|259:346|192:321|176:269,1,200,8|8
175,175,699986,2,0,B|198:130|254:104|321:129|337:181,1,200
257,228,700736,5,8
256,48,701236,1,8
176,320,701736,1,8
256,360,701986,1,0
336,320,702236,1,8
352,144,702736,2,0,B|287:143|287:143|255:127|255:127|223:143|223:143|151:143,1,200,8|8
300,32,703736,5,8
212,32,703986,1,0
60,121,704486,6,0,B|94:207|94:207|50:304,1,200,8|0
49,304,705236,1,8
124,344,705486,2,0,B|169:247|169:247|257:217,1,200,8|0
452,120,706236,1,8
452,120,706486,2,0,B|417:207|417:207|462:304,1,200,8|0
463,304,707236,1,8
387,343,707486,2,0,B|342:247|342:247|254:217,1,200,8|0
158,53,708236,1,8
158,53,708486,2,0,B|223:52|223:52|255:36|255:36|287:52|287:52|359:52,1,200,8|0
352,138,709236,1,8
352,138,709486,2,0,B|287:139|287:139|255:155|255:155|223:139|223:139|151:139,1,200,8|0
256,285,710236,5,8
100,340,710486,1,8
204,340,710736,5,0
180,304,710861,1,0
180,260,710986,1,0
212,220,711111,1,0
256,208,711236,1,0
300,220,711361,1,0
332,260,711486,1,0
332,304,711611,1,0
308,340,711736,1,0
412,340,711986,37,0
452,164,712486,21,0
370,97,712736,2,0,B|340:54|262:14|173:45|137:104,1,259.999995350838,4|8
370,287,713736,2,0,B|340:330|262:370|173:339|137:280,1,259.999995350838,0|8
194,214,714486,2,0,B|258:263|325:207,1,129.999997675419,0|8
256,144,714986,1,8
96,288,715486,6,0,B|32:240|16:192|16:192|32:128|112:80,1,259.999995350838,8|8
256,192,716236,1,8
416,288,716486,2,0,B|480:240|496:192|496:192|480:128|400:80,1,259.999995350838,8|0
200,76,717236,6,0,B|214:55|253:35|298:50|316:80,1,129.999997675419,8|0
256,336,717736,1,8
160,180,717986,2,0,B|174:243|252:283|341:252|352:168,2,259.999995350838,8|8|8
320,344,719236,6,0,B|184:344,1,129.999997675419,8|0
440,168,719736,2,0,B|360:36,1,129.999997675419,8|0
72,168,720236,2,0,B|152:36,1,129.999997675419,8|0
256,216,720736,2,0,B|256:296|256:296|360:292|368:200|340:136|304:100|196:92|156:152|149:244|204:280,1,519.999990701676,4|0
348,360,722236,5,8
256,384,722486,1,0
172,360,722736,1,8
256,208,723236,1,8
299,22,723736,1,8
214,25,723986,2,0,B|173:80|209:160|333:145|330:56|296:19,1,259.999995350838,8|8
404,172,724986,5,8
344,240,725236,1,8
256,260,725486,1,0
168,236,725736,1,8
108,172,725986,1,0
140,340,726486,2,0,B|170:383|248:423|337:392|373:333,1,259.999995350838,8|0
316,268,727236,2,0,B|252:317|185:261,1,129.999997675419,8|0
256,176,727736,5,8
160,128,727986,1,0
192,96,728111,1,0
212,48,728236,1,0
256,20,728361,1,0
300,48,728486,1,0
320,96,728611,1,0
352,128,728736,1,4
400,224,728986,6,0,B|400:288|400:288|464:352,1,129.999997675419
352,368,729486,1,0
279,292,729736,2,0,B|297:263|279:224|217:231|219:275|235:294,1,129.999997675419
160,368,730236,1,0
61,333,730486,2,0,B|107:286|107:286|107:222,1,129.999997675419
195,167,730986,2,0,B|256:143|256:143|316:167,1,129.999997675419
379,84,731486,2,0,B|256:35|256:35|135:84,1,259.999995350838
207,173,732236,5,0
305,174,732486,2,0,B|373:206|373:323|285:353|256:323|256:323|212:279|226:235|285:235|299:279|256:323|256:323|212:353|138:309|138:206|214:170,1,649.999988377094
162,79,733986,1,0
350,79,734486,1,0
365,286,734986,2,0,B|335:243|257:203|168:234|132:293,1,259.999995350838
195,370,735736,6,0,B|259:419|326:363,2,129.999997675419
137,282,736486,1,0
79,182,736736,2,0,B|202:174|221:20|153:-13|84:20|84:89|187:123|256:20|256:20|309:109|412:102|451:11|334:-40|296:20|329:166|352:180|459:186,1,779.999986052513,4|0
344,248,738486,5,0
256,192,738736,1,0
168,248,738986,1,0
355,355,739486,2,0,B|280:360|256:287|256:287|232:360|155:355,1,259.999995350838
80,288,740236,1,0
58,186,740486,6,0,B|28:128|76:66|76:66|158:49|196:100,1,259.999995350838
256,184,741236,2,0,B|256:216|256:216|240:232|240:232|272:240|272:240|256:256|256:256|256:280,2,129.999997675419
316,99,741986,2,0,B|354:49|436:66|436:66|484:128|454:186,1,259.999995350838
315,349,742986,6,0,B|251:398|184:342,1,129.999997675419
205,246,743486,1,0
307,246,743736,1,0
368,160,743986,5,0
324,156,744111,1,0
288,132,744236,1,0
256,100,744361,1,0
224,132,744486,1,0
188,156,744611,1,0
144,160,744736,1,4
256,12,751736,5,8
181,62,751986,1,0
209,150,752236,1,8
301,150,752486,1,0
329,62,752736,1,4
328,243,753236,2,0,B|313:297|252:320|191:296|176:233,1,200,8|8
344,356,754236,5,8
256,384,754486,1,0
168,356,754736,1,8
126,200,755236,1,8
183,128,755486,2,0,B|233:132|253:72|253:72|273:132|336:128,1,200
385,200,756236,1,8
296,240,756486,2,0,B|288:216|259:203|225:213|217:244,1,100,0|8
256,372,757236,5,8
416,228,757736,1,8
356,56,758236,1,8
156,56,758736,1,8
84,228,759236,1,8
141,298,759486,5,0
200,225,759736,1,4
183,187,759861,1,0
188,145,759986,1,0
213,111,760111,1,0
256,94,760236,1,0
298,111,760361,1,0
323,145,760486,1,0
328,187,760611,1,0
311,225,760736,1,0
370,298,760986,5,0
308,368,761236,2,0,B|196:368|196:368,1,100,8|0
176,280,761736,2,0,B|200:272|213:243|203:209|172:201,1,100,8|0
256,152,762236,1,8
336,204,762486,2,0,B|310:211|300:245|313:274|337:282,1,100,0|8
344,60,763236,2,0,B|256:12|256:12|168:60,1,200,8|8
169,139,763986,2,0,B|256:186|256:186|344:138,1,200
256,100,764736,5,8
256,260,765236,1,8
120,344,765736,1,8
256,260,766236,1,8
392,344,766736,1,8
446,187,767236,5,8
385,127,767486,1,0
368,40,767736,1,8
296,100,767986,2,0,B|289:126|255:136|226:123|218:99,1,100,0|8
143,40,768486,1,0
126,127,768736,1,12
65,192,768986,1,0
126,256,769236,5,8
144,343,769486,1,0
218,284,769736,2,0,B|226:261|255:248|289:258|296:284,1,100,8|0
368,343,770236,1,8
385,256,770486,1,0
446,192,770736,1,8
376,38,771236,5,8
300,84,771486,2,0,B|324:131|286:187|197:171|194:107|218:70,1,200
135,38,772236,1,8
100,120,772486,5,0
40,52,772736,1,8
57,216,773236,1,8
181,324,773736,2,0,B|196:375|260:399|323:374|338:309,1,200,8|8
454,216,774736,1,8
472,52,775236,5,8
412,120,775486,1,0
376,38,775736,1,8
300,200,776236,2,0,B|324:153|286:97|197:113|194:177|218:214,1,200,8|8
328,320,777236,2,0,B|278:316|258:376|258:376|238:316|175:320,1,200,8|8
100,120,778236,5,8
40,52,778486,1,0
135,38,778736,1,8
337,193,779236,2,0,B|314:148|258:122|191:147|175:199,1,200,8|8
177,284,779986,2,0,B|193:332|254:358|327:334|336:280,1,200
256,240,780736,5,8
340,56,781236,1,8
172,56,781736,1,8
256,104,781986,1,0
340,56,782236,1,8
352,228,782736,2,0,B|287:229|287:229|255:245|255:245|223:229|223:229|151:229,1,200,8|8
360,352,783736,5,8
256,384,783986,1,8
152,352,784236,1,8
173,256,784486,2,0,B|185:285|256:336|325:292|350:244,1,200,8|0
256,196,785236,1,0
309,100,785486,2,0,B|336:52|291:-27|183:-4|172:77|210:125,1,240.000005722046
112,168,786236,1,0
128,272,786486,6,0,B|168:232|213:263|213:263|256:289|303:260|303:260|356:231|392:283|392:283,1,279.99999332428
400,367,787236,1,0
400,367,787486,2,0,B|354:412|303:377|303:377|254:347|200:380|200:380|140:413|99:354|99:354,1,320
92,204,788236,5,0
92,204,788486,2,0,B|135:142|257:127|384:123|441:224|441:224,1,359.999982833863
442,299,789236,1,0
442,299,789486,2,0,B|390:365|256:382|119:384|55:280|55:280,1,400
106,180,790236,5,0
32,87,790486,1,0
160,64,790736,1,0
200,100,790861,1,0
216,156,790986,1,0
208,212,791111,1,0
256,244,791236,1,0
304,212,791361,1,0
296,156,791486,1,0
312,100,791611,1,0
356,64,791736,1,0
484,96,791986,5,0
412,196,792236,1,0
412,196,792361,1,0
412,196,792486,1,0
370,318,792736,2,0,B|340:361|262:401|173:370|137:311,1,259.999995350838,4|0
316,168,793736,6,0,B|345:220|295:307|176:281|164:192|206:139,1,259.999995350838
160,68,794486,1,0
256,8,794736,1,0
352,68,794986,1,0
360,240,795486,2,0,B|402:240|402:240|442:240|458:272|458:296|458:296|458:320|442:352|402:352|402:352|354:352|354:352,1,259.999995350838
256,320,796236,1,0
152,352,796486,2,0,B|158:352|110:352|110:352|70:352|54:320|54:296|54:296|54:272|70:240|110:240|110:240|152:240,1,259.999995350838
200,144,797236,6,0,B|256:176|256:176|312:144,1,129.999997675419
312,48,797736,2,0,B|255:15|255:15|199:47,1,129.999997675419
368,232,798486,2,0,B|254:297|254:297|142:232,1,259.999995350838
88,320,799236,6,0,B|200:384,1,129.999997675419
311,384,799736,2,0,B|424:320,1,129.999997675419
475,229,800236,1,0
437,131,800486,1,0
334,121,800736,2,0,B|354:55|308:3|254:-3|182:5|140:90|200:154|254:187|254:187|312:220|421:280|335:420|211:416|164:335|177:272,1,779.999986052513,4|0
72,290,802486,5,0
13,204,802736,1,0
143,53,803236,2,0,B|173:10|251:-30|340:1|376:60,1,259.999995350838
370,149,803986,2,0,B|340:192|262:232|173:201|137:142,1,259.999995350838
192,360,804986,6,0,B|336:360,1,129.999997675419
324,268,805486,2,0,B|180:268,1,129.999997675419
128,177,805986,2,0,B|408:177,1,259.999995350838
206,47,806986,6,0,B|216:16|254:0|298:13|307:47,1,129.999997675419
304,152,807486,1,0
256,168,807611,1,0
208,152,807736,1,0
128,216,807986,1,0
160,256,808111,1,0
208,280,808236,1,0
256,288,808361,1,0
304,280,808486,1,0
352,256,808611,1,0
384,216,808736,1,4
464,128,808986,6,0,B|496:256,1,129.999997675419
320,352,809486,2,0,B|192:384,1,129.999997675419
16,254,809986,2,0,B|48:128,1,129.999997675419
197,23,810486,6,0,B|168:76|217:160|334:136|346:48|305:-4,1,259.999995350838
416,64,811236,1,0
370,149,811486,2,0,B|340:192|262:232|173:201|137:142,1,259.999995350838
96,64,812236,1,0
48,160,812486,2,0,B|96:272|224:320|288:320|416:272|464:160,1,519.999990701676
512,256,813736,1,0
512,256,813986,5,0
256,368,814486,1,0
0,256,814986,1,0
0,256,815236,1,0
72,176,815486,5,0
104,216,815611,1,0
110,268,815736,1,0
208,312,815986,1,0
256,296,816111,1,0
304,312,816236,1,0
402,268,816486,1,0
408,216,816611,1,0
440,176,816736,1,4
360,120,816986,6,0,B|391:110|407:72|394:28|360:19,1,129.999997675419
256,0,817486,2,0,B|256:128,1,129.999997675419
152,120,817986,2,0,B|121:110|105:72|118:28|152:19,2,129.999997675419
215,203,818736,1,0
300,206,818986,2,0,B|341:261|305:341|181:326|184:237|218:200,1,259.999995350838
352,352,819986,1,0
256,384,820236,1,0
160,352,820486,1,0
92,159,820986,5,0
149,69,821236,1,0
256,36,821486,1,0
362,69,821736,1,0
419,159,821986,1,0
349,362,822486,5,0
307,353,822611,1,0
273,328,822736,1,0
238,302,822861,1,0
213,260,822986,1,0
196,226,823111,1,0
187,183,823236,1,0
187,140,823361,1,0
213,106,823486,1,0
256,89,823611,1,0
298,106,823736,1,0
324,140,823861,1,0
324,183,823986,1,0
315,226,824111,1,0
298,260,824236,1,0
273,302,824361,1,0
238,328,824486,1,0
204,353,824611,1,0
162,362,824736,1,4
40,240,824986,6,0,B|71:230|87:192|74:148|40:139,1,129.999997675419
205,34,825486,2,0,B|215:65|253:81|297:68|306:34,1,129.999997675419
472,144,825986,2,0,B|441:154|425:192|438:236|472:245,1,129.999997675419
307,350,826486,2,0,B|297:319|259:303|215:316|206:350,1,129.999997675419
128,56,827236,5,0
384,56,827736,1,0
148,348,828236,1,0
256,296,828486,1,0
364,348,828736,1,0
24,104,829236,2,0,B|93:112|135:188|104:277|12:281,1,259.999995350838
148,36,830236,5,0
256,88,830486,1,0
364,36,830736,1,0
488,280,831236,2,0,B|419:272|377:196|408:107|500:103,1,259.999995350838
306,327,832236,2,0,B|296:358|258:374|214:361|205:327,1,129.999997675419
256,192,832736,5,4
64,48,833236,1,0
184,280,833736,5,0
152,152,833986,1,0
256,80,834236,1,0
360,152,834486,1,0
328,280,834736,1,4
448,48,835236,5,0
256,192,835736,1,0
64,336,836236,5,0
152,240,836486,2,0,B|121:230|105:192|118:148|152:139,1,129.999997675419
360,240,837236,2,0,B|391:230|407:192|394:148|360:139,1,129.999997675419
440,336,838236,1,0
358,236,838486,2,0,B|305:220|265:252|257:292|257:292|249:252|205:218|151:239,1,259.999995350838
72,336,839236,1,0
24,216,839486,5,0
72,96,839736,1,0
200,32,839986,1,0
184,80,840111,1,0
208,128,840236,1,0
256,144,840361,1,0
304,128,840486,1,0
328,80,840611,1,0
312,32,840736,1,4
440,96,840986,1,0
488,216,841236,1,0
390,300,841486,5,0
341,342,841611,1,0
328,280,841736,1,0
184,280,841986,1,0
171,342,842111,1,0
122,300,842236,1,0
87,178,842486,5,0
195,106,842736,2,0,B|207:67|256:59|256:59|288:43|272:11|240:11|224:43|256:59|256:59|302:67|321:111,1,259.999995350838
424,176,843486,1,0
424,176,843611,1,0
424,176,843736,1,0
376,296,843986,1,0
256,352,844236,1,0
136,296,844486,1,0
136,296,844611,1,0
136,296,844736,1,4
88,176,844986,1,0
204,101,845236,2,0,B|214:70|252:54|296:67|305:101,1,129.999997675419
384,352,845986,5,0
360,304,846111,1,0
304,288,846236,1,0
256,320,846361,1,0
208,288,846486,1,0
152,304,846611,1,0
128,352,846736,1,4
208,192,846986,5,0
256,208,847111,1,0
304,192,847236,1,0
400,128,847486,1,0
416,80,847611,1,0
384,32,847736,1,0
328,24,847861,1,0
288,56,847986,1,0
256,88,848111,1,0
224,56,848236,1,0
184,24,848361,1,0
128,32,848486,1,0
96,80,848611,1,0
112,128,848736,1,0
152,248,848986,5,0
152,248,849111,1,0
152,248,849236,1,0
144,376,849486,1,0
144,376,849611,1,0
144,376,849736,1,0
256,320,849986,1,0
256,320,850111,1,0
256,320,850236,1,0
368,376,850486,1,0
368,376,850611,1,0
368,376,850736,1,0
360,248,850986,1,0
360,248,851111,1,0
360,248,851236,1,0
256,192,851486,5,0
256,192,851611,1,0
256,192,851736,1,4
256,320,851986,1,4
95,186,852486,6,0,B|159:153|207:57|191:25|127:-7|95:25|63:89|223:153|255:81|255:81|287:25|255:-7|223:25|255:81|255:81|285:136|415:121|383:89|479:-39|301:-25|223:89|431:196|431:196,1,909.999983727932,4|2
312,280,854486,2,0,B|298:259|259:239|214:254|196:284,1,129.999997675419,0|2
256,381,854986,1,0
370,173,855486,2,0,B|340:130|262:90|173:121|137:180,1,259.999995350838,2|0
208,28,856236,1,2
304,28,856486,1,0
256,192,856611,12,0,858236
256,192,859486,12,4,860736
191,69,860986,6,0,B|204:43|254:19|302:36|324:74,1,149.999995529652,0|0
448,172,861486,2,0,B|384:212|384:212|368:304,1,149.999995529652
256,376,861986,1,0
140,285,862236,2,0,B|128:212|128:212|64:172,1,149.999995529652
169,47,862736,2,0,B|216:69|216:133|216:133|256:153|256:153|296:133|296:133|292:69|347:45,1,299.999991059304
301,358,863736,1,0
211,358,863986,2,0,B|157:296|201:201|345:218|341:321|296:365,1,299.999991059304
73,188,864986,5,0
138,89,865236,1,0
256,48,865486,1,0
373,89,865736,1,0
438,188,865986,1,0
178,345,866486,2,0,B|212:367|256:331|256:331|284:311|284:279|256:259|228:279|228:311|256:331|256:331|296:367|336:343,1,299.999991059304
321,225,867236,2,0,B|308:199|258:175|210:192|188:230,1,149.999995529652
96,148,867736,5,0
128,108,867861,1,0
164,80,867986,1,0
212,64,868111,1,0
256,56,868236,1,0
300,64,868361,1,0
348,80,868486,1,0
384,108,868611,1,0
416,148,868736,1,4
256,224,868986,5,0
208,364,869236,1,0
328,276,869486,1,0
184,276,869736,1,0
304,364,869986,1,0
256,224,870236,5,0
128,112,870486,2,0,B|160:61|249:17|350:49|391:118,1,299.999991059304
256,200,871236,1,0
126,291,871486,2,0,B|158:341|247:386|348:354|389:284,1,299.999991059304
256,200,872236,1,0
113,156,872486,6,0,B|35:111|52:28|108:-8|156:-7|216:29|209:95|209:95|224:62|256:174|288:62|304:94|304:94|292:32|356:-16|412:-6|465:38|473:120|387:160,1,749.999977648259,0|0
372,298,873986,2,0,B|311:279|266:316|256:361|256:361|247:316|197:277|136:301,1,299.999991059304
256,20,874986,5,0
128,116,875236,1,0
184,260,875486,1,0
328,260,875736,1,0
384,116,875986,1,0
256,156,876236,5,0
256,156,876361,1,0
256,156,876486,1,0
256,156,876611,1,0
256,156,876736,1,4
256,308,876986,5,0
400,356,877236,1,0
488,236,877486,1,0
400,116,877736,1,0
256,156,877986,1,0
256,308,878236,1,0
112,364,878486,1,0
24,236,878736,1,0
112,116,878986,1,0
408,64,879486,6,0,B|459:96|503:185|471:286|402:327,1,299.999991059304
256,192,880236,1,0
104,64,880486,2,0,B|53:96|9:185|41:286|110:327,1,299.999991059304
322,237,881236,2,0,B|309:263|259:287|211:270|189:232,1,149.999995529652
320,147,881736,2,0,B|307:121|257:97|209:114|187:152,1,149.999995529652
388,304,882486,6,0,B|356:355|267:399|166:367|125:298,1,299.999991059304
256,192,883236,1,0
184,60,883486,1,0
256,32,883611,1,0
328,60,883736,1,0
396,196,883986,1,0
341,251,884111,1,0
326,324,884236,1,0
256,360,884361,1,0
185,324,884486,1,0
170,251,884611,1,0
115,196,884736,1,4
256,192,884861,12,0,886236
128,128,933524,5,2
214,104,933953,1,0
152,42,934381,1,2
65,65,934810,1,0
42,152,935238,1,2
104,214,935667,1,0
190,190,936095,1,2
212,228,936310,1,0
256,244,936524,1,0
300,228,936738,1,0
323,189,936952,5,2
408,170,937381,1,0
470,232,937809,1,2
447,319,938238,1,0
360,342,938666,1,2
298,280,939095,1,0
323,189,939523,1,2
384,256,939952,1,0
160,112,940380,5,2
212,38,940809,1,0
300,38,941237,1,2
352,112,941666,1,0
292,181,942094,2,0,B|272:153|230:153|219:184|219:184,1,84.9999964535238,2|0
256,260,942951,1,2
212,288,943165,1,0
228,340,943380,1,0
280,340,943594,1,0
300,292,943808,1,2
396,256,944236,6,0,B|468:192,1,84.9999964535238,0|2
416,32,945093,2,0,B|376:108,1,84.9999964535238,0|2
256,48,945950,1,0
135,107,946379,2,0,B|96:32,1,84.9999964535238,2|0
52,199,947236,2,0,B|116:256,1,84.9999964535238,2|0
292,328,948093,6,0,B|272:356|230:356|219:325|219:325,1,84.9999964535238,2|0
324,208,948950,2,0,B|352:124,1,84.9999964535238,2|0
188,208,949807,2,0,B|160:124,1,84.9999964535238,2|0
256,64,950449,1,0
256,64,950664,5,2
400,160,951092,1,0
340,324,951521,1,2
172,324,951949,1,0
112,160,952378,1,2
256,64,952806,1,0
256,200,953235,5,2
188,328,953663,1,0
256,356,953877,1,0
324,328,954092,1,2
428,228,954520,1,0
392,92,954948,1,2
256,40,955377,1,0
120,92,955805,1,2
84,228,956234,1,0
220,208,956662,6,0,B|240:236|282:236|293:205|293:205,1,84.9999964535238,2|0
292,352,957519,2,0,B|272:324|230:324|219:355|219:355,1,84.9999964535238,2|0
124,244,958376,1,2
256,140,958805,1,0
392,244,959233,1,2
412,80,959662,1,0
256,264,960090,1,2
100,80,960519,1,0
100,80,960733,1,0
100,80,960947,5,2
256,348,961376,1,0
412,80,961804,1,2
100,304,962233,5,0
256,36,962661,1,2
412,304,963090,1,0
191,224,963518,1,2
256,276,963732,1,0
320,224,963947,1,0
294,150,964161,1,0
217,150,964375,1,2
256,360,964804,5,0
88,256,965232,1,2
160,64,965660,1,0
352,64,966089,1,2
424,256,966517,1,0
256,192,966946,1,2
256,192,967160,1,0
256,192,967374,1,0
256,192,967589,1,0
256,192,967803,5,2
220,352,968231,2,0,B|240:380|282:380|293:349|293:349,1,84.9999964535238,0|2
364,197,969088,1,0
396,120,969303,1,0
148,197,969731,1,0
116,120,969945,1,0
256,32,970374,5,2
256,200,970802,1,0
256,368,971231,1,2
196,300,971445,2,0,B|224:300|224:300|256:284|256:284|288:300|288:300|320:300,1,127.499994680286,0|2
439,128,972516,2,0,B|452:96|439:66|439:66,1,50
352,57,972945,6,0,B|398:112|337:186|274:153|255:116|255:116|237:84|198:18|65:115|168:182|168:182,1,400,2|2
120,348,975087,5,0
178,278,975301,2,0,B|193:324|256:356|318:324|334:278,1,200
392,348,976372,1,2
355,173,976801,2,0,B|335:114|257:75|179:114|160:173,1,250
95,106,978086,5,2
256,24,978515,1,0
256,24,978729,1,0
256,328,979372,1,2
336,168,979800,2,0,B|312:128|256:112|256:112|200:128|176:168,1,200,0|0
417,106,981300,5,0
417,106,981514,1,2
256,24,981943,1,0
295,191,982371,2,0,B|282:170|254:162|254:162|226:170|214:191,1,100,2|0
216,280,983014,2,0,B|232:280|232:280|248:272|248:272|256:280|256:280|256:264|256:264|264:272|264:272|280:280|280:280|296:280,1,100
344,351,983657,2,0,B|320:383|280:383|256:359|256:359|232:383|192:383|168:351,1,200,2|0
80,328,984728,5,0
144,264,984942,1,2
56,240,985156,1,0
256,56,985799,1,0
368,264,986227,1,0
456,240,986442,1,0
432,328,986656,1,2
56,264,987513,6,0,B|102:249|134:186|102:124|56:108,1,200,0|2
256,92,988798,1,0
256,92,989013,2,0,B|256:292,1,200
256,292,990084,1,2
456,264,990512,2,0,B|410:249|378:186|410:124|456:108,1,200
256,36,991798,1,2
196,108,992012,2,0,B|224:108|224:108|256:124|256:124|288:108|288:108|320:108,1,127.499994680286
346,348,993083,5,2
256,312,993297,1,0
168,349,993512,2,0,B|111:265|160:184|191:152|261:139|319:160|356:186|407:266|341:356,1,500
217,61,996939,6,0,B|224:83|256:100|287:83|295:61,1,100,2|0
168,192,997796,1,2
335,302,998225,2,0,B|320:348|257:380|195:348|179:302,1,200,0|2
344,192,999510,1,0
188,56,999939,5,2
256,100,1000153,1,0
324,56,1000367,1,0
424,200,1000796,2,0,B|464:228|464:228|480:284,1,100,0|2
348,360,1001653,1,0
220,204,1002081,2,0,B|197:237|216:270|229:282|257:288|280:279|295:269|315:237|289:201,1,200,2|0
164,360,1003367,5,2
88,200,1003795,2,0,B|48:228|48:228|32:284,1,100
144,60,1004652,1,2
194,232,1005081,2,0,B|208:276|208:276|256:300|256:300|304:276|304:276|320:228,1,200
369,59,1006366,1,2
448,224,1006795,6,0,B|419:326,1,100,0|2
256,240,1007651,2,0,B|256:136,1,100,0|2
64,224,1008508,2,0,B|93:326,1,100,0|2
256,48,1009794,5,2
400,152,1010222,1,0
348,328,1010651,1,2
164,328,1011079,1,0
112,152,1011508,1,2
256,48,1011936,1,0
256,196,1012793,5,2
256,348,1013864,5,0
256,348,1014079,1,2
256,52,1014507,1,0
45,192,1015364,2,0,B|61:143|110:127|175:143|142:192|158:256|239:240|256:192|256:192|272:240|353:256|369:192|336:143|401:127|450:143|466:192,1,549.999983608723,2|0
179,48,1022649,6,0,B|194:94|257:126|319:94|335:48,1,200,8|0
340,239,1023506,2,0,B|301:254|270:239|255:208|255:208|240:239|209:254|171:239,1,200,8|0
172,349,1024148,2,0,B|210:333|241:349|256:379|256:379|271:349|302:333|340:349,1,200,0|0
432,296,1024791,1,0
456,64,1025220,1,8
256,152,1025648,5,0
64,64,1026077,1,8
112,152,1026291,1,0
174,64,1026506,2,0,B|201:28|256:10|256:10|310:28|337:64,1,200,0|8
424,256,1027363,5,0
360,336,1027577,1,0
256,368,1027791,1,8
152,336,1028006,1,0
88,256,1028220,1,0
256,40,1028648,1,8
424,256,1029077,1,0
408,56,1029506,5,8
345,355,1029934,1,0
282,199,1030148,2,0,B|309:172|361:186|361:251|309:263|309:263|270:277|256:315|256:315|243:277|204:263|204:263|152:251|152:186|204:172|230:199,1,439.999986886979
167,355,1031220,1,8
73,146,1031648,2,0,B|75:82|134:16|220:36|257:81|257:81|289:32|366:25|442:61|436:157,1,500
400,256,1032934,1,8
221,364,1033363,2,0,B|198:331|217:298|230:286|258:280|281:289|296:299|316:331|290:367,1,200,0|8
112,256,1034220,5,0
96,144,1034434,1,0
200,184,1034648,1,8
312,184,1034863,1,0
416,144,1035077,1,0
400,256,1035291,1,0
333,336,1035506,6,0,B|318:290|255:258|193:290|177:336,1,200,8|0
96,256,1036148,1,0
64,152,1036363,2,8,B|160:120|160:120|192:24,1,200,8|0
320,26,1037220,2,0,B|352:120|352:120|448:152,1,200,8|0
336,240,1037863,2,0,B|288:240|288:240|256:200|256:200|224:240|224:240|176:240,1,200
256,320,1038506,1,0
64,192,1038934,5,8
256,48,1039363,1,0
304,184,1039577,1,0
180,96,1039791,1,8
332,96,1040006,1,0
208,184,1040220,1,0
448,192,1040648,1,8
216,336,1041077,2,0,B|222:356|256:370|290:356|297:336,1,100
333,189,1041506,2,0,B|370:117|336:59|311:34|253:28|214:34|176:54|137:117|184:193,2,400,8|8|8
348,360,1043648,5,0
256,320,1043863,1,0
164,360,1044077,2,0,B|118:376|53:357|33:292|50:246,1,200,8|0
21,137,1044720,1,0
131,108,1044934,1,8
160,217,1045148,1,0
160,216,1045363,2,0,B|256:172|256:260|352:216,1,200,0|8
460,28,1046220,1,0
460,28,1046648,6,0,B|480:76|460:124,1,100,8|0
348,84,1047077,2,0,B|280:176|348:268,1,200,0|8
356,368,1047720,1,0
256,336,1047934,1,0
156,368,1048148,1,0
163,268,1048363,2,0,B|231:175|163:83,1,200,8|0
4,192,1049220,5,8
256,352,1049648,1,0
256,352,1049863,1,0
256,352,1050077,6,0,B|352:328,1,100,4|0
476,252,1050506,2,0,B|380:228,1,100,2|0
256,148,1050934,2,0,B|352:124,1,100,2|0
476,48,1051363,2,0,B|380:24,1,100,2|0
256,48,1051791,6,0,B|160:92|160:4|64:48,1,200,0|0
100,144,1052434,1,0
100,144,1052648,2,0,B|120:192|100:240,1,100
36,320,1053077,2,0,B|129:388|221:320,1,200,0|4
256,224,1053720,1,0
291,320,1053934,2,0,B|383:388|476:320,1,200
512,116,1054791,6,0,B|416:144,1,100
328,100,1055220,2,0,B|260:192|328:284,1,200,8|0
312,384,1055863,1,0
228,332,1056077,2,0,B|200:284|192:240,1,100,8|0
191,144,1056506,2,0,B|200:100|228:52,1,100
256,192,1056934,6,0,B|160:236|160:148|64:192,1,200,8|0
256,192,1057791,2,0,B|352:148|352:236|448:192,1,200,8|0
492,104,1058434,5,0
396,112,1058649,2,0,B|354:80|348:28,1,100,8|0
256,92,1059077,2,0,B|256:192,1,100,0|0
115,112,1059506,2,0,B|157:80|164:27,1,100,8|0
20,104,1059934,6,0,B|-48:196|20:288,1,200,0|8
72,372,1060577,1,0
160,324,1060791,2,0,B|256:276|352:324,1,200,0|8
488,192,1061649,6,0,B|508:96,1,100
372,152,1062077,2,0,B|352:56,1,100,8|0
256,164,1062506,2,0,B|210:148|145:167|125:232|142:278,1,200,0|8
370,277,1063363,2,0,B|387:232|367:167|302:148|256:164,1,200,0|8
136,128,1064006,5,0
208,76,1064220,2,0,B|256:96|304:76,1,100
376,128,1064649,2,0,B|476:144,1,100,8|0
512,272,1065077,6,0,B|413:256,1,100
348,332,1065506,2,0,B|256:400|164:332,1,200,8|0
164,52,1066363,2,0,B|256:-16|348:52,1,200,8|0
356,152,1067006,1,0
256,192,1067220,1,4
156,152,1067434,1,0
160,280,1067649,6,0,B|256:324|256:236|352:280,2,200,0|8|0
68,320,1068720,1,0
156,368,1068934,6,0,B|204:388|252:368,1,100,8|0
356,192,1069363,2,0,B|308:172|260:192,1,100
258,192,1069791,1,4
100,276,1070220,1,0
28,44,1070649,5,4
120,88,1070863,1,0
220,84,1071077,2,0,B|320:76,1,100
412,32,1071506,2,0,B|442:133|378:220,1,200
424,308,1072149,1,0
328,340,1072363,1,0
244,288,1072577,2,0,B|200:316|184:368,1,100
88,340,1073006,1,0
120,244,1073220,2,0,B|29:183|23:77,1,200
112,28,1073863,1,0
200,80,1074077,6,0,B|202:131|167:170,1,100
116,260,1074506,2,0,B|216:280,1,100
297,279,1074934,2,0,B|396:260,1,100
345,171,1075363,2,0,B|309:131|312:80,1,100
404,29,1075791,5,0
481,103,1076006,1,0
486,209,1076220,1,0
445,308,1076434,1,0
348,353,1076649,2,0,B|256:285|164:353,1,200,0|0
70,309,1077291,1,0
52,220,1077506,6,0,B|12:191|1:121|51:72|100:71,1,200,8|2
186,99,1078149,2,0,B|225:127|236:197|186:246|137:247,1,200,0|0
204,324,1078791,1,2
304,324,1079006,1,0
374,247,1079220,2,0,B|325:246|275:197|286:127|326:99,1,200,8|2
411,71,1079863,2,0,B|460:72|510:121|499:191|460:220,1,200,0|0
452,320,1080506,1,2
360,356,1080720,1,0
300,276,1080934,1,8
368,204,1081149,1,0
375,94,1081363,6,0,B|345:34|301:49|256:20|183:94|183:167|256:212|330:167|330:94|256:20|212:49|168:34|138:94,1,439.999986886979,0|2
144,204,1082434,1,0
212,276,1082649,1,8
152,356,1082863,1,0
60,320,1083077,1,2
256,368,1083506,5,8
344,184,1083934,1,0
256,136,1084149,1,0
168,184,1084363,1,8
334,320,1084791,6,0,B|319:274|256:242|194:274|178:320,1,200,0|8
88,192,1085434,1,0
178,64,1085649,2,0,B|193:110|256:142|318:110|334:64,1,200,0|8
424,192,1086291,1,0
256,328,1086506,5,0
96,80,1086934,1,8
416,80,1087363,1,0
256,194,1087577,1,0
126,330,1087791,2,0,B|66:314|68:260|85:226|136:209|170:243|170:243|136:174|170:123|187:89|254:60|324:89|341:123|375:174|341:243|341:243|385:204|452:231|448:316|387:332,1,800,8|8
432,144,1089720,1,8
256,192,1089934,1,8
80,144,1090149,1,0
256,304,1090363,5,8
200,120,1090577,1,8
344,232,1090791,1,0
168,232,1091006,1,8
312,120,1091220,1,4
114,294,1091649,6,0,B|68:279|36:216|68:154|114:138,1,200,2|8
160,48,1092291,1,0
256,80,1092506,1,2
352,48,1092720,1,0
398,138,1092934,2,0,B|444:154|476:216|444:279|398:294,1,200,8|0
345,359,1093577,2,0,B|276:403|203:333|201:270|252:276|303:269|300:333|221:403|159:358,1,329.999990165234,2|8
96,288,1094434,1,0
176,224,1094649,2,0,B|194:180|256:154|319:178|340:230,1,200,2|0
416,288,1095291,1,0
337,343,1095506,6,0,B|319:387|257:413|194:389|173:337,1,200,8|2
256,292,1096149,1,0
205,208,1096363,1,8
306,208,1096577,1,0
376,130,1096791,2,0,B|380:64|353:-4|258:-45|163:0|124:60|137:130,1,400,2|2
64,200,1097863,5,0
64,200,1098077,1,8
216,360,1098506,2,0,B|200:332|211:298|231:286|256:274|280:285|300:295|321:325|297:370,1,200,0|8
448,200,1099363,1,0
297,32,1099791,2,0,B|313:60|302:94|282:106|257:118|233:107|213:97|192:67|216:22,2,200,2|0|8
156,200,1101077,5,2
179,297,1101291,1,0
272,322,1101506,1,10
341,249,1101720,1,0
317,152,1101934,1,0
220,128,1102149,1,0
146,223,1102363,1,8
193,321,1102577,1,0
298,327,1102791,1,0
355,233,1103006,1,0
308,134,1103220,5,8
203,128,1103434,1,8
149,253,1103649,1,8
227,345,1103863,1,0
342,321,1104077,1,8
376,205,1104291,1,0
297,113,1104506,1,8
183,137,1104720,1,0
147,263,1104934,5,12
327,301,1105363,1,0
365,121,1105791,1,8
185,83,1106220,6,0,B|144:55|77:57|40:114|45:163,1,200,0|8
76,260,1106863,1,0
160,192,1107077,2,0,B|256:236|256:148|352:192,1,200,0|8
436,124,1107720,5,0
466,221,1107934,2,0,B|471:269|434:326|367:328|327:301,1,200,0|8
256,232,1108577,1,0
172,176,1108791,6,0,B|152:128|172:80,1,100
340,208,1109220,2,0,B|360:256|340:304,1,100,8|0
163,360,1109649,6,0,B|118:376|53:357|33:292|49:246,1,200,0|8
16,152,1110291,1,0
108,116,1110506,2,0,B|84:20,1,100
224,76,1110934,2,0,B|248:173,1,100,8|0
336,128,1111363,6,0,B|440:173|428:287,1,200,0|8
84,287,1112220,2,0,B|71:173|176:128,1,200,0|8
352,348,1113077,6,0,B|256:304|256:392|160:348,1,200,0|8
112,276,1113720,1,0
208,260,1113934,2,0,B|188:212|208:164,1,100
304,164,1114363,2,0,B|324:212|304:260,1,100,8|0
128,192,1114791,2,0,B|132:124|160:60|256:28|352:60|380:124|384:192,1,400,0|0
332,328,1116077,1,8
180,56,1116506,1,0
372,12,1116934,6,0,B|440:104|372:196,1,200,8|0
140,372,1117791,2,0,B|72:280|140:188,1,200,8|0
184,96,1118434,1,0
300,108,1118649,6,0,B|300:192|212:192|212:280,2,200,4|0|8
256,20,1119720,1,0
212,108,1119934,2,0,B|212:192|300:192|300:280,1,200,0|8
256,364,1120577,1,0
163,360,1120791,6,0,B|118:376|53:357|33:292|49:246,1,200,0|8
348,360,1121649,2,0,B|394:376|459:357|479:292|462:246,1,200,0|4
452,148,1122291,5,0
356,124,1122506,2,0,B|311:153|308:207,1,100
352,280,1122934,2,0,B|304:304|256:280|256:280|208:304|160:280,1,200,8|0
204,207,1123577,2,0,B|200:153|156:124,1,100,0|8
60,148,1124006,1,8
60,148,1124220,6,0,B|72:48,1,100
160,100,1124649,2,0,B|208:124|256:100|256:100|304:76|352:100,1,200,8|0
440,48,1125291,1,0
440,48,1125506,6,0,B|452:148,1,100,8|0
376,268,1125934,2,0,B|364:168,1,100,8|0
456,304,1126363,6,0,B|436:348|376:380|316:348|296:304,1,200,8|0
256,192,1127006,1,0
147,168,1127220,2,0,B|136:268,1,100,8|8
55,303,1127649,2,0,B|76:348|136:380|196:348|216:303,2,200,8|4|0
64,220,1128720,1,0
111,151,1128934,6,0,B|88:80,1,74.9999977648259
208,32,1129363,2,0,B|224:68|208:104,1,74.9999977648259
304,156,1129791,2,0,B|288:120|304:84,1,74.9999977648259
424,80,1130220,2,0,B|400:151,1,74.9999977648259
482,201,1130649,5,0
458,275,1130863,1,0
397,322,1131077,1,0
320,325,1131291,1,0
256,284,1131506,1,0
192,325,1131720,1,0
115,322,1131934,1,0
54,275,1132149,1,0
30,201,1132363,1,0
256,192,1132470,12,2,1135791
80,56,1136220,5,0
212,252,1136649,2,0,B|196:224|207:190|227:178|252:166|276:177|296:187|317:217|293:262,1,200,2|0
432,56,1137505,1,2
369,247,1137949,2,0,B|379:196|354:120|287:88|223:88|161:122|127:184|140:247,1,400,0|2
68,288,1139060,1,0
48,200,1139282,5,2
256,224,1139743,1,0
464,200,1140205,1,2
346,34,1140776,2,0,B|307:69|273:52|256:35|256:35|238:52|204:69|164:31,1,200,0|2
256,320,1153040,5,8
256,252,1153343,1,8
256,240,1153494,1,8
256,228,1153646,1,8
256,216,1153797,1,0
256,204,1153949,1,4
380,136,1154252,6,0,B|412:196,1,66.6666666666667,0|8
456,124,1154555,2,0,B|423:62,1,66.6666666666667,0|0
324,64,1154858,2,2,B|256:92|188:64,1,133.333333333333,2|0
88,62,1155312,2,0,B|56:124,1,66.6666666666667,8|0
99,197,1155616,2,0,B|132:136,1,66.6666666666667,0|0
256,228,1156070,6,0,B|256:296,2,66.6666666666667,0|8|0
256,140,1156525,1,0
196,80,1156676,2,2,B|256:53|256:53|316:80,1,133.333333333333,2|0
388,140,1157131,2,0,B|456:156,2,66.6666666666667,8|0|0
316,201,1157585,6,0,B|255:227|255:227|195:201,1,133.333333333333,4|0
124,140,1158040,2,0,B|56:156,1,66.6666666666667,8|0
44,336,1158494,2,2,B|184:304,1,133.333333333333,2|0
256,256,1158949,2,0,B|256:324,1,66.6666666666667,8|0
468,336,1159403,6,0,B|328:304,1,133.333333333333,4|0
324,212,1159858,2,0,B|360:152,1,66.6666666666667,8|0
256,140,1160161,1,0
188,212,1160312,2,0,B|152:152,1,66.6666666666667,2|0
204,52,1160616,5,8
228,40,1160767,1,8
256,36,1160919,1,8
288,40,1161070,1,0
316,52,1161222,1,4
468,156,1161525,6,0,B|468:224,1,66.6666666666667,0|8
468,316,1161828,1,0
380,344,1161979,1,0
288,352,1162131,2,0,B|288:284|288:284|336:228,1,133.333333333333,2|0
248,192,1162585,6,0,B|200:248,1,66.6666666666667,8|0
140,312,1162888,1,0
80,244,1163040,2,0,B|176:140,1,133.333333333333,0|0
256,100,1163494,2,0,B|256:30,2,66.6666666666667,8|0|0
337,141,1163949,2,0,B|432:244,1,133.333333333333,2|0
339,268,1164403,2,0,B|305:222|256:203|206:222|172:268,1,200,8|4
172,93,1165161,5,0
171,92,1165312,2,0,B|205:137|256:156|305:137|339:92,1,200,8|2
358,254,1166070,2,0,B|332:320,1,66.6666666666667,0|8
256,360,1166373,1,0
179,319,1166525,2,0,B|154:254,1,66.6666666666667,0|4
316,112,1166979,6,0,B|304:44,2,66.6666666666667,8|8|8
256,180,1167434,1,0
196,112,1167585,2,8,B|208:44,2,66.6666666666667,8|8|0
152,224,1168040,6,0,B|216:252,1,66.6666666666667,8|8
360,224,1168343,2,0,B|296:252,1,66.6666666666667,0|4
256,32,1168949,5,8
420,112,1169252,1,0
494,80,1169403,2,2,B|462:12|375:0|319:68|343:144|343:144|356:188|356:188|379:259|323:287,1,400,2|0
144,268,1170616,2,0,B|136:232|144:200,1,66.6666666666667,0|8
172,120,1170919,1,0
224,56,1171070,2,0,B|256:32|288:56,1,66.6666666666667,0|2
340,120,1171373,1,0
367,199,1171525,2,0,B|376:232|368:268,1,66.6666666666667,0|8
187,287,1172131,6,0,B|132:260|154:188|154:188|168:144|168:144|192:68|136:0|48:12|16:80,1,400,4|2
24,164,1173191,1,0
92,112,1173343,1,0
164,68,1173494,2,0,B|196:48|232:60|259:88|259:88|283:112,1,133.333333333333,8|0
328,184,1173949,1,2
256,224,1174100,1,0
184,184,1174252,1,0
227,112,1174403,2,0,B|252:88|252:88|280:60|316:48|348:68,1,133.333333333333,8|0
452,192,1174858,5,4
256,356,1175161,1,2
60,192,1175464,1,2
256,28,1175767,1,4
256,196,1176070,6,0,B|292:136,1,66.6666666666667,0|8
256,196,1176373,2,0,B|220:136,1,66.6666666666667
174,68,1176676,2,0,B|99:68|51:153|99:239|174:239,1,266.666666666667,4|2
338,67,1177585,2,0,B|412:67|461:152|412:239|338:239,1,266.666666666667,4|2
192,152,1178494,2,0,B|228:184|256:152|284:120|320:152,2,133.333333333333,4|2|2
80,281,1179403,6,0,B|136:352|256:396|376:352|441:272,1,400,4|2
448,188,1180464,1,0
368,164,1180616,1,0
356,248,1180767,2,0,B|332:272|292:276,1,66.6666666666667,8|0
156,248,1181070,6,0,B|180:272|218:275,1,66.6666666666667,8|4
212,192,1181373,2,0,B|188:168|150:165,1,66.6666666666667,0|0
68,148,1181676,1,8
84,64,1181828,1,8
168,80,1181979,1,8
256,106,1182131,6,0,B|256:36,1,66.6666666666667
344,80,1182434,1,0
428,64,1182585,1,8
444,148,1182737,1,8
362,164,1182888,2,0,B|324:168|300:192,1,66.6666666666667,0|4
68,292,1183494,5,8
40,212,1183646,2,0,B|84:192|140:220|148:268,2,133.333333333333,0|2|0
32,128,1184403,1,8
116,136,1184555,2,0,B|188:152|216:228,1,133.333333333333,0|4
395,136,1185161,6,0,B|324:152|296:225,1,133.333333333333,0|0
408,352,1185767,2,0,B|479:336|507:262,1,133.333333333333,2|0
396,136,1186373,1,0
104,352,1186676,6,0,B|32:336|4:262,1,133.333333333333,4|0
80,220,1187131,1,8
164,204,1187282,2,0,B|148:136,1,66.6666666666667
192,69,1187585,2,0,B|256:87|256:87|319:69,1,133.333333333333,2|0
364,135,1188040,2,0,B|348:204,1,66.6666666666667,8|0
256,344,1188494,5,4
140,120,1188797,1,2
332,284,1189100,1,2
256,44,1189403,1,4
180,284,1189706,1,2
372,120,1190009,1,2
256,344,1190312,1,4
488,244,1190767,6,0,B|436:40,1,200,8|2
300,140,1191525,2,0,B|364:164,1,66.6666666666667,0|8
212,140,1191979,2,0,B|148:164,1,66.6666666666667,8|2
75,40,1192585,2,0,B|24:244,1,200,8|2
204,268,1193343,5,0
228,280,1193494,1,8
256,284,1193646,1,8
288,280,1193797,1,0
316,268,1193949,1,4
80,203,1194403,6,0,B|141:127|256:85|370:127|431:203,1,400,8|10
212,312,1195767,2,0,B|180:252,1,66.6666666666667
300,312,1196222,2,0,B|332:248,1,66.6666666666667,8|0
212,144,1196676,5,8
208,108,1196828,1,0
224,76,1196979,1,0
256,64,1197131,1,8
288,76,1197282,1,0
304,108,1197434,1,0
300,144,1197585,1,12
392,264,1197888,5,2
392,264,1198040,1,2
256,344,1198343,1,2
256,344,1198494,1,0
120,264,1198797,1,2
176,104,1199100,1,2
332,104,1199403,1,0
256,216,1199706,5,0
256,200,1199858,1,8
256,184,1200009,1,0
256,168,1200161,1,0
256,152,1200312,1,2
304,284,1200616,1,0
284,304,1200767,1,8
256,312,1200919,1,0
228,304,1201070,1,0
208,284,1201222,1,2
84,192,1201525,6,0,B|52:280|52:280,1,66.6666666666667,0|8
32,108,1201979,2,0,B|64:32|64:32,1,66.6666666666667,0|2
201,101,1202434,2,0,B|219:71|252:59|293:64|315:108,1,133.333333333333
313,250,1203040,2,0,B|296:278|260:291|216:285|192:238,1,133.333333333333,2|0
155,317,1203494,6,0,B|182:349|233:356,1,66.6666666666667,8|0
298,353,1203797,2,0,B|332:345|357:317,1,66.6666666666667,0|2
256,188,1204252,1,0
256,168,1204403,1,8
256,148,1204555,1,0
256,128,1204706,1,0
256,104,1204858,1,4
428,192,1205161,6,0,B|460:280|460:280,1,66.6666666666667,0|8
480,108,1205616,2,0,B|448:32|448:32,1,66.6666666666667,0|2
311,57,1206070,2,0,B|292:30|265:30|254:19|254:19|246:30|220:30|203:55,1,133.333333333333
121,176,1206676,2,0,B|130:226|215:249|256:199|256:199|288:247|388:235|392:162,1,333.333333333333,2|0
464,232,1207585,1,2
337,345,1207888,5,0
294,354,1208040,1,8
256,336,1208191,1,0
217,354,1208343,1,0
178,345,1208494,1,2
48,232,1208797,1,0
48,232,1208949,1,8
224,165,1209252,6,0,B|256:176|256:176|290:164,1,66.6666666666667,0|2
197,56,1209706,2,0,B|255:28|255:28|317:55,2,133.333333333333,0|0|2
116,184,1210616,1,0
147,197,1210767,1,8
169,224,1210919,1,0
181,256,1211070,1,0
180,292,1211222,1,2
332,292,1211525,1,8
331,256,1211676,1,8
343,224,1211828,1,8
365,197,1211979,1,0
396,184,1212131,1,4
336,44,1212434,6,0,B|336:77|336:77|314:106,1,66.6666666666667,0|8
176,44,1212888,2,0,B|175:77|175:77|197:106,1,66.6666666666667,0|2
200,244,1213343,2,0,B|217:272|253:285|297:279|321:232,1,133.333333333333
99,267,1213949,2,0,B|131:363|263:412|385:368|423:243,1,400,2|2
180,145,1215312,6,0,B|195:97|255:86|255:86|311:94|333:148,1,200,8|4
124,44,1216222,5,8
256,168,1216525,1,0
256,168,1216676,1,2
388,44,1216979,1,0
435,226,1217282,1,2
353,350,1217585,2,0,B|284:340|117:251|74:123|147:-32|400:-9|466:163|336:289|227:339|160:351,1,800,2|4
77,224,1219706,1,0
77,224,1219858,5,8
120,48,1220161,1,2
120,48,1220312,1,2
256,120,1220616,1,0
392,48,1220919,1,0
400,200,1221222,2,0,B|382:282|318:334|255:334|166:330|116:273|107:181|107:181,2,400,2|2|4
256,40,1223494,5,8
256,184,1223797,1,2
256,184,1223949,1,2
319,332,1224252,2,0,B|300:360|264:373|220:367|196:320,1,133.333333333333,0|0
96,200,1224858,1,2
184,72,1225161,5,0
256,40,1225312,1,8
328,72,1225464,1,0
416,200,1225767,1,0
296,356,1226070,1,8
320,280,1226222,1,8
256,232,1226373,1,0
192,280,1226525,1,0
216,356,1226676,1,4
336,111,1227131,6,0,B|352:47|288:15|256:15|223:15|159:47|175:111,2,274.000001469851,2|2|8
256,304,1228343,1,0
193,277,1228494,2,0,B|181:298|174:343|209:397|268:399|316:376|345:340|324:276|318:268,1,274.000001469851,2|8
496,128,1229403,1,0
256,32,1229706,5,0
216,156,1229858,1,8
320,80,1230009,1,8
192,80,1230161,1,8
296,156,1230312,1,4
16,128,1230767,5,2
175,288,1231222,2,0,B|159:352|223:384|256:384|288:384|352:352|336:288,1,274.000001469851,2|8
438,116,1231979,1,0
361,51,1232131,2,0,B|334:77|294:90|255:51|255:24|255:24|255:51|215:90|175:77|149:51,1,274.000001469851,2|8
64,336,1233040,1,2
256,224,1233343,5,0
296,356,1233494,1,8
192,276,1233646,1,8
320,276,1233797,1,0
216,356,1233949,1,4
362,100,1234403,6,0,B|338:31|253:0|175:28|151:108,1,274.000001469851,2|2
448,336,1235312,1,8
256,212,1235616,1,0
203,281,1235767,2,0,B|184:332|184:332|220:332|256:368|256:368|292:332|328:332|328:332|308:279,1,274.000001469851,2|8
64,337,1236676,1,2
180,88,1237131,6,0,B|203:42|256:31|310:43|333:90,1,182.666667646567,8|0
362,187,1237585,2,0,B|324:295|164:293|148:177|148:177,3,274.000001469851,4|8|2|8
40,360,1239252,1,8
127,312,1239403,2,0,B|166:350|217:355,1,91.3333338232835,2|0
305,353,1239706,2,0,B|346:350|385:312,1,91.3333338232835,0|8
472,360,1240009,1,2
474,357,1240085,1,0
476,354,1240161,5,8
488,248,1240312,1,0
408,208,1240464,1,0
320,144,1240616,1,0
256,64,1240767,1,8
192,144,1240919,1,0
112,208,1241070,1,0
24,248,1241222,1,4
328,340,1241676,6,0,B|320:312|296:280|256:268|216:280|192:312|184:340,1,196.000001869202,8|0
120,252,1242131,2,0,B|180:208|256:180|332:208|392:252,1,294.000002803803,2|8
472,96,1242888,1,0
392,36,1243040,6,0,B|332:80|256:108|180:80|120:36,1,294.000002803803,4|8
16,68,1243646,2,0,B|8:168,1,98.0000009346008
112,140,1243949,2,0,B|196:196|204:308,1,196.000001869202,2|0
308,305,1244403,2,0,B|316:196|400:140,1,196.000001869202,8|2
368,36,1244858,6,0,B|304:60|256:128|256:128|208:60|144:36,2,294.000002803803,4|8|2
503,165,1246070,2,0,B|496:68,1,98.0000009346008,0|8
424,148,1246373,2,0,B|431:245,1,98.0000009346008,0|0
340,300,1246676,6,0,B|340:224|292:192|256:192|220:192|172:160|172:84,1,294.000002803803,4|8
339,85,1247585,2,0,B|340:160|292:192|256:192|220:192|172:224|171:299,1,294.000002803803,2|8
80,356,1248191,2,0,B|68:304|76:260,1,98.0000009346008,8|0
136,168,1248494,6,0,B|212:168|228:256|304:256,1,196.000001869202,4|0
412,248,1248949,2,0,B|480:252|496:180|496:180|512:104,1,196.000001869202,8|0
424,40,1249403,2,0,B|356:36|340:108|340:108|324:184,1,196.000001869202,2|0
324,184,1249858,1,8
100,248,1250161,5,0
100,248,1250312,2,0,B|32:252|16:180|16:180|0:104,1,196.000001869202,4|0
88,40,1250767,2,0,B|156:36|172:108|172:108|188:184,1,196.000001869202,8|0
292,212,1251222,2,0,B|384:220|384:220|396:164|372:120,1,196.000001869202,2|0
324,60,1251676,1,8
256,28,1251828,1,0
188,60,1251979,1,0
140,120,1252131,6,0,B|116:164|128:220|128:220|220:212,1,196.000001869202,4|0
328,204,1252585,2,0,B|384:200|384:200|440:196|472:248|452:308|392:312|392:312|340:316,2,294.000002803803,8|2|8
328,204,1253646,1,0
174,316,1253949,2,0,B|120:312|120:312|60:308|40:248|72:196|128:200|128:200|184:204,1,294.000002803803,4|8
192,96,1254555,2,0,B|96:88,2,98.0000009346008,0|8|4
418,87,1255161,6,0,B|320:96,1,98.0000009346008,0|8
280,184,1255464,2,0,B|378:175,1,98.0000009346008,8|0
376,272,1255767,6,0,B|280:280|280:280|224:284|204:336,1,196.000001869202,4|0
308,336,1256222,2,0,B|288:284|232:280|232:280|136:272,1,196.000001869202,8|0
40,264,1256676,2,0,B|52:180|140:176|140:176|228:172|240:88,1,294.000002803803,2|8
144,80,1257282,1,0
136,272,1257585,5,4
256,116,1257888,1,0
256,116,1258040,1,8
376,272,1258343,1,0
376,272,1258494,2,0,B|424:252|460:200|440:136|416:108,1,196.000001869202,2|0
332,60,1258949,2,0,B|280:60|256:8|256:8|232:60|180:60,1,196.000001869202,8|0
96,108,1259403,2,0,B|71:136|51:200|87:252|135:272,1,196.000001869202,4|0
180,360,1259858,2,0,B|232:360|256:308|256:308|280:360|332:360,1,196.000001869202,8|0
424,320,1260312,2,0,B|368:276|336:192|368:108|424:64,2,294.000002803803,2|8|4
256,176,1261676,5,8
87,320,1262131,2,0,B|144:276|176:192|144:108|88:64,1,294.000002803803,2|8
32,144,1262737,1,2
32,240,1262888,1,0
132,236,1263040,6,0,B|328:228,1,196.000001869202,4|0
380,148,1263494,2,0,B|184:156,1,196.000001869202,8|0
184,156,1263949,1,2
332,60,1264252,2,0,B|429:55,1,98.0000009346008,0|8
436,232,1264706,2,0,B|338:236,1,98.0000009346008,0|4
82,329,1265161,6,0,B|180:324,1,98.0000009346008,0|8
173,148,1265616,2,0,B|76:152,1,98.0000009346008,0|2
132,236,1266070,1,0
132,236,1266222,2,0,B|328:228,1,196.000001869202,8|0
432,192,1266676,5,4
256,128,1266979,1,0
256,128,1267131,1,8
80,192,1267434,1,0
80,192,1267585,1,2
352,240,1267888,1,0
352,240,1268040,1,8
160,240,1268343,1,0
160,240,1268494,1,2
316,372,1268949,5,8
256,380,1269100,1,8
196,372,1269252,1,2
168,288,1269403,5,8
256,276,1269555,1,0
344,284,1269706,1,2
372,200,1269858,5,8
256,176,1270009,1,0
140,200,1270161,1,2
256,100,1270312,5,4
384,280,1270767,6,0,B|436:280|488:252|512:192|488:132|436:104|384:104,1,294.000002803803,8|2
300,126,1271373,2,0,B|300:224,1,98.0000009346008,0|2
256,296,1271676,1,8
212,224,1271828,2,0,B|212:126,1,98.0000009346008,0|2
128,103,1272131,2,0,B|76:104|24:132|0:192|24:252|76:280|128:280,3,294.000002803803,4|2|0|2
340,76,1273949,6,0,B|384:108|412:184|384:260|332:308|256:328|180:308|128:260|100:184|128:108|172:76,2,588.000005607605,4|2|4
48,40,1276222,1,8
36,136,1276373,1,0
72,228,1276525,1,0
140,296,1276676,2,0,B|220:304|256:224|256:224|292:304|372:296,1,294.000002803803,2|8
440,228,1277282,1,0
476,136,1277434,1,0
464,40,1277585,1,4
256,248,1278040,5,8
256,64,1278494,1,2
160,164,1278646,5,0
160,260,1278797,1,0
256,288,1278949,1,8
352,260,1279100,1,0
352,164,1279252,1,2
256,136,1279403,1,4
456,56,1279858,6,0,B|456:350,1,294.000002803803,8|2
56,350,1280767,2,0,B|56:56,1,294.000002803803,8|4
360,88,1281676,2,0,B|360:212|360:212|360:284|328:324|256:352|184:324|152:284|152:212|152:212|152:88,1,588.000005607605,8|8
20,284,1283040,5,4
8,208,1283191,1,0
16,128,1283343,1,2
80,80,1283494,1,8
160,80,1283646,1,0
228,120,1283797,1,2
256,192,1283949,1,8
284,264,1284100,1,0
352,304,1284252,1,0
432,304,1284403,1,8
496,256,1284555,1,8
504,176,1284706,1,0
492,100,1284858,1,4
208,192,1291222,5,0
148,112,1291373,1,0
148,112,1291449,1,0
148,112,1291525,1,0
52,132,1291676,1,0
32,228,1291828,1,0
100,292,1291979,1,0
184,281,1292131,6,0,B|205:317|263:349|322:311|334:277,1,178.666658215332,4|2
309,192,1292585,2,0,B|301:140|257:124|257:124|205:104|209:48,1,183.333327869574,8|0
305,56,1293040,2,0,B|309:104|257:124|257:124|213:140|201:196,2,183.333327869574,2|0|0
392,40,1293797,1,0
464,96,1293949,1,2
392,264,1294252,5,0
336,328,1294403,1,8
256,352,1294555,1,0
176,328,1294706,1,0
120,264,1294858,1,2
120,120,1295161,1,0
176,56,1295312,1,8
256,32,1295464,1,0
336,56,1295616,1,0
392,120,1295767,1,2
256,200,1296070,5,0
256,200,1296222,1,8
256,24,1296525,5,0
256,24,1296676,1,2
201,169,1296979,1,0
331,76,1297282,1,2
175,76,1297585,1,0
297,171,1297888,1,0
300,259,1298040,6,0,B|255:244|255:244|212:259,1,91.6666639347872,8|0
212,349,1298343,2,0,B|256:363|256:363|299:349,1,91.6666639347872
392,184,1298797,1,8
346,101,1298949,1,8
256,67,1299100,1,0
165,101,1299252,1,8
119,184,1299403,1,4
256,276,1299706,5,0
182,318,1299858,2,0,B|202:359|257:382|312:360|331:316,1,183.333327869574,2|0
332,233,1300312,2,0,B|310:192|258:168|200:192|183:234,2,183.333327869574,2|0|0
422,128,1301222,2,0,B|352:92|336:12|336:12|256:108|256:108|180:8|180:8|156:92|94:128,2,549.999983608723,2|2|4
188,308,1303494,6,0,B|201:351|256:361|256:361|307:354|327:304,1,183.333327869574,8|0
256,256,1303949,1,2
360,80,1304252,1,0
152,80,1304555,1,2
68,233,1304858,2,0,B|52:304|140:352|191:289|191:289|209:334|255:347|302:334|320:291|320:291|370:351|463:307|443:225,2,549.999983608723,0|2|4
256,68,1306979,5,0
256,68,1307131,1,8
256,252,1307434,1,0
182,199,1307585,2,0,B|203:199|203:199|228:176|228:176|256:152|256:152|284:176|284:176|308:199|308:199|328:199,2,183.333327869574,2|0|0
46,322,1308494,2,0,B|68:284|182:252|208:368|160:384|164:318|240:304|256:251|256:251|272:304|352:320|352:384|304:368|333:281|364:284|455:262|475:337|475:337,2,549.999983608723,2|2|4
256,384,1310767,5,8
332,219,1311070,1,0
332,219,1311222,1,2
179,217,1311525,1,0
230,40,1311828,2,0,B|216:49|207:74|216:97|232:112|256:118|280:112|296:97|304:74|296:49|282:40,1,183.333327869574,2|0
448,74,1312434,6,0,B|489:156,1,91.6666639347872,2|8
444,238,1312737,2,0,B|416:326,1,91.6666639347872,0|8
324,366,1313040,2,0,B|310:324|256:313|256:313|206:321|186:370,1,183.333327869574,8|0
95,325,1313494,2,0,B|68:238,1,91.6666639347872,8|0
23,156,1313797,2,0,B|64:74,1,91.6666639347872,8|4
336,47,1314403,6,0,B|296:135|336:224,1,183.333327869574,8|0
376,304,1314858,2,0,B|296:308|256:361|256:361|211:308|135:304,1,274.999991804362,2|8
43,288,1315464,2,0,B|51:240|83:208,1,91.6666639347872,2|8
174,224,1315767,6,0,B|215:135|175:47,1,183.333327869574,4|0
83,51,1316222,2,0,B|139:107|127:200|43:240|-24:204,1,274.999991804362,8|2
68,360,1316979,6,0,B|144:308,1,91.6666639347872,0|8
256,372,1317282,2,0,B|256:280,1,91.6666639347872,8|0
256,188,1317585,1,4
444,360,1317888,6,0,B|368:308,1,91.6666639347872,0|8
209,116,1318343,2,0,B|254:100|297:116,1,91.6666639347872
344,43,1318646,2,0,B|256:2|167:43,1,183.333327869574,0|8
44,176,1319252,1,0
116,120,1319403,2,0,B|180:176|168:288,1,183.333327869574,2|0
256,316,1319858,2,0,B|256:135,1,183.333327869574,8|0
396,120,1320312,2,0,B|332:176|344:288,1,183.333327869574,2|0
428,324,1320767,6,0,B|420:280|424:232,1,91.6666639347872,8|8
464,84,1321070,2,0,B|472:128|468:176,1,91.6666639347872,0|4
320,336,1321525,6,0,B|324:292|308:244,1,91.6666639347872,0|8
256,172,1321828,1,0
210,102,1321979,2,0,B|255:86|298:102,1,91.6666639347872
191,339,1322434,6,0,B|187:295|202:249,1,91.6666639347872,0|8
256,172,1322737,1,0
312,100,1322888,1,0
348,14,1323040,2,0,B|401:10|401:10|457:6|485:38|489:83,1,183.333327869574,2|0
404,123,1323494,2,0,B|320:171|304:268,1,183.333327869574,8|0
207,268,1323949,2,0,B|191:171|107:123,1,183.333327869574,2|0
107,123,1324403,1,8
192,92,1324555,5,0
256,28,1324706,1,0
320,92,1324858,1,4
256,192,1325009,12,4,1326676
60,192,1327131,5,0
60,192,1327282,1,0
160,136,1327434,1,0
160,124,1327509,1,0
160,112,1327585,5,2
256,28,1327737,1,0
352,112,1327888,1,0
452,192,1328040,1,8
352,272,1328191,1,0
256,356,1328343,1,0
160,272,1328494,1,4
40,166,1328797,6,0,B|40:120|64:80,1,91.3333338232835,0|8
255,146,1329252,2,0,B|268:176|244:208|256:236,1,91.3333338232835,0|2
471,166,1329706,2,0,B|472:120|448:80,1,91.3333338232835,0|8
364,312,1330161,5,0
364,312,1330312,2,0,B|336:380|256:408|175:380|147:312,1,274.000001469851,4|8
192,232,1330919,1,0
256,168,1331070,1,0
320,232,1331222,2,0,B|364:232|408:208|424:163|416:107,1,182.666667646567,2|0
340,64,1331676,2,0,B|296:96|256:64|256:64|216:32|172:64,1,182.666667646567,8|2
96,107,1332131,6,0,B|88:164|104:208|148:232|192:232,1,182.666667646567,4|0
284,232,1332585,2,0,B|332:92|470:44,1,274.000001469851,8|2
227,151,1333494,2,0,B|178:290|40:338,1,274.000001469851,8|4
40,156,1334252,6,0,B|84:168|84:168|132:168,1,91.3333338232835,0|8
179,91,1334555,2,0,B|203:55|256:27|308:55|332:91,1,182.666667646567,0|2
360,180,1335009,1,0
336,268,1335161,1,0
256,308,1335312,1,8
176,268,1335464,1,8
152,180,1335616,1,0
148,88,1335767,6,0,B|208:56|208:56|256:84|316:88,1,182.666667646567,4|0
408,84,1336222,2,0,B|376:144|376:144|404:192|408:252,1,182.666667646567,8|0
364,344,1336676,2,0,B|304:312|304:312|256:340|196:344,1,182.666667646567,2|0
104,300,1337131,2,0,B|136:240|136:240|108:192|104:132,1,182.666667646567,8|0
27,183,1337585,6,0,B|75:244|175:236|215:147|179:83,1,274.000001469851,4|8
256,32,1338191,2,0,B|256:216,1,182.666667646567,0|2
332,84,1338797,1,0
332,83,1338949,2,0,B|296:148|336:236|436:244|484:183,1,274.000001469851,8|4
256,192,1339555,12,6,1342131
112,112,1342282,5,0
168,40,1342434,1,0
256,12,1342585,1,8
344,40,1342737,1,0
400,112,1342888,1,0
332,170,1343040,6,0,B|312:129|257:106|202:128|183:172,1,182.666667646567,6|0
181,260,1343494,2,0,B|201:301|256:324|311:302|330:258,1,182.666667646567,10|0
256,216,1343949,1,0
208,384,1344252,2,0,B|304:384|304:384,1,91.3333338232835,0|8
256,216,1344706,1,0
124,38,1345161,2,0,B|138:78|197:93|226:63|226:19|190:5|160:49|208:93|256:93|256:93|303:93|351:49|321:5|285:19|285:63|318:93|387:71|395:34,1,421.333338858287,2|0
440,216,1346070,5,2
388,304,1346222,1,10
256,140,1346525,1,0
204,212,1346676,2,0,B|212:264|256:280|256:280|308:300|304:356,1,182.666667646567
208,348,1347131,2,0,B|204:300|256:280|256:280|300:264|312:208,1,182.666667646567,8|0
256,140,1347585,1,0
72,216,1347888,1,2
124,304,1348040,1,10
160,156,1348343,6,0,B|213:103|186:3|123:-2|81:55|123:108|202:81|257:14|257:14|310:81|390:108|432:55|390:-2|326:3|299:103|352:156,1,639.333336762985,0|2
344,236,1349555,6,0,B|388:316,1,91.3333338232835,0|0
256,364,1349858,2,0,B|256:252,1,91.3333338232835,8|0
124,315,1350161,2,0,B|168:236,1,91.3333338232835,0|4
44,44,1350767,1,8
335,282,1351222,2,0,B|376:257|405:184|376:114|328:68|258:49|185:68|135:114|111:184|135:257|178:284,1,548.000002939701,2|2
468,44,1352585,1,8
357,277,1353040,6,0,B|339:348|254:387|171:346|154:277,1,274.000001469851,4|8
22,192,1353797,2,0,B|5:-6|238:-24|305:41|372:108|388:158|354:192|256:441|156:192|122:158|138:108|205:41|272:-24|505:-6|483:194,1,1096.0000058794,0|0
377,321,1355767,2,0,B|319:381|256:336|256:336|187:384|131:316,1,274.000001469851,2|2
200,268,1356373,1,0
140,212,1356525,1,0
132,132,1356676,1,4
180,64,1356828,1,0
256,40,1356979,1,0
332,64,1357131,1,6
380,132,1357282,1,0
372,212,1357434,1,0
312,268,1357585,1,4
52,80,1358494,6,0,B|52:37|113:29|132:69|132:69|150:110|197:110|214:69|214:69|229:29|279:29|296:69|296:69|312:110|360:110|376:69|376:69|397:29|458:37|458:81,2,548.000002939701,8|0|8
256,192,1360767,1,0
52,302,1361222,2,0,B|52:345|113:353|132:313|132:313|150:272|197:272|214:313|214:313|229:353|279:353|296:313|296:313|312:272|360:272|376:313|376:313|397:353|458:345|458:301,2,548.000002939701,0|8|0
256,44,1363494,5,0
244,104,1363949,1,8
264,152,1364403,1,0
244,208,1364858,1,4
256,356,1365767,1,8
256,356,1366373,5,0
256,356,1366525,1,0
256,356,1366676,1,0
308,196,1367131,1,0
176,288,1367585,1,8
336,288,1368040,1,0
204,196,1368494,1,0
361,51,1369403,6,0,B|334:77|294:90|255:51|255:24|255:24|255:51|215:90|175:77|149:51,1,274.000001469851,8|0
140,60,1370009,1,0
127,69,1370161,1,0
117,79,1370312,1,0
256,192,1370767,1,0
344,296,1371222,1,8
320,324,1371373,1,0
292,340,1371525,1,0
260,344,1371676,1,8
220,340,1371828,1,0
192,324,1371979,1,0
168,296,1372131,1,4
256,192,1383040,12,0,1386676
256,48,1387131,5,4
256,216,1387585,1,0
256,216,1388040,1,8
176,236,1388191,1,0
96,256,1388343,1,0
40,200,1388494,6,0,B|20:156|40:112,1,91.3333338232835
164,88,1388797,2,0,B|144:128|144:128|108:156,1,91.3333338232835,0|4
210,327,1389403,6,0,B|256:344|300:328,1,91.3333338232835,0|0
208,192,1389706,2,0,B|254:175|298:191,1,91.3333338232835,0|4
472,200,1390161,5,0
472,200,1390312,2,0,B|492:156|472:112,1,91.3333338232835
348,88,1390616,2,0,B|368:128|368:128|404:156,1,91.3333338232835,0|4
256,216,1391222,5,0
256,216,1391676,1,8
336,236,1391828,1,0
416,256,1391979,1,0
384,332,1392131,6,0,B|296:308,1,91.3333338232835
128,332,1392434,2,0,B|216:308,1,91.3333338232835,0|4
384,128,1393040,6,0,B|296:152,1,91.3333338232835
128,128,1393343,2,0,B|216:152,1,91.3333338232835,0|4
408,232,1393797,5,0
408,232,1393949,2,0,B|316:232,1,91.3333338232835
104,232,1394252,2,0,B|195:232,1,91.3333338232835,0|4
195,232,1394858,1,0
302,40,1395312,6,0,B|210:40,1,91.3333338232835,8|0
296,116,1395616,2,0,B|380:152,1,91.3333338232835
300,220,1395919,2,0,B|256:228|256:228|212:220,1,91.3333338232835
216,116,1396222,2,0,B|48:188,1,182.666667646567,4|0
80,312,1396676,5,8
164,260,1396828,1,0
256,300,1396979,1,0
256,300,1397131,1,4
395,232,1397282,6,0,B|353:313,1,91.3333338232835,0|0
256,300,1397585,1,8
159,313,1397737,2,0,B|117:232,1,91.3333338232835,0|0
256,116,1398040,1,4
256,116,1398494,1,0
356,336,1398949,6,0,B|356:244,1,91.3333338232835,8|0
256,348,1399252,2,0,B|256:256,1,91.3333338232835
156,336,1399555,2,0,B|156:244,1,91.3333338232835
256,116,1399858,1,4
280,32,1400009,2,0,B|208:32,2,45.6666669116418
356,84,1400312,1,8
376,180,1400464,1,0
348,276,1400616,1,0
256,316,1400767,1,8
164,276,1400919,1,0
136,180,1401070,1,0
152,88,1401222,6,0,B|112:24,2,45.6666669116418
208,152,1401525,1,0
256,72,1401676,2,0,B|256:24,2,45.6666669116418,8|0|0
304,148,1401979,1,0
360,88,1402131,2,0,B|400:24,2,45.6666669116418
304,148,1402434,1,0
256,216,1402585,2,0,B|256:308,1,91.3333338232835,8|0
256,384,1402888,1,0
176,352,1403040,5,2
156,316,1403116,1,0
136,280,1403191,1,0
176,208,1403343,1,0
184,128,1403494,2,0,B|204:84|256:60|308:84|328:128,1,182.666667646567,8|0
336,208,1403949,1,8
376,280,1404100,1,2
356,316,1404176,1,0
336,352,1404252,1,0
256,384,1404403,5,8
196,268,1404555,1,2
316,268,1404706,1,0
416,368,1404858,6,0,B|476:344|492:280|492:280|508:216,1,182.666667646567,4|0
500,136,1405312,2,0,B|404:172|328:104,1,182.666667646567,8|0
344,23,1405767,2,0,B|256:-16|167:23,1,182.666667646567,4|2
11,135,1406373,6,0,B|107:171|180:105,1,182.666667646567,0|2
330,277,1406979,2,0,B|404:212|500:248,1,182.666667646567,8|0
180,277,1407585,2,0,B|107:212|11:247,1,182.666667646567,10|2
120,332,1408040,5,8
256,248,1408191,1,8
392,332,1408343,1,0
384,147,1408494,6,0,B|360:95|304:55|239:63|183:135|195:192|256:232|316:192|328:135|272:63|207:55|151:95|127:147,1,464.000007743836,4|2
80,208,1409555,2,0,B|104:244|96:292,1,76.1333349488259
12,180,1409858,2,0,B|12:136|40:100,1,76.1333349488259,8|0
473,282,1410312,6,0,B|500:248|500:204,1,76.1333349488259,2|0
415,95,1410616,2,0,B|408:140|432:176,1,76.1333349488259,0|8
364,268,1410919,2,0,B|280:252,1,76.1333349488259,2|0
148,116,1411222,2,0,B|232:132,1,76.1333349488259,2|0
144,304,1411525,6,0,B|116:272|112:228,1,76.1333349488259,0|8
368,80,1411828,2,0,B|396:112|400:156,1,76.1333349488259,2|8
256,192,1412131,5,4
256,192,1412282,12,8,1413494
84,108,1413949,6,0,B|20:160,1,76.1333349488259,4|0
84,251,1414252,2,0,B|128:180,1,76.1333349488259,8|2
216,125,1414555,1,2
216,125,1414631,1,0
216,125,1414706,2,0,B|200:209,1,76.1333349488259,0|8
312,208,1415009,2,0,B|296:125,1,76.1333349488259,0|2
384,180,1415312,2,0,B|428:252,1,76.1333349488259,2|0
493,160,1415616,2,0,B|428:108,1,76.1333349488259,0|4
336,272,1416222,6,0,B|352:336|288:368|256:368|223:368|159:336|175:272,2,274.000001469851,2|2|8
256,80,1417434,1,0
193,107,1417585,2,0,B|181:86|174:41|209:-13|268:-15|316:8|345:44|324:108|313:114,1,274.000001469851,2|8
496,256,1418494,1,2
256,352,1418797,5,0
216,228,1418949,1,8
320,304,1419100,1,8
192,304,1419252,1,8
296,228,1419403,1,4
16,256,1419858,5,2
175,95,1420312,2,0,B|159:31|223:0|256:0|288:0|352:31|336:95,1,274.000001469851,2|8
438,268,1421070,1,0
361,333,1421222,2,0,B|334:307|294:294|255:333|255:360|255:360|255:333|215:294|175:307|149:333,1,274.000001469851,2|8
80,288,1421828,2,0,B|108:248|160:236,1,91.3333338232835
112,168,1422131,2,0,B|160:160|188:120,1,91.3333338232835,8|0
256,76,1422434,1,0
324,120,1422585,2,0,B|352:160|400:168,1,91.3333338232835,8|0
357,237,1422888,2,0,B|400:248|432:288,1,91.3333338232835,0|4
150,100,1423494,6,0,B|174:31|259:0|337:28|361:108,1,274.000001469851,2|2
64,336,1424403,1,8
256,212,1424706,1,0
309,281,1424858,2,0,B|328:332|328:332|292:332|256:368|256:368|220:332|184:332|184:332|204:279,1,274.000001469851,2|8
448,337,1425767,1,2
180,88,1426222,6,0,B|203:42|256:31|310:43|333:90,1,182.666667646567,8|0
362,187,1426676,2,0,B|324:295|164:293|148:177|148:177,3,274.000001469851,4|8|2|8
40,360,1428494,1,2
127,312,1428646,2,0,B|166:350|217:355,1,91.3333338232835,2|0
305,353,1428949,2,0,B|346:350|385:312,1,91.3333338232835,8|8
476,354,1429252,1,8
488,248,1429403,5,8
408,208,1429555,1,0
320,144,1429706,1,0
256,64,1429858,1,8
192,144,1430009,1,0
112,208,1430161,1,0
24,248,1430312,1,4
337,289,1430767,6,0,B|321:338|256:371|190:338|174:289,1,210.666669429143,2|0
256,248,1431222,1,2
256,56,1431525,1,0
175,87,1431676,2,0,B|191:127|256:151|256:151|313:129|336:87,1,210.666669429143,8|0
416,144,1432131,1,2
416,336,1432434,2,0,B|368:312|368:312|344:264,1,105.333334714572,0|8
166,266,1432888,2,0,B|144:312|144:312|96:336,1,105.333334714572,0|2
96,144,1433343,5,0
174,91,1433494,2,0,B|229:91|256:35|256:35|282:91|337:91,1,210.666669429143,8|0
400,184,1433949,2,0,B|430:234|430:234|457:284|446:343|379:351|379:351,1,210.666669429143,2|0
294,306,1434403,2,0,B|299:294|311:265|305:238|281:222|254:214|225:221|205:241|201:269|207:289|220:306,1,210.666669429143,8|0
132,351,1434858,2,0,B|65:343|54:284|81:234|81:234|112:184,1,210.666669429143,2|0
136,96,1435312,5,8
215,45,1435464,2,0,B|222:20|255:3|288:20|296:45,1,105.333334714572,2|0
376,96,1435767,1,2
440,276,1436070,2,0,B|412:308|412:308|376:312|376:312|360:336,1,105.333334714572,0|8
308,256,1436373,2,0,B|320:220|320:220|352:208|352:208|364:172,1,105.333334714572,2|0
256,160,1436676,2,0,B|264:136|264:136|240:96|240:96|256:68|256:68,2,105.333334714572,8|0|0
149,176,1437131,2,0,B|160:208|160:208|192:220|192:220|204:256,1,105.333334714572,8|0
150,333,1437434,2,0,B|136:312|136:312|100:308|100:308|72:276,1,105.333334714572,0|4
256,124,1437888,5,0
176,92,1438040,2,0,B|192:43|257:10|323:43|339:92,1,210.666669429143,8|0
360,192,1438494,2,0,B|136:192,1,210.666669429143,2|0
176,292,1438949,2,0,B|192:341|257:374|323:341|339:292,1,210.666669429143,8|0
416,348,1439403,5,2
256,252,1439706,1,0
256,252,1439858,1,8
96,348,1440161,1,0
96,348,1440312,1,2
112,160,1440616,1,0
164,80,1440767,1,8
256,52,1440919,1,0
348,80,1441070,1,0
392,156,1441222,1,6
256,192,1441373,12,2,1443040
256,344,1443191,5,0
344,312,1443343,1,10
404,240,1443494,1,0
404,144,1443646,1,8
344,72,1443797,1,0
256,40,1443949,1,8
168,72,1444100,1,0
108,144,1444252,1,8
108,240,1444403,1,8
168,312,1444555,5,8
256,344,1444706,1,8
344,312,1444858,1,4
412,136,1445161,1,2
452,52,1445312,1,8
256,84,1445616,1,2
256,176,1445767,1,0
100,136,1446070,1,2
60,52,1446222,1,8
134,257,1446525,22,0,B|160:337|259:373|350:340|378:247,1,316.000004143715,2|2
432,331,1447131,2,0,B|504:216|466:84|466:84,1,210.666669429143,8|0
402,67,1447585,1,2
256,188,1447888,1,0
350,175,1448040,2,0,B|363:214|334:293|255:300|213:278,1,210.666669429143,8|0
161,208,1448494,2,0,B|148:169|177:90|256:83|298:105,1,210.666669429143,2|0
256,188,1448949,1,8
112,68,1449252,1,0
35,130,1449403,2,0,B|28:248|84:336,1,210.666669429143,2|0
172,356,1449858,1,8
300,236,1450161,38,0,B|323:218|338:177|323:136|295:111|254:100|213:111|185:136|170:177|185:218|209:236,1,316.000004143715,2|0
104,228,1450767,1,8
108,132,1450919,1,8
164,56,1451070,1,0
256,28,1451222,1,8
348,56,1451373,1,8
404,132,1451525,1,0
408,228,1451676,1,8
344,300,1451828,1,0
256,332,1451979,1,8
168,300,1452131,1,4
44,44,1452585,21,2
256,232,1453040,1,2
312,60,1453343,1,0
168,160,1453646,1,2
348,160,1453949,1,2
204,60,1454252,1,2
256,136,1454403,1,8
468,44,1454858,1,2
448,232,1455161,5,0
448,232,1455312,1,8
296,352,1455616,1,0
218,297,1455767,2,0,B|189:364|93:358|82:299|67:262|90:207|157:188|201:214|200:251,1,316.000004143715,2|8
294,87,1456676,2,0,B|323:20|418:25|429:84|444:121|422:177|354:195|311:170|311:132,1,316.000004143715,2|8
436,286,1457434,21,2
350,317,1457585,1,8
256,302,1457737,1,2
185,247,1457888,1,2
161,160,1458040,1,8
177,66,1458191,1,0
256,26,1458343,1,2
334,66,1458494,1,10
350,160,1458646,1,8
326,247,1458797,1,0
256,302,1458949,1,8
161,317,1459100,1,8
75,286,1459252,1,0
40,200,1459403,38,0,B|8:160|16:88|64:48|136:56,1,210.666669429143,4|2
200,112,1459858,1,8
256,184,1460009,1,0
312,112,1460161,1,2
388,55,1460312,2,0,B|448:48|496:88|504:160|472:200,1,210.666669429143,0|0
392,248,1460767,1,8
296,288,1460919,2,0,B|289:263|256:246|223:263|215:288,1,105.333334714572,2|0
128,240,1461222,1,0
256,360,1461525,21,0
256,360,1461676,1,8
216,176,1461979,2,0,B|223:201|256:218|289:201|297:176,1,105.333334714572,2|0
120,112,1462434,1,0
168,32,1462585,1,8
256,8,1462737,1,0
344,32,1462888,1,0
392,112,1463040,1,4
256,192,1463191,12,2,1464858
278,319,1465312,6,0,B|239:286|239:286|175:289|175:289,1,105.333334714572,8|0
360,268,1465616,2,0,B|348:219|348:219|378:162|378:162,1,105.333334714572,2|8
233,64,1465919,2,0,B|272:97|272:97|336:94|336:94,1,105.333334714572,0|8
151,115,1466222,2,0,B|163:164|163:164|133:221|133:221,1,105.333334714572,8|0
94,295,1466525,5,8
194,352,1466676,2,0,B|203:291|254:272|254:272|315:249|310:184,1,210.666669429143,4|0
328,96,1467131,1,8
256,40,1467282,1,0
184,96,1467434,1,0
201,192,1467585,2,0,B|196:249|257:272|257:272|308:291|318:352,1,210.666669429143,2|0
418,295,1468040,5,8
472,216,1468191,2,0,B|416:192|424:128|424:128,1,105.333334714572
344,80,1468494,2,0,B|304:96|264:80|256:48|256:48|248:80|208:96|168:80,1,210.666669429143,2|0
168,176,1468949,2,0,B|216:208|216:208|256:184|256:184|296:208|296:208|344:176,1,210.666669429143,8|0
256,280,1469403,5,2
40,216,1469706,2,0,B|97:187|88:128|88:128,1,105.333334714572,0|8
159,47,1470009,1,0
257,24,1470161,1,0
355,49,1470312,2,0,B|483:105|483:330|316:388|254:334|254:334|168:248|196:161|312:161|339:248|254:334|254:334|168:392|24:307|24:105|173:40,1,1264.00001657486,2|8
264,76,1472282,5,8
264,76,1472434,1,0
264,76,1472585,1,8
264,76,1472737,1,0
264,76,1472888,1,8
264,76,1473040,1,4
400,320,1473494,1,6
112,320,1473949,1,4
256,192,1474100,12,0,1476676
256,44,1505977,5,4
172,96,1506172,1,4
256,148,1506367,2,2,B|256:364,1,200,4|6
100,332,1507536,6,0,B|80:216|132:128,1,200,0|8
300,36,1508315,2,0,B|372:104|488:120,1,200
472,220,1508899,1,0
376,188,1509094,1,0
216,308,1509484,2,0,B|112:308|16:376,1,200,8|0
68,172,1510263,5,4
220,44,1510652,1,0
228,144,1510847,1,0
308,204,1511042,1,8
428,44,1511432,1,0
488,236,1511821,1,0
440,324,1512016,1,0
348,284,1512211,1,0
160,356,1512600,2,0,B|192:256|164:156,1,200,8|0
348,76,1513380,5,6
152,44,1513769,2,0,B|108:60|96:128,2,100,0|0|8
256,216,1514549,1,0
256,216,1514938,2,0,B|368:216,2,100
64,164,1515717,2,0,B|124:72|224:52,1,200,8|0
420,84,1516497,5,4
384,280,1516886,1,0
192,332,1517276,1,8
68,176,1517665,1,0
268,200,1518055,2,0,B|320:224|364:192,2,100
116,104,1518834,5,8
120,204,1519029,1,0
220,188,1519224,1,0
216,88,1519419,2,2,B|316:60|428:92,1,200
364,176,1520003,1,0
428,252,1520198,1,2
260,364,1520587,5,0
252,264,1520782,1,0
156,288,1520977,2,2,B|116:188|180:88,1,200
256,36,1521562,1,0
396,176,1521951,5,8
304,132,1522146,1,0
204,124,1522341,1,0
120,180,1522536,2,2,B|100:296|212:356,1,200
256,268,1523120,1,0
316,348,1523315,2,2,B|415:295|395:179,1,200
296,168,1523899,1,0
268,72,1524094,2,2,B|180:120|56:68,1,200
32,164,1524678,1,0
172,304,1525068,1,8
216,216,1525263,5,0
316,224,1525458,1,0
332,124,1525652,2,2,B|460:112|492:216,1,200
420,280,1526237,1,0
336,336,1526432,2,2,B|240:352|128:336,1,200
56,280,1527016,1,0
68,180,1527211,2,2,B|172:116|204:20,1,200
256,116,1527795,1,0
432,212,1528185,1,8
336,244,1528380,5,0
408,316,1528574,1,0
316,356,1528769,2,2,B|112:356,1,200
16,356,1529354,1,0
32,156,1529743,6,0,B|16:108|32:52,1,100,8|0
104,128,1530133,2,0,B|120:180|176:208,1,100
200,108,1530523,2,0,B|222:195|310:225|393:202|416:96,1,300,4|0
476,184,1531302,1,8
452,320,1531497,5,0
360,360,1531691,1,0
276,308,1531886,2,2,B|180:348|80:256,1,200
32,184,1532471,1,0
32,184,1532665,2,2,B|60:52|176:52,1,200
260,64,1533250,1,0
260,64,1533445,2,2,B|344:148|260:248,1,200
196,316,1534029,2,0,B|80:316,2,100,0|0|8
336,316,1534613,5,0
432,296,1534808,1,0
436,196,1535003,2,2,B|428:84|300:32,1,200
256,116,1535587,1,0
188,44,1535782,2,2,B|83:85|75:197,1,200
176,184,1536367,2,0,B|184:240|135:282,1,100,0|2
200,356,1536756,1,4
256,164,1537146,1,0
320,352,1537536,1,8
448,292,1537730,6,0,B|412:244|444:184,2,100,0|0|2
484,96,1538510,1,0
392,64,1538704,1,0
312,124,1538899,1,2
216,300,1539289,1,0
124,340,1539484,1,0
108,240,1539678,1,2
188,180,1539873,2,0,B|156:80|44:40,2,200,0|0|8
280,72,1540847,5,2
380,84,1541042,1,0
424,172,1541237,1,2
440,272,1541432,1,0
372,344,1541626,2,2,B|264:384|188:292,1,200,2|0
256,220,1542211,6,0,B|144:220,1,100,8|0
168,120,1542600,2,0,B|56:120,1,100
40,216,1542990,2,0,B|104:304|216:320,1,200,4|0
256,232,1543574,1,0
256,232,1543769,1,8
388,272,1543964,5,0
404,172,1544159,1,0
364,80,1544354,2,2,B|160:80,1,200
72,124,1544938,1,0
160,168,1545133,2,2,B|108:268|192:360,1,200
260,288,1545717,1,0
336,352,1545912,1,2
388,160,1546302,1,0
484,184,1546497,1,0
464,88,1546691,2,2,B|364:48|248:88,1,200
256,180,1547276,1,0
256,192,1547471,12,6,1549224
408,32,1550782,5,6
104,132,1551172,1,0
408,228,1551562,1,8
100,312,1551951,1,2
256,272,1552341,5,0
256,172,1552536,1,0
256,272,1552730,1,0
256,72,1553120,1,8
56,72,1553510,6,2,B|84:164|20:264,1,200,2|6
160,120,1554289,2,2,B|256:80|356:124,1,200,2|10
492,268,1555068,2,2,B|429:169|457:77,1,200
356,80,1555652,1,0
260,60,1555847,1,2
256,220,1556237,1,8
256,220,1556626,1,0
224,316,1556821,1,0
124,308,1557016,5,6
256,60,1557406,1,0
380,312,1557795,1,8
256,60,1558185,2,2,B|256:264,1,200,2|0
256,260,1558769,1,0
256,260,1558964,1,0
256,192,1559354,12,0,1561302
68,116,1561691,5,0
168,116,1561886,1,8
216,136,1561984,1,8
260,116,1562081,1,8
360,116,1562276,1,8
324,208,1562471,1,8
424,192,1562665,1,0
360,116,1562860,1,0
432,280,1563055,6,0,B|384:300|320:292,1,100,0|6
184,160,1563639,2,0,B|128:160|104:108,2,100,0|0|8
368,80,1564419,2,2,B|360:196|276:256,1,200
228,168,1565003,1,0
280,252,1565198,1,0
100,336,1565587,6,2,B|32:272|32:136,1,200,10|2
84,64,1566172,2,0,B|140:64|180:96,1,100,0|4
256,276,1566756,1,2
368,108,1567146,1,8
488,268,1567536,2,2,B|440:348|304:328,1,200
212,348,1568120,1,0
200,248,1568315,2,2,B|136:164|12:176,1,200,2|10
168,40,1569094,1,0
256,84,1569289,2,0,B|276:28,2,50,0|0|4
472,192,1569873,5,0
256,336,1570263,1,8
40,192,1570652,2,2,B|248:192,1,200,2|0
240,192,1571237,1,0
240,192,1571432,1,0
256,192,1571821,12,0,1573769
392,292,1574159,5,0
360,156,1574354,1,8
236,92,1574549,1,0
128,180,1574743,1,0
112,320,1574938,1,8
240,264,1575133,1,0
128,180,1575328,1,0
284,152,1575523,5,0
300,200,1575620,1,0
316,248,1575717,1,4
68,48,1585068,5,2
132,280,1585652,1,2
192,48,1586237,1,2
432,192,1586626,5,2
192,192,1587211,1,2
316,88,1587600,5,0
416,72,1587795,1,0
316,88,1587990,2,2,B|344:196|288:288,1,200,2|2
220,352,1588574,1,0
200,256,1588769,2,2,B|124:192|12:168,1,200
64,80,1589354,1,0
64,80,1589549,1,2
260,44,1589938,2,2,B|412:44,1,150,0|8
488,104,1590717,5,0
472,204,1590912,1,0
376,236,1591107,1,2
204,340,1591497,1,0
248,252,1591691,1,0
148,260,1591886,1,2
28,100,1592276,1,0
128,104,1592471,1,0
208,44,1592665,2,2,B|324:32|380:132,1,200
428,216,1593250,1,0
484,24,1593639,1,8
452,120,1593834,5,0
428,216,1594029,1,0
340,164,1594224,1,2
256,344,1594613,1,0
256,244,1594808,1,0
256,344,1595003,1,2
60,300,1595393,1,0
156,276,1595587,1,0
132,180,1595782,2,2,B|108:72|20:8,1,200
20,316,1596756,1,8
160,328,1596951,5,0
260,348,1597146,1,0
328,276,1597341,1,2
300,180,1597536,1,0
204,164,1597730,1,2
204,164,1598315,1,8
28,260,1598704,5,0
80,172,1598899,1,0
156,240,1599094,1,0
320,168,1599484,1,0
280,76,1599678,1,0
380,84,1599873,1,8
404,180,1600068,6,0,B|428:284,2,100,0|8|10
256,44,1600847,1,0
256,144,1601042,1,0
256,44,1601237,1,2
56,68,1601626,2,0,B|88:120|56:168,1,100
52,264,1602016,2,2,B|96:364|232:352,1,200
312,328,1602600,1,0
152,208,1602990,1,8
208,80,1603185,5,2
304,100,1603380,1,0
400,80,1603574,1,2
464,268,1603964,1,0
404,348,1604159,1,0
304,352,1604354,1,2
128,256,1604743,1,0
224,280,1604938,1,0
316,236,1605133,2,2,B|440:236|500:136,2,200,2|0|2
224,280,1606107,1,8
256,144,1606302,5,0
160,120,1606497,1,0
96,196,1606691,1,2
292,232,1607081,1,0
348,316,1607276,1,0
444,292,1607471,1,2
248,328,1607860,1,0
248,328,1608055,2,2,B|148:292|108:176,1,200,2|0
116,88,1608639,1,2
200,144,1608834,2,0,B|252:164|312:144,2,100,0|0|8
252,60,1609419,6,0,B|300:40|356:64,1,100,2|0
440,100,1609808,2,0,B|420:148|456:216,1,100,2|0
408,288,1610198,1,2
124,192,1610782,5,8
252,344,1611172,1,0
156,316,1611367,1,0
60,348,1611562,1,0
44,148,1611951,2,0,B|112:68|224:64,1,200,0|8
356,36,1612536,5,0
328,132,1612730,1,0
428,140,1612925,2,2,B|448:256|344:324,1,200
276,256,1613510,1,0
204,324,1613704,2,2,B|100:324|64:188,1,200
36,104,1614289,1,0
116,44,1614484,2,2,B|324:44,1,200
416,52,1615068,1,0
480,128,1615263,2,2,B|472:232|352:284,1,200
356,180,1615847,2,2,B|296:172|272:244,2,100
132,352,1616626,5,8
60,232,1616821,1,8
120,104,1617016,1,8
240,32,1617211,1,8
376,72,1617406,1,8
416,208,1617600,1,0
236,204,1617795,6,2,B|310:134|424:135,1,200,2|0
472,328,1618574,1,8
388,276,1618769,1,0
476,228,1618964,1,0
472,328,1619159,1,0
324,340,1619354,6,0,B|220:364|124:320,1,200,6|0
44,140,1620133,1,8
132,188,1620328,1,0
204,116,1620523,2,2,B|312:116|396:36,1,200
456,120,1621107,1,0
364,156,1621302,1,2
468,328,1621691,1,8
284,248,1622081,2,2,B|212:188|212:188|192:64,1,200,2|6
28,192,1622860,5,2
184,316,1623250,1,8
248,124,1623639,2,2,B|352:60|458:182|384:292,1,300,2|0
389,283,1624419,1,2
200,216,1624808,1,8
44,340,1625198,1,0
44,340,1625393,5,0
44,340,1625490,1,0
44,340,1625587,2,0,B|88:136,1,200,6|0
276,80,1626367,2,0,B|372:52|476:88,2,200,8|2|0
184,124,1627341,1,0
256,192,1627536,1,0
256,192,1627925,12,0,1629873
256,36,1630263,5,0
292,56,1630458,1,8
312,88,1630652,1,0
316,128,1630847,1,0
308,168,1631042,1,8
296,208,1631237,1,0
272,240,1631432,1,0
244,268,1631626,1,0
204,276,1631821,6,2,B|91:252|43:156,1,200,6|2
304,48,1632600,2,0,B|428:72|444:204,2,200,8|2|0
304,48,1633574,1,0
304,48,1633769,1,2
456,284,1634159,2,0,B|372:344|264:304,2,200,8|2|4
240,104,1635328,6,2,B|140:108|72:204,1,200,2|8
340,108,1636107,2,2,B|304:212|172:196,1,200
180,196,1636691,1,0
180,196,1636886,2,2,B|196:324|328:324,1,200,2|10
452,84,1637665,1,0
452,84,1637860,5,8
452,84,1637958,1,8
452,84,1638055,2,0,B|348:116|244:68,1,200,6|0
64,124,1638834,1,8
64,124,1639224,2,2,B|64:228|152:308,1,200
244,316,1639808,1,0
256,216,1640003,1,0
256,192,1640393,12,8,1641951
416,192,1642536,5,0
416,192,1642730,2,8,B|432:116,2,66.6666666666667,0|8|8
352,272,1643120,2,0,B|368:356,2,66.6666666666667,8|8|0
292,192,1643510,2,0,B|272:120,2,66.6666666666667,0|8|8
232,272,1643899,2,0,B|204:348,2,66.6666666666667,8|0|0
132,296,1644289,1,4
104,96,1644678,5,0
196,136,1644873,1,0
288,96,1645068,1,8
456,208,1645458,1,0
356,192,1645652,1,0
264,228,1645847,2,2,B|152:228|60:324,2,200,10|2|10
432,116,1647016,1,6
264,228,1647406,5,8
344,172,1647600,2,0,B|364:124,2,50
248,152,1647990,1,0
176,80,1648185,1,8
76,96,1648380,1,0
32,188,1648574,1,0
84,272,1648769,1,0
132,260,1648867,1,0
176,280,1648964,6,2,B|248:344|368:312,1,200,10|2
248,152,1649743,1,8
424,56,1650133,2,2,B|320:28|224:56,1,200,2|10
256,252,1650912,2,2,B|368:252|432:364,1,200,2|10
220,344,1651691,5,2
120,328,1651886,1,0
128,228,1652081,1,8
36,48,1652471,2,2,B|244:48,1,200,2|10
436,60,1653250,2,2,B|420:160|468:268,1,200,2|10
376,304,1653834,5,0
292,192,1654029,1,0
268,236,1654126,1,0
220,248,1654224,1,0
172,236,1654321,1,0
148,192,1654419,1,8
84,68,1654613,1,0
32,196,1654808,5,0
32,196,1655003,1,0
32,196,1655198,1,10
256,348,1655587,1,2
476,192,1655977,1,10
256,40,1656367,2,0,B|256:152,2,100,2|0|6
160,192,1657146,5,0
256,220,1657341,1,0
340,164,1657536,1,8
156,92,1657925,1,0
80,156,1658120,1,0
92,256,1658315,1,10
276,176,1658704,6,2,B|312:288|196:344,2,200,2|10|2
212,100,1659678,1,0
308,68,1659873,1,8
472,184,1660263,2,0,B|472:244|424:280,2,100,0|0|8
376,360,1661042,1,0
324,272,1661237,1,0
324,272,1661334,1,0
324,272,1661432,6,0,B|216:248|128:328,1,200,8|0
52,268,1662016,1,0
36,168,1662211,2,0,B|84:68|196:64,1,200,2|2
256,144,1662795,1,0
256,192,1662990,12,0,1666107
256,192,1677016,12,4,1678574
256,180,1678964,5,0
256,180,1679159,1,0
256,180,1679354,1,2
160,308,1679743,1,0
100,252,1679938,1,0
56,184,1680133,2,0,B|140:92,1,100,2|0
196,76,1680523,2,0,B|308:76,3,100,0|0|2|0
376,76,1681302,2,0,B|412:124|396:176,1,100
364,244,1681691,5,4
208,272,1682081,2,0,B|208:392,2,100,0|0|2
68,192,1682860,1,0
140,156,1683055,1,0
152,76,1683250,1,2
256,200,1683639,1,0
364,80,1684029,1,2
428,128,1684224,1,0
440,208,1684419,1,0
392,272,1684613,1,0
392,272,1684808,6,0,B|304:264|180:304,1,200,4|0
256,152,1685587,1,2
256,152,1685782,1,0
256,152,1685977,1,0
100,188,1686367,1,2
256,228,1686756,1,0
412,188,1687146,1,2
364,124,1687341,1,0
292,92,1687536,1,0
220,124,1687730,1,0
172,188,1687925,1,2
472,312,1688315,5,0
400,348,1688510,1,0
300,348,1688704,1,8
184,312,1688899,1,8
136,180,1689094,1,8
248,68,1689289,1,8
400,164,1689484,1,6
56,68,1690263,5,0
32,132,1690393,1,0
36,200,1690523,1,8
68,256,1690652,1,8
124,296,1690782,1,8
192,300,1690912,1,0
252,272,1691042,6,2,B|360:300|428:200,1,200,6|2
300,48,1691821,1,8
156,188,1692211,1,2
284,240,1692406,1,0
396,172,1692600,2,0,B|452:160|492:200,2,100,0|0|2
256,316,1693380,1,8
220,120,1693769,6,2,B|128:48|32:120,1,200,2|6
56,316,1694549,2,2,B|260:316,1,200,2|10
452,280,1695328,1,2
424,184,1695523,1,0
444,88,1695717,1,0
348,120,1695912,1,0
248,128,1696107,1,2
256,328,1696497,1,8
92,212,1696886,1,0
92,212,1697081,5,0
92,212,1697178,1,0
92,212,1697276,2,2,B|191:234|304:212,2,200,6|2|10
200,44,1698445,2,2,B|292:20|416:52,1,200
444,136,1699029,1,0
408,232,1699224,1,0
256,192,1699613,12,0,1701562
428,192,1701951,5,4
376,192,1702049,1,0
328,192,1702146,1,0
280,192,1702243,1,0
228,192,1702341,6,0,B|240:260,2,66.6666666666667,0|0|0
132,228,1702730,2,0,B|100:300,2,66.6666666666667,0|0|0
100,132,1703120,2,0,B|28:152,2,66.6666666666667
192,88,1703510,6,2,B|284:44|404:92,1,200,6|2
420,284,1704289,2,2,B|332:360|228:284,1,200,10|2
156,352,1704873,1,0
156,252,1705068,1,0
60,280,1705263,1,0
52,180,1705458,2,2,B|148:132|192:32,1,200,2|10
360,284,1706237,6,2,B|448:204|384:92,2,200,2|6|2
256,112,1707406,1,8
184,300,1707795,2,2,B|96:268|56:136,1,200
32,56,1708380,1,0
132,56,1708574,2,2,B|352:56,1,200,2|10
480,188,1709354,5,8
460,288,1709549,1,8
412,280,1709646,1,8
380,240,1709743,1,6
200,328,1710133,2,0,B|160:236|196:120,2,200,0|8|2
100,152,1711302,1,0
28,220,1711497,1,0
16,120,1711691,1,8
96,60,1711886,1,0
196,56,1712081,2,2,B|308:32|400:88,1,200
356,176,1712665,1,0
308,264,1712860,1,4
256,192,1712958,12,0,1714419
256,308,1748243,6,0,B|256:364,2,54.9999983608723
256,252,1749012,2,0,B|244:216|268:192|256:144,1,109.999996721745,0|0
284,36,1750038,1,0
228,36,1750294,1,0
347,99,1750807,6,0,B|392:128|424:192|392:260|348:284,1,219.999993443489
256,192,1752602,1,0
164,100,1753115,2,0,B|120:124|88:192|120:256|164:284,1,219.999993443489
332,292,1755166,54,0,B|320:352|256:392|192:352|180:292,1,219.999993443489
176,236,1756448,1,0
228,216,1756704,1,0
284,216,1756961,1,0
336,236,1757217,1,0
436,188,1757730,1,0
348,124,1758243,5,0
308,84,1758499,2,0,B|256:68|256:68|204:84,1,109.999996721745,0|0
204,140,1759268,2,0,B|200:184|256:220|312:184|308:140,1,164.999995082617,0|0
356,332,1760807,6,0,B|324:360|288:364|256:336|256:336|224:364|188:360|156:332,1,219.999993443489,0|0
204,272,1762345,2,0,B|256:300|308:272,1,109.999996721745,2|0
336,188,1763371,2,0,B|304:168|256:188|256:188|208:208|176:196,1,165.99999386549,4|8
100,164,1764140,6,0,B|76:132|74:87,1,82.9999969327451,0|8
140,32,1764653,2,0,B|220:56,1,82.9999969327451,0|8
300,76,1765166,1,0
324,156,1765422,2,0,B|304:188|256:220|208:188|186:154,1,165.99999386549,2|8
212,76,1766192,1,0
292,55,1766448,2,0,B|372:32,1,82.9999969327451,2|0
436,86,1766961,2,0,B|436:132|412:164,1,82.9999969327451,8|0
336,236,1767474,2,0,B|256:196|176:236,2,165.99999386549,4|8|2
416,252,1768756,5,0
432,172,1769012,1,8
348,156,1769268,2,0,B|260:155|212:76,1,165.99999386549,2|0
299,76,1770038,2,0,B|251:155|163:155,1,165.99999386549,2|8
80,144,1770807,1,0
132,80,1771063,1,2
52,68,1771320,1,0
16,196,1771576,2,0,B|36:360,1,165.99999386549,4|8
116,340,1772345,2,0,B|108:280|108:280|100:220|144:188,1,165.99999386549,2|0
224,168,1773115,5,8
288,216,1773371,1,0
367,196,1773627,2,0,B|412:164|404:104|404:104|396:44,2,165.99999386549,2|8|8
320,128,1774909,1,0
256,72,1775166,1,2
196,128,1775422,1,0
180,208,1775679,6,0,B|200:284|272:284|272:284|308:284,1,165.99999386549,4|8
392,288,1776448,2,0,B|372:364|300:364|300:364|264:364,1,165.99999386549,2|0
180,360,1777217,2,0,B|156:272|64:256,1,165.99999386549,2|8
40,176,1777986,5,0
96,116,1778243,1,8
176,100,1778499,1,0
256,112,1778756,1,2
344,192,1779012,1,0
256,272,1779268,1,8
168,192,1779525,1,0
256,112,1779781,1,4
324,44,1780038,54,0,B|408:32,1,82.9999969327451,0|8
500,96,1780551,2,0,B|416:108,1,82.9999969327451,0|2
364,192,1781063,2,0,B|388:272,1,82.9999969327451,0|8
336,347,1781576,2,0,B|256:314|170:348,1,165.99999386549,4|0
148,192,1782345,2,0,B|124:272,1,82.9999969327451,2|0
64,216,1782858,5,8
88,136,1783115,2,0,B|112:56,1,82.9999969327451,2|0
196,52,1783627,2,0,B|236:76|256:108|256:108|276:76|316:52,1,165.99999386549,4|0
364,120,1784397,5,2
256,176,1784653,1,0
148,120,1784909,1,2
336,224,1785166,1,0
176,224,1785422,1,2
256,360,1785679,1,0
256,276,1785935,1,8
256,192,1786192,1,0
344,136,1786448,6,0,B|360:52,1,82.9999969327451,8|0
256,1,1786961,2,0,B|256:84,1,82.9999969327451,2|0
168,136,1787474,2,0,B|152:52,1,82.9999969327451,8|0
44,176,1787986,2,0,B|24:340,1,165.99999386549,4|8
112,296,1788756,2,0,B|116:212,1,82.9999969327451,0|2
204,81,1789268,2,0,B|204:164,1,82.9999969327451,0|8
280,244,1789781,5,0
468,208,1790038,2,0,B|488:44,1,165.99999386549,4|8
400,88,1790807,2,0,B|396:172,1,82.9999969327451,0|2
309,302,1791320,2,0,B|308:220,1,82.9999969327451,0|8
256,136,1791833,1,0
184,56,1792089,2,0,B|208:24|256:8|300:24|330:57,1,165.99999386549,4|8
328,156,1792858,5,0
256,224,1793115,2,0,B|176:276|208:368,1,165.99999386549,2|8
305,366,1793884,2,0,B|338:275|254:224,1,165.99999386549,2|8
256,124,1794653,1,8
256,48,1795166,5,0
256,244,1795422,1,8
184,124,1795679,1,8
328,124,1795935,1,8
400,244,1796192,1,4
340,336,1796448,6,2,B|316:280|256:248|196:280|171:338,1,219.999993443489,2|0
64,352,1797217,2,0,B|40:244,1,109.999996721745,2|0
92,148,1797730,1,8
184,84,1797986,2,0,B|268:100|316:156|332:228,1,219.999993443489,4|0
256,308,1798756,1,8
180,228,1799012,2,0,B|197:155|245:99|329:83,1,219.999993443489,2|0
432,120,1799781,1,8
456,336,1800038,6,0,B|348:288|348:160,1,219.999993443489,4|0
312,56,1800807,1,8
200,56,1801063,1,0
256,216,1801320,1,2
256,104,1801576,1,0
164,160,1801833,1,8
108,68,1802089,1,0
165,160,1802345,2,0,B|164:288|56:336,1,219.999993443489,4|8
12,236,1803115,5,0
64,216,1803243,2,0,B|144:236|200:304,1,164.999995082617,2|0
308,276,1803884,1,8
232,196,1804140,1,2
96,132,1804397,2,0,B|72:75|124:3|204:35|212:103,1,219.999993443489,4|8
300,36,1805166,1,0
356,36,1805294,2,0,B|388:32|408:16|408:16|424:40|448:52,1,109.999996721745,2|0
500,72,1805679,5,2
492,180,1805935,1,8
388,148,1806192,1,0
416,252,1806448,2,0,B|440:309|388:381|308:349|300:281,1,219.999993443489,4|8
208,220,1807217,2,0,B|199:152|119:120|67:192|91:249,1,219.999993443489,2|0
176,320,1807986,1,8
280,352,1808243,1,0
404,276,1808499,5,4
404,276,1808756,2,0,B|336:192,1,109.999996721745,2|8
108,107,1809268,2,0,B|178:193,1,109.999996721745,2|0
328,100,1809781,2,0,B|360:48|408:28,2,109.999996721745,0|8|2
185,283,1810551,2,0,B|152:336|104:356,2,109.999996721745,0|2|8
296,228,1811320,6,0,B|260:212|252:172|216:156,2,109.999996721745,0|2|8
368,144,1812089,5,8
308,52,1812345,1,8
256,36,1812474,1,0
204,52,1812602,1,4
144,144,1812858,1,2
92,240,1813115,1,8
148,336,1813371,1,0
256,344,1813627,2,0,B|308:324|324:264,1,109.999996721745,2|0
268,168,1814140,5,8
204,256,1814397,2,0,B|292:332|408:316,1,219.999993443489,4|0
484,236,1815166,1,8
492,124,1815422,2,0,B|464:52|368:32|312:100,1,219.999993443489,2|0
216,156,1816192,1,8
56,48,1816448,6,0,B|8:168|92:252,1,219.999993443489,4|0
200,256,1817217,2,0,B|312:256,1,109.999996721745,8|0
420,240,1817730,2,0,B|360:332,1,109.999996721745,2|0
312,360,1818115,1,2
200,360,1818371,1,0
152,332,1818499,2,0,B|92:240,1,109.999996721745,2|4
256,252,1819012,5,0
208,100,1819268,1,8
332,196,1819525,1,0
180,196,1819781,1,2
304,100,1820038,5,0
256,168,1820294,1,8
400,108,1820551,1,0
420,160,1820679,1,0
440,212,1820807,1,4
356,284,1821063,2,0,B|304:288|256:244|256:244|208:288|156:284,1,219.999993443489,2|0
52,320,1821833,1,2
72,212,1822089,5,0
92,160,1822217,1,0
112,108,1822345,1,8
156,8,1822602,2,0,B|207:4|255:48|255:48|303:4|354:7,1,219.999993443489,4|0
352,120,1823371,1,8
256,172,1823627,1,2
160,120,1823884,1,0
192,224,1824140,5,8
180,276,1824268,1,0
204,324,1824397,1,8
256,344,1824525,1,0
308,324,1824653,1,2
332,276,1824781,1,0
320,224,1824909,1,4
152,140,1830294,6,0,B|232:111,1,83.5000010451675,0|8
360,244,1830807,2,0,B|280:272,1,83.5000010451675,0|2
124,240,1831320,2,0,B|204:212,1,83.5000010451675,0|8
388,144,1831833,2,0,B|308:172,1,83.5000010451675,0|2
208,60,1832345,2,0,B|236:140,1,83.5000010451675,0|8
304,324,1832858,2,0,B|276:244,1,83.5000010451675,0|4
440,232,1833627,5,8
428,152,1833884,1,0
360,200,1834140,1,2
504,180,1834397,5,0
492,100,1834653,1,8
416,72,1834909,1,0
332,68,1835166,2,0,B|292:68|292:68|256:44|256:44|220:68|220:68|180:68,1,167.000002090335,2|8
96,72,1835935,1,0
20,100,1836192,1,2
8,180,1836448,1,0
84,148,1836704,1,8
176,284,1837217,6,0,B|343:284,2,167.000002090335,0|8|0
100,164,1838499,6,0,B|180:192,1,83.5000010451675,2|8
412,164,1839012,2,0,B|332:192,1,83.5000010451675,0|2
76,72,1839525,2,0,B|156:100,1,83.5000010451675,0|8
436,72,1840038,2,0,B|356:100,1,83.5000010451675,0|2
256,52,1840551,1,0
256,136,1840807,1,8
256,176,1840935,1,0
256,216,1841063,1,8
256,300,1841320,1,4
92,312,1841833,6,0,B|48:304|28:264,1,83.5000010451675,8|0
104,232,1842345,1,2
168,180,1842602,1,0
192,100,1842858,1,8
196,16,1843115,1,0
116,36,1843371,2,0,B|120:124|42:176,2,167.000002090335,4|8|2
176,152,1844653,6,4,B|256:136|256:136|338:152,1,167.000002090335,4|0
395,36,1845422,2,0,B|392:124|468:178,1,167.000002090335,4|8
492,96,1846192,2,0,B|368:205,1,167.000002090335,2|2
292,172,1846961,1,8
152,104,1847217,6,0,B|116:188|17:185,1,167.000002090335,2|0
8,268,1847986,2,0,B|85:296,1,83.5000010451675,8|0
221,264,1848499,2,0,B|143:235,1,83.5000010451675,2|0
220,344,1849012,2,0,B|299:374,1,83.5000010451675,8|0
432,356,1849525,5,4
508,328,1849781,2,0,B|488:288|445:276,1,83.5000010451675,0|8
364,268,1850294,2,0,B|358:176|289:122,1,167.000002090335
352,68,1851063,2,0,B|296:8,1,83.5000010451675,8|0
216,7,1851576,2,0,B|160:68,1,83.5000010451675,2|0
80,88,1852089,2,0,B|44:168,1,83.5000010451675,8|0
16,240,1852602,1,2
32,312,1852858,2,0,B|104:332|124:260|189:280,1,167.000002090335
323,280,1853627,6,0,B|388:260|408:332|481:311,1,167.000002090335,4|8
456,240,1854397,2,0,B|388:260|408:332|340:352,1,167.000002090335,0|2
256,280,1855166,1,8
148,324,1855422,1,0
104,220,1855679,1,2
212,176,1855935,1,0
256,280,1856192,5,8
104,220,1856448,1,0
164,64,1856704,1,2
316,124,1856961,1,0
316,124,1857089,1,8
316,124,1857217,1,8
420,252,1857474,1,8
420,252,1857602,1,8
420,252,1857730,5,4
476,192,1857986,1,0
500,272,1858243,2,0,B|496:332|424:344|424:344|372:352,1,167.000002090335,8|2
300,312,1859012,1,0
256,240,1859268,1,8
212,312,1859525,1,0
137,351,1859781,2,0,B|87:344|87:344|15:332|10:271,1,167.000002090335,4|8
96,264,1860551,2,0,B|176:244,1,83.5000010451675,0|2
124,180,1861063,2,0,B|200:148,2,83.5000010451675,0|8|0
120,96,1861833,6,0,B|176:28|271:47,1,167.000002090335,4|8
292,160,1862602,1,0
256,264,1862858,1,2
220,160,1863115,1,0
312,224,1863371,1,8
200,224,1863627,1,0
243,48,1863884,6,0,B|336:28|393:97,1,167.000002090335,4|8
460,168,1864653,1,0
408,252,1864909,1,2
424,348,1865166,1,0
324,336,1865422,1,8
244,280,1865679,1,8
224,316,1865807,1,8
188,336,1865935,5,4
168,256,1866192,2,0,B|212:188|306:172,1,167.000002090335,2|0
336,96,1866961,2,0,B|376:112|384:160,1,83.5000010451675,2|0
424,232,1867474,1,8
344,256,1867730,2,0,B|300:188|206:170,1,167.000002090335,4|0
128,158,1868499,2,0,B|136:112|176:96,1,83.5000010451675,8|0
120,12,1869012,2,0,B|112:58|72:74,1,83.5000010451675,2|0
0,116,1869525,1,8
40,188,1869781,1,0
112,148,1870038,1,4
256,64,1870551,6,0,B|288:132|224:236|256:310,2,250.500003135502,8|2|8
256,64,1872217,1,0
380,64,1872474,2,0,B|420:80,1,41.7500005225837
440,192,1872858,2,0,B|376:164|376:164,1,41.7500005225837
240,168,1873371,5,8
204,216,1873499,1,8
144,224,1873627,1,8
92,188,1873756,1,0
88,128,1873884,1,8
124,76,1874012,1,8
184,68,1874140,5,4
292,76,1874397,2,0,B|364:88|360:168|360:168|356:260,1,219.999993443489,2|0
324,364,1875166,1,2
256,276,1875422,1,0
188,364,1875679,1,8
156,260,1875935,2,0,B|152:168|152:168|148:88|220:76,1,219.999993443489,2|0
324,104,1876704,1,8
256,192,1876961,2,0,B|184:104|72:80,1,219.999993443489,2|0
168,24,1877730,1,8
256,192,1877986,6,0,B|328:280|440:304,1,219.999993443489,4|0
352,372,1878756,1,8
252,328,1879012,2,0,B|216:280|160:276,1,109.999996721745,0|2
28,300,1879525,2,0,B|64:348|120:352,1,109.999996721745,0|8
76,224,1880038,1,0
36,120,1880294,6,0,B|32:76|104:40|120:84|136:128|208:92|196:48,1,219.999993443489,4|8
204,156,1881063,1,0
216,208,1881192,2,0,B|228:244|256:244|284:244|296:208,1,109.999996721745,2|0
308,156,1881576,1,2
360,24,1881833,1,8
452,132,1882089,1,2
476,272,1882345,6,0,B|480:316|408:352|392:308|376:264|304:300|316:344,1,219.999993443489,4|8
256,252,1883115,1,0
200,344,1883371,1,2
108,284,1883627,2,0,B|84:176,1,109.999996721745,0|8
164,100,1884140,2,0,B|176:208,1,109.999996721745,0|2
256,132,1884653,2,0,B|256:20,1,109.999996721745,0|8
348,100,1885166,2,0,B|336:208,1,109.999996721745,0|2
404,284,1885679,2,0,B|428:176,1,109.999996721745,0|8
452,68,1886192,1,0
256,40,1886448,5,4
152,80,1886704,1,0
256,196,1886961,1,8
360,304,1887217,1,2
256,344,1887474,1,0
256,196,1887730,1,0
104,192,1887986,5,8
144,296,1888243,1,0
256,196,1888499,1,0
368,88,1888756,1,2
408,192,1889012,1,8
256,196,1889268,1,0
104,192,1889525,1,2
144,88,1889781,5,0
256,40,1890038,1,8
368,88,1890294,1,8
396,136,1890422,1,0
420,184,1890551,1,4
416,296,1890807,2,0,B|368:312|316:288|316:288|256:256|196:288|196:288|144:312|96:296,1,329.999990165234,2|0
148,200,1891833,1,0
256,176,1892089,1,8
403,79,1892345,6,0,B|456:100|456:100|432:152|456:204|456:204|403:224,1,219.999993443489,4|0
256,256,1893115,1,8
109,224,1893371,2,0,B|56:204|56:204|80:152|56:100|56:100|108:80,1,219.999993443489,2|0
256,48,1894140,1,8
344,196,1894397,6,0,B|300:264|204:264|160:196,1,219.999993443489,4|0
152,84,1895166,1,8
256,48,1895422,1,0
360,84,1895679,1,2
440,160,1895935,2,0,B|456:212,1,54.9999983608723,0|2
412,312,1896320,2,0,B|396:260,1,54.9999983608723,0|2
256,176,1896704,5,4
208,328,1896961,1,0
332,232,1897217,1,8
180,232,1897474,1,0
304,328,1897730,1,2
256,256,1897986,1,0
116,308,1898243,5,8
80,264,1898371,1,0
72,208,1898499,1,2
84,156,1898627,1,0
116,112,1898756,1,4
312,12,1899268,5,8
412,52,1899525,1,0
324,120,1899781,1,2
428,156,1900038,1,0
428,336,1900294,5,8
360,248,1900551,2,0,B|292:204|220:316|152:268,1,219.999993443489,4|0
80,184,1901320,1,8
188,160,1901576,1,0
192,104,1901704,1,8
196,48,1901833,1,8
316,48,1902089,5,8
320,104,1902217,1,8
324,160,1902345,1,0
340,212,1902474,1,8
376,256,1902602,1,8
424,280,1902730,1,0
480,288,1902858,1,4
256,132,1917730,5,0
316,192,1917986,1,0
256,252,1918243,1,8
196,192,1918499,1,0
256,92,1918756,5,2
360,272,1919012,1,0
152,272,1919268,1,4
80,232,1919525,6,0,B|93:151,1,82.9999969327451,0|2
56,47,1920038,2,0,B|16:120,2,82.9999969327451,0|8|0
136,32,1920807,1,2
208,68,1921063,1,0
352,100,1921320,6,0,B|388:112|432:92|432:92|420:140|436:176,1,165.99999386549,4|2
424,256,1922089,2,0,B|452:288|496:292,2,82.9999969327451,0|8|0
360,204,1922858,2,0,B|312:272,1,82.9999969327451,2|0
208,360,1923371,6,0,B|147:316|111:364|49:325,1,165.99999386549,4|2
60,240,1924140,2,0,B|108:240|132:208,1,82.9999969327451,0|8
148,88,1924653,2,0,B|152:132|193:153,1,82.9999969327451,0|2
212,232,1925166,2,0,B|180:308,1,82.9999969327451
256,336,1925679,1,0
332,308,1925935,6,0,B|299:231,1,82.9999969327451,0|0
312,148,1926448,1,8
404,60,1926704,1,0
376,180,1926961,1,2
328,68,1927217,1,0
436,132,1927474,1,4
136,180,1927986,5,2
108,60,1928243,1,0
200,140,1928499,1,8
76,132,1928756,1,0
184,68,1929012,1,2
136,180,1929268,1,0
176,296,1929525,6,0,B|340:296,1,165.99999386549,4|2
400,236,1930294,2,0,B|330:191,1,82.9999969327451,0|8
256,152,1930807,1,0
181,191,1931063,2,0,B|112:236,1,82.9999969327451,2|0
80,128,1931576,6,0,B|112:48|112:48|188:24,1,165.99999386549,4|2
256,100,1932345,1,0
324,24,1932602,2,0,B|400:48|400:48|432:128,1,165.99999386549,8|2
408,204,1933371,1,0
388,240,1933499,1,0
356,268,1933627,1,0
308,200,1933884,1,0
256,264,1934140,1,0
204,200,1934397,1,0
256,136,1934653,1,8
104,204,1934909,5,0
124,240,1935038,1,0
156,268,1935166,1,0
256,264,1935422,1,0
256,280,1935679,1,0
136,128,1950038,6,0,B|134:99|134:99,5,27.6666656442484
208,128,1950551,2,0,B|208:95|208:95,5,27.6666656442484
280,128,1951063,2,0,B|280:97|280:97,5,27.6666656442484
352,128,1951576,2,0,B|352:99|352:99,5,27.6666656442484
404,184,1952089,6,0,B|384:244|304:256|304:256|216:268,1,219.999993443489,4|8
104,280,1952858,1,0
128,328,1952986,2,0,B|188:328|228:364,1,109.999996721745,2|0
287,368,1953371,2,0,B|328:332|388:332,1,109.999996721745,2|8
356,228,1953884,6,0,B|384:184|356:124|356:124|384:68|356:16,1,219.999993443489,4|0
256,60,1954653,1,8
155,16,1954909,2,0,B|128:68|156:124|156:124|128:184|156:228,1,219.999993443489,2|0
256,184,1955679,1,8
448,128,1955935,6,0,B|468:208|416:288|348:296,1,219.999993443489,4|0
176,200,1956704,1,8
256,52,1956961,1,0
336,200,1957217,1,2
176,104,1957474,1,0
336,104,1957730,1,8
256,248,1957986,1,0
64,127,1958243,6,0,B|44:208|96:288|164:296,1,219.999993443489,4|8
208,196,1959012,1,2
256,168,1959140,1,0
304,196,1959268,1,2
388,80,1959525,1,0
256,20,1959781,1,8
124,80,1960038,1,2
76,204,1960294,5,4
84,336,1960551,2,0,B|112:288,1,54.9999983608723,2|0
160,244,1960807,1,10
256,152,1961063,2,0,B|256:208,1,54.9999983608723,2|0
256,272,1961320,1,2
428,336,1961576,2,0,B|400:288,1,54.9999983608723,2|0
352,244,1961833,1,10
256,332,1962089,1,0
160,244,1962345,5,2
216,244,1962474,1,0
272,232,1962602,1,0
320,204,1962730,1,0
344,156,1962858,1,8
348,100,1962986,1,0
328,48,1963115,1,0
284,16,1963243,1,0
228,16,1963371,5,2
184,48,1963499,1,0
164,100,1963627,1,0
168,156,1963756,1,0
192,204,1963884,1,8
240,232,1964012,1,0
296,244,1964140,1,0
352,244,1964268,1,0
408,236,1964397,5,4
408,124,1964653,1,0
256,148,1964909,1,8
316,44,1965166,1,2
196,44,1965422,1,0
108,208,1965679,5,2
256,312,1965935,1,8
404,208,1966192,1,4
256,192,1966448,12,4,1968499
76,64,1969012,5,8
180,104,1969268,1,0
140,208,1969525,2,0,B|112:260|56:272,2,109.999996721745,2|0|8
40,160,1970294,6,0,B|72:276|180:320,1,219.999993443489,4|0
256,192,1971063,1,8
332,64,1971320,2,0,B|440:108|472:224,1,219.999993443489,2|0
256,288,1972089,1,8
40,223,1972345,6,0,B|72:108|180:64,1,219.999993443489,4|0
200,172,1973115,2,0,B|312:172,2,109.999996721745,8|0|2
148,268,1973884,1,0
204,272,1974012,2,0,B|256:288|256:288|308:272,1,109.999996721745,2|0
364,268,1974397,1,2
190,203,1974653,6,0,B|116:168|116:64|192:28,1,219.999993443489,4|8
256,116,1975422,1,0
320,28,1975679,2,0,B|396:64|396:168|320:204,1,219.999993443489,4|8
256,292,1976448,1,0
168,360,1976704,6,0,B|204:284|308:284|344:360,2,219.999993443489,4|8|2
144,252,1977986,1,0
40,216,1978243,1,8
56,324,1978499,1,4
256,44,1979012,1,0
456,324,1979525,1,2
192,244,1980038,5,8
180,192,1980166,1,0
204,144,1980294,1,8
256,124,1980422,1,0
308,144,1980551,1,2
332,192,1980679,1,0
320,244,1980807,1,4
256,64,1994397,5,2
336,320,1994825,1,0
128,160,1995254,1,0
384,160,1995682,1,0
176,320,1996111,1,0
256,192,1996539,1,0
336,320,1996968,1,2
336,144,1997397,6,0,B|320:101|256:69|192:101|176:149,1,200
384,32,1998254,1,2
256,192,1998682,1,0
128,32,1999111,1,0
176,240,1999539,2,0,B|192:283|256:315|320:283|336:235,1,200,2|0
128,352,2000397,5,0
256,192,2000825,1,0
384,352,2001254,1,0
472,200,2001682,2,0,B|456:96|456:96|384:32,1,200,0|2
213,100,2002539,2,0,B|192:128|208:176|255:196|304:176|320:128|296:95,1,200
126,33,2003397,2,0,B|56:96|56:96|40:200,1,200,2|0
176,352,2004254,6,0,B|200:312|256:296|256:296|312:312|336:352,1,200,0|2
301,182,2005111,1,0
213,182,2005325,1,0
304,24,2005754,2,0,B|349:50|349:50|368:96,1,100,0|2
208,24,2006397,2,0,B|163:50|163:50|144:96,1,100
339,233,2007254,6,0,B|380:288|348:384|255:424|157:384|125:288|173:223,1,400,2|0
86,73,2008539,2,0,B|108:33|161:17|214:22|256:77|256:77|299:21|352:13|416:31|429:79|429:79,1,400,2|0
336,248,2009825,2,0,B|320:202|256:170|192:202|176:245,1,200,2|0
176,336,2010468,2,0,B|191:381|255:413|319:381|335:338,1,200
256,296,2011111,5,2
336,136,2011539,1,0
176,136,2011968,1,0
256,176,2012182,1,0
336,136,2012397,2,0,B|368:80|336:32|304:16|304:16|256:52|256:52|208:16|208:16|176:32|136:80|180:144,1,400,2|0
94,276,2013682,2,0,B|134:359|222:383|262:386|300:380|377:360|420:275,1,400,2|0
256,192,2014968,5,2
104,112,2015397,1,0
184,64,2015611,2,0,B|199:18|263:-13|327:18|343:61,1,200
408,112,2016254,1,2
256,192,2016682,5,0
168,360,2017111,1,0
256,320,2017325,1,0
340,360,2017539,2,0,B|395:298|408:225|358:155|311:129|254:113|210:125|154:141|108:209|110:255|111:328|188:373,1,600,2|2
32,240,2019254,2,0,B|32:140,1,100
104,84,2019682,1,0
176,248,2020111,2,0,B|200:288|256:304|256:304|312:288|336:248,1,200,2|0
336,156,2020754,2,0,B|312:116|256:100|256:100|200:116|176:156,1,200
256,200,2021397,5,2
356,348,2021825,1,0
480,240,2022254,2,0,B|480:140,1,100,2|0
408,84,2022682,1,0
300,228,2023111,6,0,B|321:256|305:304|258:324|209:304|193:256|217:223,1,200,0|2
256,148,2023754,1,0
256,60,2023968,1,0
100,84,2024397,1,2
100,84,2024611,1,0
100,84,2024825,1,0
175,247,2025254,2,0,B|190:293|254:324|318:293|334:250,2,200,2|0|0
342,361,2026539,5,2
256,200,2026968,1,0
256,200,2027182,1,0
169,361,2027611,1,0
169,361,2027825,1,2
64,203,2028254,6,0,B|92:107|92:107|168:43,1,200,0|2
343,42,2029111,2,0,B|420:107|420:107|448:203,1,200
336,339,2029968,1,2
256,312,2030182,1,0
176,340,2030397,2,0,B|160:282|194:232|256:224|256:224|296:208|328:160|296:112|256:104|216:112|176:160|216:208|256:224|256:224|320:232|355:286|334:348,1,600,0|2
440,192,2032111,5,0
344,40,2032539,1,0
256,16,2032754,1,0
168,40,2032968,1,2
72,192,2033397,1,0
211,312,2033825,2,0,B|190:340|206:388|253:408|302:388|318:340|294:307,1,200,0|2
208,156,2034682,5,0
256,24,2034897,1,0
304,156,2035111,1,2
184,72,2035325,1,0
324,76,2035539,1,0
408,236,2035968,5,2
256,340,2036397,1,0
104,236,2036825,1,2
172,68,2037254,1,0
172,68,2037468,1,0
340,68,2037897,1,0
340,68,2038111,1,0
256,200,2038539,5,2
336,360,2038968,2,0,B|312:320|256:304|256:304|200:320|176:360,1,200,0|2
104,196,2039825,1,0
256,100,2040254,1,2
408,200,2040682,1,0
256,192,2040897,12,0,2043254
256,24,2044325,5,2
301,102,2044539,2,0,B|322:130|306:178|259:198|210:178|194:130|218:97,1,200
340,232,2045397,1,2
256,260,2045611,1,0
172,232,2045825,1,4
76,360,2046254,1,0
436,360,2047111,1,2
334,144,2047539,6,0,B|320:183|265:230|188:199|179:142|179:142,1,200,0|2
212,52,2048182,2,0,B|224:38|241:23|296:26|305:57|305:57,1,100
64,336,2049682,5,2
173,204,2050111,2,0,B|187:236|247:285|320:257|341:200|341:200,1,200,0|2
374,109,2050754,2,0,B|347:44|270:-14|156:19|137:117|137:117,1,300
448,336,2052254,1,2
256,192,2052682,5,0
192,250,2052897,2,0,B|157:294|184:334|233:346|256:312|256:312|282:348|328:336|364:292|309:241,2,300,0|2|0
56,324,2054611,1,0
56,324,2054825,5,2
176,96,2055254,2,0,B|200:56|256:40|256:40|312:56|336:96,1,200,0|2
256,144,2055897,1,0
336,188,2056111,2,0,B|312:228|256:244|256:244|200:228|176:188,1,200
344,356,2057397,2,0,B|312:320|276:336|256:356|256:356|236:332|192:320|160:368,1,200,2|0
256,264,2058039,1,0
359,34,2058682,6,0,B|413:71|379:165|309:209|236:120|188:73|200:24|245:-2|264:-12|283:-2|302:16|321:73|283:120|231:211|109:185|106:73|123:44|171:20,1,600,2|2
256,208,2060397,1,0
212,372,2060825,1,2
300,372,2061039,1,0
136,168,2061682,6,0,B|163:233|240:291|354:258|373:160|373:160,1,300,0|0
337,73,2062539,2,0,B|323:41|263:-8|190:20|169:77|169:77,1,200,2|0
254,129,2063182,1,0
176,352,2063825,1,2
256,316,2064039,1,0
336,352,2064254,1,0
256,192,2064468,12,0,2065968
46,270,2066397,6,0,B|106:194|106:194|46:110,1,200,2|0
299,34,2067254,2,0,B|320:62|304:110|257:130|208:110|192:62|216:29,1,200,2|0
454,270,2068111,2,0,B|394:194|394:194|454:110,1,200,2|0
298,350,2068968,2,0,B|319:322|303:274|256:254|207:274|191:322|215:355,1,200,4|0
480,60,2070254,6,0,B|480:107|412:116|391:71|391:71|372:26|320:26|301:71|301:71|284:116|230:116|211:71|211:71|194:26|140:26|123:71|123:71|99:116|33:107|33:58,2,600
256,200,2073254,5,0
168,360,2073682,1,0
340,360,2074111,2,0,B|395:298|408:225|358:155|311:129|254:113|210:125|154:141|108:209|110:255|111:328|188:373,2,600,8|8|8
472,200,2077325,6,0,B|472:100,1,100,8|8
392,56,2077754,1,0
336,128,2077968,2,0,B|312:168|256:184|256:184|200:168|176:128,1,200,8|0
40,200,2078825,2,0,B|40:100,1,100,8|0
116,52,2079254,1,4
177,271,2079682,6,0,B|201:231|257:215|257:215|313:231|337:271,1,200
299,355,2080325,2,0,B|283:372|256:377|256:377|227:372|213:354,1,100,0|8
144,90,2080968,6,0,B|153:55|199:44|221:77|199:100|209:146|242:133|255:48|255:48|265:133|298:146|310:100|288:77|310:44|364:50|366:88,1,400,0|8
340,268,2082254,1,0
256,304,2082468,1,8
172,268,2082682,1,0
328,360,2083111,5,8
256,196,2083539,1,0
184,360,2083968,1,0
112,194,2084397,2,0,B|172:135|127:69|127:69|216:94|257:0|257:0|292:94|382:69|382:69|339:136|399:194,2,600,8|8|8
206,348,2087397,6,0,B|310:348,1,100,8|8
355,271,2087825,2,0,B|154:271,1,200,8|8
208,40,2088682,6,0,B|312:40,1,100,8|8
357,117,2089111,2,0,B|156:117,1,200,8|4
52,260,2089968,1,0
212,344,2090397,2,0,B|224:358|241:373|296:370|305:339|305:339,1,100,0|2
256,268,2090825,1,8
460,260,2091254,1,0
416,84,2091682,5,2
352,148,2091897,1,0
328,60,2092111,1,8
160,148,2092539,1,0
96,84,2092754,1,8
184,60,2092968,1,0
129,290,2093397,6,0,B|157:341|243:400|353:360|384:290|384:290,1,300,8|0
300,228,2094254,2,0,B|288:242|271:257|216:254|207:223|207:223,1,100,2|0
256,144,2094682,1,8
148,44,2095111,6,0,B|72:112|72:112|56:208,1,200
80,288,2095754,1,0
168,324,2095968,2,0,B|192:360|232:360|256:344|256:344|276:360|320:360|344:324,1,200,8|0
456,208,2096825,2,0,B|440:112|440:112|364:44,1,200,2|8
256,192,2097682,1,0
301,268,2097897,2,0,B|256:288|256:288|210:268,1,100,8|0
48,344,2098539,5,8
192,48,2099182,2,0,B|160:89|184:161|254:190|327:161|351:89|315:40,1,300,2|8
464,344,2100468,1,0
256,272,2100897,5,2
256,360,2101111,1,8
172,208,2101539,2,0,B|186:176|246:127|319:155|340:212|340:212,1,200,0|0
123,97,2102397,2,0,B|158:52|257:5|353:49|389:100,1,300,8|8
388,99,2103254,1,0
332,296,2103682,1,8
256,340,2103897,1,0
180,296,2104111,1,0
176,208,2104325,1,0
256,160,2104539,1,0
336,208,2104754,1,0
256,248,2104968,5,8
256,36,2105611,1,0
256,248,2106039,5,2
176,304,2106254,2,0,B|200:344|256:360|256:360|312:344|336:304,1,200,8|0
411,139,2107111,2,0,B|370:42,1,100,2|0
299,99,2107539,2,0,B|320:127|304:175|257:195|208:175|192:127|216:94,1,200,8|0
139,46,2108182,2,0,B|101:139,1,100,8|0
128,288,2108825,2,0,B|256:368|256:368|384:288,1,300,8|8
300,232,2109682,2,0,B|256:256|256:256|212:232,1,100,8|0
256,152,2110111,1,4
108,52,2110539,5,2
204,204,2110968,2,0,B|210:255|210:255|254:287|302:255|302:255|306:203,1,200,0|8
412,60,2111825,1,2
412,60,2112039,1,0
440,224,2112468,1,0
440,224,2112682,2,0,B|416:324|416:324|328:368|328:368,1,200,8|2
184,368,2113539,2,0,B|97:324|97:324|73:224,1,200,0|8
176,76,2114397,2,0,B|200:116|256:132|256:132|312:116|336:76,1,200,2|8
256,32,2115039,1,0
256,32,2115254,5,4
432,192,2115682,2,0,B|404:171|356:187|336:234|356:283|404:299|437:275,1,200,2|0
256,360,2116539,1,8
80,276,2116968,2,0,B|108:297|156:281|176:234|156:185|108:169|75:193,1,200,2|0
176,40,2117825,5,8
336,40,2118254,1,0
256,96,2118468,1,8
176,40,2118682,1,0
256,200,2119111,1,8
208,348,2119539,5,8
176,260,2119754,1,8
256,200,2119968,1,8
336,260,2120182,1,0
304,348,2120397,1,12
348,72,2120825,6,0,B|288:72|288:72|256:48|256:48|224:72|224:72|164:72,1,200,2|0
160,352,2121682,6,0,B|128:338|79:278|107:205|164:184|164:184,1,200,8|2
256,172,2122325,2,0,B|256:372,1,200,0|2
352,352,2122968,2,0,B|384:338|433:278|405:205|348:184|348:184,1,200,8|0
256,32,2123825,5,2
96,152,2124254,1,8
164,336,2124682,1,2
348,336,2125111,1,0
416,152,2125539,1,0
256,192,2125647,12,0,2127682
348,80,2127897,6,0,B|288:80|288:80|256:56|256:56|224:80|224:80|164:80,1,200,2|0
172,288,2128754,2,0,B|186:256|246:207|319:235|340:292|340:292,1,200,0|0
256,344,2129397,1,8
192,152,2129825,2,0,B|156:56,1,100,8|0
256,68,2130254,1,8
320,152,2130468,2,0,B|356:56,1,100,0|4
426,311,2131111,6,0,B|404:351|351:367|298:362|256:307|256:307|213:363|160:371|96:353|83:305|83:305,1,400,0|8
256,192,2132397,5,0
340,32,2132825,1,2
256,64,2133039,1,0
172,32,2133254,1,8
256,284,2133897,1,8
182,323,2134111,2,0,B|256:387|256:387|336:323,1,200,0|8
320,152,2134968,2,0,B|292:208|292:208|256:188|220:208|220:208|196:152,1,200
144,76,2135611,2,0,B|196:64|232:20|232:20|256:56|256:56|276:20|276:20|320:64|368:76,1,300
404,252,2136682,5,0
256,356,2137111,1,8
108,252,2137539,1,0
164,172,2137754,2,0,B|224:140|256:172|304:220|288:268|224:268|208:220|256:172|288:140|348:172,2,300,0|2|0
256,28,2139468,5,0
256,28,2139682,1,8
396,140,2140111,1,8
344,216,2140325,1,8
256,240,2140539,1,0
168,216,2140754,1,8
116,140,2140968,1,12
113,306,2141397,2,0,B|128:352|192:368|224:336|224:288|184:272|152:320|204:368|256:368|256:368|308:368|360:320|328:272|288:288|288:336|324:368|400:344|403:296,1,456.000004348755,0|8
256,144,2142682,1,0
256,56,2142897,1,0
344,360,2143539,6,0,B|294:310|319:215|378:210|418:265|378:315|304:290|254:225|254:225|204:290|129:315|89:265|129:210|189:215|214:310|164:360,1,600,0|8
172,68,2145254,2,0,B|186:36|246:-13|319:15|340:72|340:72,1,200,0|2
373,163,2145897,2,0,B|346:228|269:286|155:253|136:155|136:155,2,300,0|0|2
440,224,2147397,5,8
213,335,2147825,2,0,B|236:352|256:360|256:360|277:351|304:331,1,100,0|2
76,228,2148682,1,8
256,192,2148789,12,2,2151254
60,85,2151682,6,0,B|32:134|31:182,1,100,2|8
120,156,2152111,2,0,B|98:269|152:358,1,200,0|8
451,298,2152968,6,0,B|479:249|480:201,1,100,8|8
391,227,2153397,2,0,B|413:114|359:25,1,200,8|4
256,192,2154254,5,0
33,334,2155111,6,0,B|33:287|101:278|122:323|122:323|141:368|193:368|212:323|212:323|229:278|283:278|302:323|302:323|319:368|373:368|390:323|390:323|414:278|480:287|480:336,1,600,8|8
256,152,2157039,1,8
176,108,2157254,2,0,B|192:65|256:33|320:65|336:113,2,200,8|8|8
256,264,2158539,1,8
80,336,2158968,6,0,B|132:368|160:336|176:320|176:320|192:336|208:352|232:344|232:344|256:368|280:344|280:344|304:352|320:336|336:320|336:320|352:336|380:368|432:336,1,400,8|0
340,172,2160254,2,0,B|381:116|349:21|256:-18|159:21|127:116|175:181,1,400,8|0
157,353,2161539,2,0,B|358:353,1,200,8|0
306,276,2162182,2,0,B|202:276,1,100,8|0
56,176,2162825,5,8
157,31,2163254,2,0,B|358:31,1,200,0|8
306,108,2163897,2,0,B|202:108,1,100,0|4
256,280,2164539,1,0
456,176,2164968,5,0
380,228,2165182,1,0
464,268,2165397,1,8
300,364,2165825,2,0,B|321:336|305:288|258:268|209:288|193:336|217:369,1,200
256,192,2166682,1,8
56,176,2167111,1,0
132,228,2167325,1,8
48,264,2167539,1,0
256,192,2167968,5,8
300,20,2168397,2,0,B|321:48|305:96|258:116|209:96|193:48|217:15,1,200
97,157,2169254,2,0,B|128:223|176:255|256:301|335:255|383:223|415:160,1,400,8|0
437,320,2170539,2,0,B|368:384|256:416|139:386|72:316,1,400,8|0
165,176,2171825,2,0,B|195:207|256:237|316:207|346:176,1,200,8|0
352,88,2172468,2,0,B|296:0,1,100,8|0
213,5,2172897,2,0,B|159:89,1,100,8|8
48,232,2173539,5,8
24,320,2173754,1,0
104,360,2173968,1,8
176,304,2174182,1,0
136,224,2174397,1,4
76,56,2174825,2,0,B|128:20|112:100|207:51|191:51|191:51|223:83|255:50|255:50|287:83|330:51|314:51|314:51|384:100|384:20|442:59,1,400,0|8
464,232,2176111,5,8
488,320,2176325,1,0
408,360,2176539,1,8
336,304,2176754,1,0
376,224,2176968,1,8
312,56,2177397,2,0,B|416:104|416:104,1,100
200,56,2178039,2,0,B|96:104|96:104,1,100,0|8
176,264,2178682,2,0,B|232:272|256:216|256:216|280:272|336:264,1,200
344,360,2179325,1,0
344,360,2179539,2,0,B|312:396|276:380|256:360|256:360|236:384|192:396|160:348,2,200,4|0|0
367,36,2180825,6,0,B|398:21|475:23|512:92|491:149|491:149,1,200,8|2
456,240,2181468,2,0,B|392:271|296:264|232:164|282:78|282:78,1,300,0|2
256,336,2182754,1,0
256,336,2182968,1,0
256,152,2183397,1,8
145,36,2183825,2,0,B|114:21|37:23|0:92|21:149|21:149,1,200,8|2
56,240,2184468,2,0,B|120:271|216:264|280:164|230:78|230:78,1,300,0|2
388,164,2185539,5,0
256,360,2185968,1,8
124,164,2186397,1,2
180,308,2186825,1,0
256,272,2187039,1,0
332,308,2187254,1,8
256,24,2187897,5,8
256,216,2188325,1,0
336,172,2188539,2,0,B|312:132|256:116|256:116|200:132|176:172,2,200,8|0|0
428,337,2189825,2,0,B|397:384|334:368|272:337|319:306|319:259|303:243|256:228|209:243|194:259|194:306|241:337|178:368|116:384|85:337,1,456.000004348755,4|0
16,176,2191111,2,0,B|59:186|103:161|113:118|113:118|114:83|115:49|81:30|46:46|28:80|44:116|78:117|113:118|113:118|157:111|184:69|177:25,1,456.000004348755,8|0
334,24,2192397,2,0,B|327:69|354:111|398:118|398:118|433:117|467:116|483:80|465:46|430:30|396:49|397:83|398:118|398:118|408:161|452:186|496:176,1,456.000004348755,8|0
464,254,2193468,1,0
404,328,2193682,5,8
256,192,2194111,1,0
176,124,2194325,1,8
208,36,2194539,1,8
304,36,2194754,1,0
336,124,2194968,1,12
96,226,2195397,2,0,B|112:308|179:376|252:395|355:368|404:296|422:226,1,456.000004348755,0|8
256,104,2196682,5,0
44,48,2197111,1,0
104,116,2197325,1,0
176,56,2197539,2,0,B|192:13|256:-19|320:13|336:61,1,200,8|0
336,148,2198182,2,0,B|320:191|256:223|192:191|176:143,1,200,8|0
256,104,2198825,5,8
164,300,2199254,1,0
348,300,2199682,1,0
256,192,2200111,12,8,2201397
256,192,2201504,12,8,2202682
256,192,2202789,12,4,2205254
384,80,2225825,5,4
128,80,2226468,1,2
132,308,2227111,1,8
384,308,2227754,1,2
256,192,2228182,5,0
336,148,2228397,1,8
336,60,2228611,1,0
256,24,2228825,1,2
176,60,2229039,1,0
176,148,2229254,1,0
256,192,2229468,1,0
320,256,2229682,2,0,B|351:297|327:368|257:398|185:368|161:297|196:248,1,300,8|2
108,228,2230539,5,0
72,208,2230682,1,0
52,168,2230825,1,0
56,128,2230968,2,0,B|64:76|112:28|176:36|212:76|212:76,1,200,8|0
288,120,2231611,2,0,B|348:140|388:104|388:104,1,100,2|0
468,96,2232039,1,0
440,180,2232254,2,0,B|395:224|395:268|395:313|440:357,1,200,8|2
256,364,2233111,2,0,B|256:156,1,200,0|8
72,180,2233968,2,0,B|116:224|116:268|116:313|72:357,2,200,2|0|8
48,136,2234968,1,0
56,88,2235111,1,0
88,60,2235254,2,0,B|112:32|148:32|172:68|172:68|196:100|236:104|260:72,1,200,2|0
344,48,2235897,5,0
428,80,2236111,2,0,B|496:88|508:160|492:220|440:240|372:224|372:224,1,200,4|0
452,308,2236754,2,0,B|404:328|344:296|328:244|328:204|356:176|356:176,1,200,2|0
336,100,2237397,2,0,B|312:60|256:44|256:44|200:60|176:100,1,200,8|0
164,188,2238039,2,0,B|156:176|184:204|184:244|168:296|108:328|60:308,1,200,2|0
76,220,2238682,1,8
88,132,2238897,1,0
172,100,2239111,5,2
212,109,2239218,1,0
245,142,2239325,1,0
304,208,2239539,1,0
388,172,2239754,1,0
468,212,2239968,2,0,B|500:248|500:304|468:364|388:344|388:344,1,200,8|2
368,328,2240539,1,0
345,310,2240682,1,0
314,311,2240825,1,0
285,326,2240968,1,0
252,331,2241111,1,0
230,317,2241254,2,0,B|193:288|193:230|252:200|252:200|310:171|310:113|252:80,1,300,4|2
176,48,2242111,6,0,B|136:92|80:76|80:76,1,100,0|0
80,156,2242539,1,8
168,324,2242968,5,2
344,324,2243397,1,0
432,156,2243825,1,4
256,32,2244254,1,2
176,76,2244468,2,0,B|192:119|256:151|320:119|336:71,1,200,8|0
407,131,2245111,5,0
388,154,2245218,1,0
366,175,2245325,1,0
341,192,2245432,1,0
313,202,2245539,1,0
283,210,2245647,1,0
256,212,2245754,1,0
229,210,2245861,1,0
199,202,2245968,1,0
171,192,2246075,1,0
146,175,2246182,1,0
124,154,2246289,1,0
105,131,2246397,1,4
52,240,2246825,5,2
140,320,2247254,1,0
256,348,2247682,1,8
372,320,2248111,1,2
460,240,2248539,1,0
488,156,2248754,1,0
404,172,2248968,6,0,B|320:128|320:128|304:20,1,200,8|2
207,23,2249611,1,0
207,23,2249825,2,0,B|192:128|192:128|108:172,1,200,0|8
336,292,2250682,6,0,B|322:324|262:373|189:345|168:288|168:288,1,200,2|0
135,197,2251325,2,0,B|162:132|239:74|353:107|372:205|372:205,1,300,2|0
152,36,2252397,1,2
360,36,2252825,1,8
256,192,2253254,5,0
192,250,2253468,2,0,B|157:294|184:334|233:346|256:312|256:312|282:348|328:336|364:292|309:241,2,300,2|8|0
56,324,2255182,5,2
56,324,2255397,1,8
176,96,2255825,2,0,B|200:56|256:40|256:40|312:56|336:96,1,200,2|0
256,144,2256468,1,0
336,188,2256682,2,0,B|312:228|256:244|256:244|200:228|176:188,1,200,4|0
456,324,2257539,1,0
256,364,2257968,1,8
56,324,2258397,1,2
92,232,2258611,6,0,B|140:232|152:194|150:166|150:166|182:167|220:143|206:87,1,200,0|0
303,101,2259254,2,0,B|298:142|329:167|361:166|361:166|359:194|371:232|420:232,1,200,2|0
376,312,2259897,2,0,B|324:324|324:324|300:372,1,100,8|0
208,365,2260325,2,0,B|188:324|188:324|136:312,1,100,0|8
56,128,2260968,5,2
256,104,2261397,1,0
304,20,2261611,1,0
208,20,2261825,1,8
372,132,2262254,2,0,B|345:197|268:255|154:222|135:124|135:124,1,300,2|0
56,188,2263111,2,0,B|76:240|144:300|220:308,1,200,8|0
304,306,2263754,2,0,B|372:294|436:240|456:188,1,200,2|0
456,187,2264397,1,2
256,192,2264504,12,8,2265682
256,192,2265789,12,10,2266968
184,124,2267397,5,8
256,76,2267611,1,8
328,124,2267825,1,8
304,212,2268039,1,0
212,212,2268254,1,8
256,352,2268682,5,8
80,68,2269111,1,8
432,64,2269539,1,12
466,303,2269968,2,0,B|466:182|332:145|256:220|256:220|142:315|199:391|256:411|313:391|370:315|256:220|256:220|180:145|9:172|46:321|46:321,1,1000,0|8
256,32,2272754,1,8
176,76,2272968,2,0,B|192:119|256:151|320:119|336:71,1,200,8|8
256,200,2273825,5,0
168,360,2274254,1,0
340,360,2274682,2,0,B|395:298|408:225|358:155|311:129|254:113|210:125|154:141|108:209|110:255|111:328|188:373,2,600,8|8|8
472,200,2277897,6,0,B|472:100,1,100,8|8
392,56,2278325,1,8
336,128,2278539,2,0,B|312:168|256:184|256:184|200:168|176:128,1,200,4|0
40,200,2279397,2,0,B|40:100,1,100,2|0
116,52,2279825,1,4
177,271,2280254,6,0,B|201:231|257:215|257:215|313:231|337:271,1,200
299,355,2280897,2,0,B|283:372|256:377|256:377|227:372|213:354,1,100,0|8
144,90,2281539,6,0,B|153:55|199:44|221:77|199:100|209:146|242:133|255:48|255:48|265:133|298:146|310:100|288:77|310:44|364:50|366:88,1,400,0|8
340,268,2282825,5,0
256,304,2283039,1,8
172,268,2283254,1,0
328,360,2283682,5,8
256,196,2284111,1,0
184,360,2284539,1,0
256,196,2284968,5,4
256,192,2285075,12,0,2286254
256,192,2286361,12,0,2287539
256,192,2287647,12,0,2290111
192,144,2308992,6,0,B|160:96|96:80,2,100,2|0|0
256,112,2309663,2,0,B|256:0,2,100,2|0|0
320,144,2310335,2,0,B|352:96|416:80,2,100,2|0|0
256,192,2311006,1,0
176,304,2311678,2,0,B|208:352|256:368|256:368|304:352|336:304,1,200,4|4
416,128,2312574,6,0,B|416:64|352:48,2,100,2|0|0
256,144,2313245,2,0,B|256:32,2,100,2|0|0
96,128,2313917,2,0,B|96:64|160:48,2,100,2|0|0
256,144,2314589,1,0
164,336,2315260,2,0,B|208:305|256:345|256:345|304:305|348:335|348:335,1,200,4|4
256,256,2316156,5,0
208,176,2316380,1,0
112,192,2316603,1,2
64,112,2316827,2,0,B|112:96|144:48,2,100,0|8|0
192,112,2317499,2,0,B|256:32|384:48,1,200,2|0
352,128,2318171,1,0
336,208,2318394,2,0,B|336:272|400:304,1,100,2|0
464,304,2318842,2,0,B|464:240|400:208,1,100,8|0
352,128,2319290,5,2
208,80,2319514,1,0
112,192,2319738,2,0,B|64:224|80:288,1,100
256,256,2320186,2,0,B|208:240|144:256,1,100,2|0
112,192,2320633,1,8
80,112,2320857,1,0
160,80,2321081,2,0,B|256:128|352:80,1,200,2|0
400,160,2321753,5,0
352,240,2321977,2,0,B|351:240|307:270|259:230|259:230|211:270|167:239,1,200,2|8
96,176,2322648,1,0
64,256,2322872,2,0,B|64:304|80:368|176:368|208:352,1,200,2|4
192,272,2323544,5,0
256,208,2323768,1,2
320,272,2323991,1,0
311,354,2324215,2,0,B|336:368|432:368|448:304|448:256,1,200,8|0
416,176,2324887,2,0,B|384:112|416:48,2,100,0|0|0
320,192,2325559,1,2
224,192,2325783,2,0,B|224:256|176:288,1,100,0|8
160,128,2326230,2,0,B|160:64|112:32,1,100,0|2
224,192,2326678,1,0
160,128,2326902,1,4
64,128,2327126,5,0
192,48,2327350,1,2
224,192,2327574,1,0
304,112,2327797,2,0,B|400:48|512:80,1,200,8|2
464,160,2328469,2,0,B|432:208|432:272,2,100,0|0|0
464,336,2329141,1,2
384,304,2329365,1,0
304,256,2329589,2,0,B|256:288|208:256,1,100,8|0
124,304,2330036,2,0,B|188:96,1,200,2|4
156,16,2330708,6,0,B|188:128,1,100,0|2
272,128,2331156,1,0
352,176,2331380,2,0,B|304:288|368:384,1,200,8|0
153,368,2332051,2,0,B|208:288|160:176,1,200
64,176,2332723,2,0,B|96:224|96:272,1,100,2|0
192,84,2333171,2,0,B|160:132|160:180,1,100,8|0
256,192,2333618,1,2
160,336,2334066,6,0,B|256:384|352:336,2,200,4|0|8
160,256,2335186,1,2
160,256,2335409,2,0,B|256:320|352:256,1,200,4|0
344,168,2336081,6,0,B|360:116|332:72,1,100,0|4
256,144,2336529,1,0
256,144,2336641,1,0
256,144,2336753,1,12
192,80,2336977,1,0
128,144,2337200,2,0,B|160:192|128:240,1,100,8|0
240,336,2337648,6,0,B|192:240|256:144,1,200,4|2
320,96,2338320,2,0,B|368:64|416:64,2,100,0|8|0
380,164,2338991,1,0
380,164,2339215,2,0,B|300:248|180:204,1,200,2|2
284,108,2339887,1,8
284,108,2340111,2,0,B|304:220|244:304,1,200,8|2
160,236,2340783,1,2
64,288,2341006,6,0,B|48:240|64:176,1,100,0|4
48,16,2341454,2,0,B|64:64|48:128,1,100,0|2
128,144,2341902,2,0,B|240:112,1,100,0|8
304,128,2342350,1,0
256,304,2342797,6,0,B|336:384|464:352,2,200,0|0|0
381,253,2343917,2,0,B|381:189|333:157,1,100,8|0
253,205,2344365,2,0,B|269:253|253:317,1,100,2|0
173,253,2344812,5,4
32,128,2345036,2,0,B|32:64|80:32,1,100,0|2
160,80,2345484,2,0,B|144:128|160:192,1,100,0|8
240,192,2345932,1,0
288,112,2346156,1,2
368,272,2346380,6,0,B|384:208|336:176,1,100,0|0
288,256,2346827,2,0,B|272:320|320:352,1,100,0|2
288,256,2347275,1,0
352,176,2347499,1,8
392,80,2347723,2,0,B|320:80|256:32|256:32|192:80|104:80,1,300,0|4
80,160,2348618,5,0
64,256,2348842,2,0,B|192:240,1,100,2|0
224,320,2349290,2,0,B|96:336,1,100,8|0
346,300,2349738,2,0,B|273:227|161:243,1,200,2|0
176,144,2350409,1,0
224,64,2350633,5,2
400,48,2350857,1,0
336,192,2351081,1,0
256,80,2351305,5,0
352,64,2351529,1,0
320,160,2351753,1,0
240,256,2351977,6,0,B|144:176|208:48,1,224.999993294478,4|2
140,112,2352872,2,0,B|120:204|27:226,1,149.999995529652,8|0
48,220,2353544,1,0
88,300,2353768,1,2
168,344,2353991,1,8
256,364,2354215,2,0,B|336:348,1,74.9999977648259,0|0
420,344,2354663,6,0,B|356:280|404:200,1,149.999995529652,8|2
464,144,2355335,1,0
384,108,2355559,2,0,B|316:68|240:120,1,150.000005722046,0|2
260,208,2356230,1,0
260,208,2356454,2,0,B|276:112|212:48|132:32|68:80,1,299.999991059304,10|0
132,144,2357574,6,0,B|168:140|184:188,2,75.0000028610231,8|2|8
140,328,2358245,2,0,B|140:232|252:200,1,149.999995529652,8|2
216,212,2358917,1,8
372,328,2359141,2,0,B|372:232|260:200,1,149.999995529652,4|2
256,132,2359812,1,0
184,80,2360036,2,0,B|256:48|256:48|328:80,2,149.999995529652,8|2|0
108,128,2361156,1,8
96,216,2361380,6,0,B|224:312,1,149.999995529652,2|8
256,224,2362051,1,2
416,216,2362275,2,0,B|288:312,2,149.999995529652,0|4|2
420,128,2363394,1,8
336,92,2363618,2,0,B|288:44|224:28|144:44|96:92|80:156,2,299.999991059304,8|0|8
288,176,2365633,5,0
160,256,2365857,1,4
304,320,2366081,1,0
288,176,2366305,5,6
224,80,2366529,2,0,B|160:112|96:96,1,100,2|0
48,48,2366977,2,2,B|16:96|48:160,1,100,2|0
128,176,2367424,2,2,B|144:240|112:272,1,100,0|2
160,368,2367872,2,2,B|240:288|224:176,1,200
128,176,2368544,5,0
227,187,2368768,2,2,B|259:139|307:123,1,100
464,48,2369215,2,0,B|432:80|368:96,1,100,2|0
368,192,2369663,2,2,B|480:224|480:352,1,200,6|2
384,320,2370335,5,0
288,336,2370559,1,2
192,352,2370783,1,0
96,352,2371006,2,0,B|128:304|96:256,1,100,2|0
97,258,2371454,2,2,B|0:192|48:64,1,200
144,80,2372126,1,0
240,112,2372350,5,0
336,80,2372574,1,2
416,128,2372797,1,0
416,32,2373021,1,2
416,128,2373245,2,2,B|320:192|304:288,1,200,4|0
384,320,2373917,2,0,B|288:256|160:304,1,200,2|0
112,336,2374589,1,0
80,256,2374812,1,0
80,256,2375036,2,2,B|48:128|144:80,1,200,2|2
208,144,2375708,6,2,B|256:160|320:144,1,100,0|2
432,80,2376156,2,2,B|381:66|333:82,1,100
240,64,2376603,1,0
144,64,2376827,2,2,B|64:128|80:272,1,200,6|0
32,176,2377499,1,0
32,176,2377723,2,2,B|112:256|32:384,1,200,6|0
120,296,2378394,2,2,B|196:196|325:267,1,200,0|4
480,296,2379066,2,0,B|428:304|380:276,1,100
432,96,2379514,5,0
336,192,2379738,1,4
472,220,2379962,1,0
428,112,2380186,1,4
352,184,2380409,1,0
456,208,2380633,1,4
256,192,2381081,6,2,B|160:112,1,100
96,112,2381529,1,2
96,112,2381753,1,0
48,192,2381977,1,2
48,192,2382200,2,2,B|204:316,1,200
288,320,2382872,2,0,B|352:304|352:240,2,100,0|0|2
288,320,2383544,1,0
256,144,2383768,6,0,B|256:192|288:256,2,100,2|0|4
192,64,2384439,2,2,B|184:121|126:149,1,100,2|2
32,144,2384887,2,0,B|80:192|64:272,1,100,2|0
128,320,2385335,1,2
32,320,2385559,1,0
128,320,2385783,6,2,B|176:224|304:256,1,200,6|0
416,240,2386454,2,0,B|360:136|240:176,1,200,0|0
188,92,2387126,1,4
288,48,2387350,1,0
368,112,2387574,1,0
264,168,2387797,5,6
368,112,2388021,2,2,B|432:96|480:32,2,100,0|2|2
331,208,2388693,2,2,B|224:272|203:384,1,200,0|2
208,358,2389365,1,0
304,360,2389589,2,2,B|277:248|186:198,1,200,6|2
128,128,2390260,1,0
164,48,2390484,2,0,B|208:17|256:57|256:57|304:17|348:47|348:47,1,200,2|0
384,128,2391156,1,2
128,128,2391603,1,4
256,192,2391827,12,0,2394066
256,48,2401678,5,0
256,48,2401790,1,0
256,48,2401902,1,0
256,48,2402014,1,0
256,48,2402126,1,4
208,112,2402350,6,0,B|256:144|304:112,1,100,0|2
344,176,2402797,1,0
344,176,2403021,2,0,B|312:208|256:224|192:208|152:168,1,200,8|0
64,160,2403693,1,2
32,240,2403917,1,0
160,176,2404141,2,0,B|224:176|256:128,1,100,0|2
160,96,2404589,2,0,B|128:48|160:-16,1,100,0|8
240,32,2405036,2,0,B|309:113|453:97,1,200
432,192,2405708,1,4
384,272,2405932,5,0
336,352,2406156,1,2
256,304,2406380,2,0,B|256:192,1,100,0|8
176,176,2406827,1,0
176,176,2407051,2,0,B|192:48|64:32,2,200,2|0|2
256,144,2408171,1,2
256,144,2408394,2,0,B|272:32|400:32,1,200,8|2
448,208,2409066,1,0
448,208,2409290,6,0,B|432:144|448:96,1,100,4|0
352,144,2409738,2,0,B|368:192|352:256,1,100,2|0
272,288,2410186,2,0,B|256:224|272:176,1,100,8|0
176,224,2410633,2,0,B|192:272|176:336,1,100,2|0
96,320,2411081,5,0
64,224,2411305,1,0
80,128,2411529,2,0,B|176:64,1,100,2|0
256,96,2411977,1,8
353,76,2412200,2,0,B|449:12,1,100,2|0
416,144,2412648,1,2
416,144,2412872,6,0,B|464:240|416:352,2,200,8|0|8
336,176,2413991,1,0
240,176,2414215,1,2
288,256,2414439,1,0
240,176,2414663,1,0
144,176,2414887,1,0
192,256,2415111,1,10
240,176,2415335,5,0
240,176,2415447,1,0
240,176,2415559,1,12
144,48,2415783,1,0
336,48,2416006,1,8
240,176,2416230,1,0
240,176,2416454,1,4
304,240,2416678,5,0
352,320,2416902,2,0,B|384:272|448:256,1,100,2|0
432,176,2417350,2,0,B|320:144|320:16,1,200,8|2
240,48,2418021,2,0,B|208:160|64:160,1,200,0|2
48,256,2418693,1,2
96,352,2418917,1,0
96,352,2419141,2,0,B|144:240|256:240,2,200,8|0|4
208,352,2420260,5,0
304,352,2420484,1,2
400,352,2420708,1,0
400,352,2420932,2,0,B|352:240|240:240,1,200,8|0
176,192,2421603,5,0
144,112,2421827,1,2
240,128,2422051,1,0
240,128,2422275,2,0,B|352:128|416:16,1,200,0|8
464,144,2422947,1,0
416,272,2423171,1,2
256,352,2423618,5,4
160,336,2423842,2,0,B|112:240|176:144,1,200
112,96,2424514,2,0,B|160:64|208:64,2,100,8|0|2
288,80,2425186,1,0
368,128,2425409,1,0
352,224,2425633,1,0
432,352,2425857,6,0,B|416:304|448:256,1,100,2|0
256,208,2426305,2,0,B|256:320,1,100,8|0
80,352,2426753,2,0,B|96:304|64:256,1,100,2|0
64,160,2427200,1,4
144,112,2427424,2,0,B|272:80,2,100,0|2|0
192,192,2428096,2,0,B|208:320,1,100,8|0
307,291,2428544,2,0,B|320:192,1,100,2|0
256,96,2428991,5,0
208,176,2429215,1,8
304,176,2429439,1,0
256,64,2429663,1,0
176,176,2429887,1,4
336,176,2430111,1,0
388,272,2430335,1,0
256,304,2430559,1,0
128,272,2430783,6,0,B|128:144|48:64,1,224.999993294478,4|0
168,88,2431678,2,0,B|252:100|312:40,1,150.000005722046,8|0
396,40,2432350,1,8
452,108,2432574,1,0
416,192,2432797,1,0
328,176,2433021,1,8
320,88,2433245,1,0
416,192,2433469,6,0,B|467:195|491:221,1,74.9999977648259,8|0
420,280,2433917,2,0,B|384:364|288:344,1,150.000005722046,0|4
324,260,2434589,1,0
324,260,2434812,2,0,B|332:180|402:139,2,149.999995529652,0|8|0
300,348,2435932,1,8
220,200,2436156,1,0
400,140,2436380,6,0,B|352:140|320:108,2,74.9999977648259,8|8|0
348,32,2437051,2,0,B|348:120|260:144,1,150.000005722046,8|0
260,232,2437723,1,0
260,60,2437947,2,0,B|163:69|157:170,1,149.999995529652,4|0
156,244,2438618,1,0
256,336,2438842,2,0,B|352:336|360:248,2,150.000005722046,8|0|0
256,336,2439962,1,8
268,248,2440186,6,0,B|168:124,1,150.000005722046,0|8
120,204,2440857,1,0
80,124,2441081,2,0,B|168:112|196:40,2,150.000005722046,0|4|0
120,204,2442200,1,8
168,280,2442424,2,0,B|216:328|280:344|360:328|408:280|424:216,2,299.999991059304,8|0|0
224,208,2444439,5,0
352,128,2444663,1,0
224,64,2444887,1,0
128,80,2445111,6,2,B|80:112|96:192,1,100,6|2
48,256,2445559,1,0
96,336,2445783,2,0,B|160:320|224:368,1,100,0|2
288,352,2446230,1,0
368,320,2446454,1,2
288,352,2446678,2,2,B|240:256|288:160,1,200
288,64,2447350,2,0,B|176:48,1,100
352,128,2447797,2,2,B|464:144,1,100,2|0
400,224,2448245,5,2
400,320,2448469,2,2,B|304:272|192:320,1,200,6|0
128,352,2449141,2,2,B|144:288|128:240,1,100,2|0
80,64,2449589,2,2,B|64:128|80:176,1,100,2|2
176,192,2450036,1,0
176,192,2450260,2,2,B|64:224|48:352,1,200
128,256,2450932,6,0,B|240:304,1,100
288,368,2451380,1,2
384,320,2451603,2,0,B|475:280,1,100
464,176,2452051,6,2,B|352:176|288:48,1,200,6|0
302,73,2452723,1,2
180,56,2452947,1,0
152,180,2453171,1,2
276,204,2453394,1,0
152,180,2453618,1,2
32,256,2453842,2,2,B|80:368|224:352,1,200,0|2
256,288,2454514,1,0
320,352,2454738,6,2,B|384:336|400:256,2,100,0|2|2
256,288,2455409,1,0
320,224,2455633,2,2,B|384:112|512:144,1,200,4|0
400,128,2456305,1,0
400,128,2456529,2,2,B|272:112|256:0,1,200,2|0
176,32,2457200,2,2,B|192:160|64:208,1,200,0|2
64,288,2457872,1,0
64,288,2458096,6,0,B|128:288|176:336,1,100
352,348,2458544,1,4
240,352,2458768,1,0
288,272,2458991,1,0
304,256,2459103,1,0
320,240,2459215,1,0
336,224,2459327,1,0
352,208,2459439,1,4
256,48,2459887,6,0,B|176:128,2,100,0|2|2
320,112,2460559,2,2,B|240:192,1,100
384,176,2461006,2,2,B|240:320,1,200
160,336,2461678,1,0
80,288,2461902,1,0
64,192,2462126,6,0,B|48:144|64:80,1,100,2|0
128,144,2462574,2,2,B|144:192|128:256,1,100,2|0
208,208,2463021,2,0,B|224:80|352:64,1,200,2|0
416,96,2463693,1,0
384,176,2463917,2,0,B|432:384,2,200,2|2|0
304,224,2465036,1,0
304,224,2465260,6,0,B|336:336,1,100
192,240,2465708,2,0,B|160:128,1,100
32,112,2466156,1,0
144,32,2466380,1,0
144,32,2466603,6,2,B|192:64|240:48,2,100,6|0|0
144,128,2467275,2,2,B|224:192|208:320,1,200
304,304,2467947,1,0
304,304,2468171,2,2,B|289:188|369:124,1,200
416,48,2468842,5,4
256,32,2469066,1,0
96,48,2469290,1,4
192,128,2469514,1,0
320,128,2469738,1,0
256,240,2469962,1,0
256,240,2470409,1,0
256,192,2470633,12,0,2472872
256,64,2487424,5,0
256,64,2487648,1,0
432,192,2488096,5,4
368,256,2488320,2,0,B|368:368,2,100,0|0|8
336,176,2488991,2,0,B|240:112,2,100,0|0|8
256,224,2489663,2,0,B|160:160,2,100,0|0|8
176,272,2490335,2,0,B|112:272|80:336,2,100,0|0|8
336,272,2491006,2,0,B|400:272|432:336,2,100,0|0|8
384,192,2491678,5,4
416,112,2491902,1,0
384,32,2492126,1,0
256,32,2492350,5,8
256,128,2492574,1,0
256,224,2492797,1,0
128,192,2493021,5,8
96,112,2493245,1,0
128,32,2493469,1,0
256,32,2493693,6,0,B|256:160,3,100,8|0|0|8
352,128,2494589,1,0
432,176,2494812,2,0,B|384:208|400:288,1,100,8|0
448,336,2495260,6,0,B|456:296|440:264|380:264|380:264|296:264,1,200,4|8
124,256,2495932,2,0,B|116:216|132:184|192:184|192:184|276:184,1,200,0|8
416,176,2496603,2,0,B|424:136|408:104|348:104|348:104|264:104,1,200,0|8
164,104,2497275,2,0,B|100:24,2,100,0|0|8
100,184,2497947,2,0,B|4:104,2,100,0|0|8
256,192,2498618,1,0
256,192,2498842,12,4,2500633
384,48,2500857,6,0,B|368:112|384:160,1,100
336,272,2501305,1,0
336,272,2501529,2,0,B|272:64,1,200,4|0
176,64,2502200,2,0,B|64:80,1,100,0|4
64,176,2502648,6,0,B|32:304,1,100,8|0
144,192,2503096,2,0,B|112:304,1,100,0|8
224,208,2503544,2,0,B|192:320,1,100,0|8
384,240,2503991,6,0,B|416:112,1,100
304,224,2504439,2,0,B|336:112,1,100,8|0
224,208,2504887,2,0,B|256:95,1,100,0|8
176,48,2505335,5,0
80,80,2505559,1,8
48,176,2505783,1,0
64,272,2506006,5,4
256,352,2506454,1,0
448,272,2506902,1,4
352,96,2507350,1,0
160,96,2507797,1,4
256,272,2508245,2,0,B|292:185|228:158|260:74,2,200,0|4|0
256,192,2509589,12,4,2513171
336,48,2526380,5,0
304,80,2526603,1,0
272,112,2526827,1,0
240,144,2527051,1,0
208,176,2527275,1,0
128,240,2527499,5,6
48,304,2527723,2,2,B|144:336,1,100,2|0
304,320,2528171,2,2,B|208:288,1,100,2|0
304,224,2528618,1,2
336,144,2528842,1,0
304,224,2529066,2,2,B|496:288,1,200
464,192,2529738,6,0,B|432:144|464:80,1,100
256,64,2530186,2,2,B|368:80,1,100
176,32,2530633,1,0
176,32,2530857,2,2,B|176:160|16:192,1,200,6|0
32,352,2531529,6,2,B|80:240,1,100,2|0
208,304,2531977,1,2
160,208,2532200,1,0
71,261,2532424,1,0
208,304,2532648,2,2,B|272:304|272:304|320:296|320:296|408:296,1,200,2|2
448,204,2533320,6,0,B|320:204,1,100
256,56,2533768,2,0,B|300:160,1,100,2|0
220,216,2534215,1,0
220,216,2534439,2,2,B|132:216|132:216|84:224|84:224|20:224,1,200,6|0
80,308,2535111,1,2
80,308,2535335,1,0
80,308,2535559,2,2,B|132:276|148:216|120:164|72:152,1,200,2|0
71,152,2536230,2,2,B|84:104|140:76|204:92|228:144,1,200,2|0
380,136,2536902,5,0
228,144,2537126,1,0
308,208,2537350,1,2
404,304,2537574,2,0,B|280:332,1,100,0|2
116,256,2538021,2,2,B|192:232|192:232|248:232|248:232|324:204,1,200,6|0
224,156,2538693,1,0
224,156,2538917,2,2,B|300:132|300:132|356:132|356:132|432:104,1,200,6|0
352,36,2539589,6,0,B|256:28|256:28|152:40,2,200
312,164,2540708,1,0
176,128,2540932,1,4
56,156,2541156,5,0
88,296,2541380,1,4
220,204,2541603,1,0
220,204,2541827,1,4
420,224,2542275,5,0
420,224,2542499,2,2,B|408:84,1,100,2|0
328,68,2542947,1,2
228,72,2543171,1,0
328,68,2543394,2,2,B|344:272,1,200
264,332,2544066,2,0,B|208:340|160:308,1,100
72,336,2544514,6,2,B|192:316|180:184,1,200,2|0
80,208,2545186,2,2,B|68:86|188:66,1,200,6|0
284,48,2545857,2,0,B|384:40,2,100,0|2|0
304,148,2546529,1,2
208,116,2546753,1,0
176,212,2546977,6,2,B|-8:316,1,200,2|0
100,336,2547648,2,2,B|284:232,1,200,2|0
376,248,2548320,2,0,B|436:248|460:200,2,100
384,148,2548991,5,6
364,48,2549215,1,0
264,56,2549439,1,2
192,124,2549663,2,2,B|144:228|208:320,1,200,0|2
315,314,2550335,1,0
315,314,2550559,2,2,B|376:228|328:124,1,200
396,52,2551230,6,0,B|508:108,1,100
328,124,2551678,2,0,B|240:80,1,100
96,132,2552126,2,0,B|208:188,1,100
256,292,2552574,1,4
256,292,2552797,1,0
256,192,2553021,12,4,2555708
357,168,2579508,5,4
232,96,2579732,1,2
152,234,2579956,1,0
280,300,2580179,1,0
280,300,2580851,5,4
152,234,2581075,1,2
232,96,2581299,1,0
357,168,2581523,1,0
256,192,2582194,5,2
256,192,2582418,1,0
256,192,2582642,1,2
208,364,2583090,6,0,B|224:378|256:394|288:378|304:362,1,100,4|0
256,296,2583538,1,2
200,232,2583762,2,0,B|163:179|192:112|255:92|304:104|346:153|336:200|312:232|312:232,1,300,0|4
368,301,2584657,2,0,B|411:263|413:197,1,100,0|2
405,123,2585105,1,0
144,301,2585777,2,0,B|101:263|99:197,1,100,4|0
107,123,2586224,1,4
256,192,2586672,5,0
256,192,2586784,1,0
256,192,2586896,1,0
256,192,2587120,1,0
256,280,2587344,1,0
451,140,2588015,6,0,B|465:124|481:92|465:60|449:44,1,100
362,48,2588463,2,0,B|349:59|333:91|349:123|363:139,1,100
336,328,2589359,1,0
256,368,2589582,1,0
176,328,2589806,1,0
148,140,2590254,2,0,B|162:124|178:92|162:60|146:44,1,100
59,48,2590702,2,0,B|46:59|30:91|46:123|60:139,1,100
209,344,2591597,6,0,B|255:362|255:362|302:344,1,100
301,243,2592045,2,0,B|254:225|254:225|207:244,1,100
332,76,2592941,5,0
256,20,2593165,1,0
180,76,2593388,1,0
212,156,2593612,1,0
300,156,2593836,1,0
300,156,2593948,1,0
300,156,2594060,1,0
376,204,2594284,5,0
468,196,2594508,1,0
504,276,2594732,1,0
440,344,2594956,1,0
360,296,2595179,1,0
304,373,2595403,2,0,B|288:387|256:403|224:387|208:371,1,100,0|0
152,296,2595851,1,0
72,344,2596075,1,0
8,276,2596299,1,0
44,196,2596523,1,0
136,204,2596747,1,0
176,124,2596971,5,0
208,92,2597082,1,0
252,76,2597194,1,0
296,92,2597306,1,0
324,124,2597418,1,0
256,184,2597642,1,0
340,240,2597866,2,0,B|368:280|368:280|420:296|420:296,2,100
256,284,2598538,2,0,B|256:388|256:388,2,100
172,240,2599209,2,0,B|144:280|144:280|92:296|92:296,2,100
256,180,2599881,1,0
360,256,2600105,5,0
360,256,2600217,1,0
360,256,2600329,1,0
360,256,2600441,1,0
360,256,2600553,1,0
360,256,2600665,1,0
360,256,2600777,1,0
360,256,2600888,1,0
360,257,2601000,6,0,B|347:343|241:378,2,150,4|0|0
400,240,2601784,1,0
448,226,2601896,1,0
277,64,2602344,1,0
229,78,2602456,1,0
181,92,2602568,1,0
157,188,2602791,6,0,B|71:175|36:69,2,150
145,237,2603575,1,0
127,283,2603687,1,0
284,159,2604135,1,0
302,113,2604247,1,0
314,65,2604359,1,0
397,119,2604582,6,0,B|420:34|505:13,2,150
444,136,2605366,1,0
491,152,2605478,1,0
346,290,2605926,1,0
299,272,2606038,1,0
252,252,2606150,1,0
221,156,2606374,6,0,B|246:79|180:5,2,150
179,163,2607157,1,0
129,170,2607269,1,0
17,336,2607717,1,0
66,331,2607829,1,0
115,323,2607941,1,0
196,265,2608165,6,0,B|289:271|311:373,2,150
205,215,2608948,1,0
214,165,2609060,1,0
401,233,2609508,1,0
413,184,2609620,1,0
426,135,2609732,1,0
415,36,2609956,6,0,B|290:22|248:130,2,200
216,8,2611299,1,0
35,94,2611747,5,0
58,137,2611859,1,0
78,182,2611971,2,0,B|141:186|158:255,1,100
99,323,2612418,1,0
183,376,2612642,1,0
183,376,2612866,1,0
249,301,2613090,6,0,B|388:315,1,100
429,251,2613538,1,0
429,251,2613762,1,0
375,167,2613985,1,0
388,67,2614209,1,0
196,65,2614433,6,0,B|171:20,7,50,0|0|0|0|0|0|0|0
218,111,2615329,2,0,B|163:231|296:295,1,200,4|0
347,216,2616000,1,0
438,257,2616224,1,0
414,354,2616448,5,0
414,354,2616560,1,0
414,354,2616672,2,0,B|175:368,1,200
214,365,2617232,1,0
214,365,2617344,1,0
118,336,2617568,1,0
161,246,2617791,1,0
80,186,2618015,2,0,B|68:67|191:31,1,200
180,34,2618575,1,0
180,34,2618687,1,0
230,121,2618911,5,0
230,121,2619023,1,0
230,121,2619135,2,0,B|363:104,1,100
321,208,2619582,1,0
321,208,2619694,1,0
321,208,2619806,2,0,B|454:191,1,100
482,274,2620254,6,0,B|281:299,1,200
283,299,2620814,1,0
283,299,2620926,1,0
208,365,2621150,1,0
122,312,2621374,1,0
195,244,2621597,1,0
195,244,2621709,1,0
195,244,2621821,2,0,B|209:139,1,100
148,63,2622269,1,0
75,131,2622493,5,0
75,131,2622605,1,0
75,131,2622717,2,0,B|61:236,1,100
87,327,2623165,1,0
175,372,2623388,2,0,B|301:374|320:255,1,200
409,218,2624060,1,0
409,218,2624284,5,0
103,218,2624732,1,0
409,218,2625179,1,0
103,218,2625627,1,0
256,48,2626075,5,0
256,48,2626187,1,0
256,48,2626299,2,0,B|281:167,1,100
186,191,2626747,1,0
234,278,2626971,2,0,B|218:342|129:338,1,100
88,268,2627418,1,0
88,268,2627642,1,0
43,178,2627866,5,0
43,178,2627978,1,0
43,178,2628090,2,0,B|66:72,1,100
179,45,2628538,2,0,B|156:151,1,100
240,255,2628985,2,0,B|263:149,1,100
420,100,2629433,1,0
420,100,2629545,1,0
420,100,2629657,1,4
340,310,2630105,6,0,B|316:352|256:374|204:357|173:311,1,200,0|0
172,74,2631000,2,0,B|196:32|256:10|308:27|339:73,1,200,0|0
339,73,2631560,1,0
339,73,2631672,1,0
43,206,2632120,6,0,B|66:312,1,100
179,339,2632568,2,0,B|156:233,1,100
240,129,2633015,2,0,B|263:235,1,100,0|4
398,343,2633687,2,0,B|433:355|475:325|475:280|454:238|395:234|371:270,1,200
393,60,2634582,2,0,B|357:47|315:77|315:122|336:164|395:168|419:132,1,200
414,138,2635142,1,0
414,138,2635254,1,0
242,86,2635702,6,0,B|220:38|220:38|166:28|166:28,1,100
119,101,2636150,1,0
36,64,2636374,2,0,B|-24:160|36:252,1,200,0|4
336,356,2637269,2,0,B|312:312|256:300|256:300|200:312|176:356,1,200
476,251,2638165,2,0,B|536:160|476:64,1,200
476,64,2638724,1,0
476,64,2638836,1,0
256,116,2639284,5,0
328,172,2639508,1,0
300,256,2639732,1,0
212,256,2639956,1,0
184,172,2640179,1,0
108,128,2640403,6,0,B|80:64|80:64,2,50,0|0|0
176,296,2640851,2,0,B|148:360|148:360,2,50
256,96,2641299,2,0,B|256:48|256:48,2,50
336,296,2641747,2,0,B|364:360|364:360,2,50
404,128,2642194,2,0,B|432:64|432:64,2,50
296,208,2642642,22,0,B|288:232|256:240|224:232|216:208,1,100
256,120,2643090,1,0
140,268,2643314,1,0
172,296,2643426,1,0
212,316,2643538,1,0
256,324,2643650,1,0
300,316,2643762,1,0
340,296,2643874,1,0
372,268,2643985,1,4
152,152,2644433,6,0,B|130:104|130:104|76:94|76:94,1,100
256,100,2644881,2,0,B|256:-8,1,100
360,152,2645329,2,0,B|382:104|382:104|436:94|436:94,1,100
209,344,2646224,6,0,B|255:362|255:362|302:344,1,100
303,243,2646672,2,0,B|256:225|256:225|209:244,1,100
40,50,2647344,22,0,B|61:104|116:123|179:104|196:45,1,200
296,160,2648015,2,0,B|288:136|256:128|224:136|216:160,1,100
317,50,2648463,2,0,B|333:104|396:123|451:104|472:50,1,200,0|0
296,160,2649135,2,0,B|328:216|328:216|280:232|257:262|257:262|232:232|185:214|185:214|222:152,1,300
304,348,2650030,6,0,B|256:376|204:348,1,100
424,192,2650478,1,0
257,53,2650702,1,0
88,192,2650926,1,0
88,192,2651038,1,0
88,192,2651150,1,4
297,350,2651597,6,0,B|297:302|297:302|337:262,1,100
217,350,2652045,2,0,B|217:302|217:302|177:262,1,100
417,115,2652717,22,0,B|367:16|260:-22|138:16|95:118,1,400,0|0
172,238,2653836,2,0,B|198:283|257:300|314:282|339:237,1,200,0|0
256,152,2654508,1,0
256,192,2654732,12,0,2656299
114,110,2656971,6,0,B|231:63,1,100
398,274,2657418,2,0,B|281:321,1,100
257,327,2657754,1,0
207,329,2657866,1,0
160,311,2657978,1,0
136,266,2658090,1,0
143,216,2658202,1,0
179,181,2658314,2,0,B|280:89|156:-1,1,200,4|0
376,255,2658985,6,0,B|367:325|432:349,1,100
450,247,2659433,2,0,B|459:177|394:153,1,100
312,172,2659881,2,0,B|259:272|112:233,1,200
243,9,2660553,6,0,B|234:79|299:103,1,100
367,44,2661000,1,0
451,98,2661224,2,0,B|460:168|395:192,1,100
454,275,2661672,2,0,B|225:269,1,200
122,144,2662344,6,0,B|222:146,1,100
220,311,2662791,2,0,B|420:317,1,200
291,72,2663463,2,0,B|92:67,1,200
96,233,2664135,5,0
69,321,2664359,1,0
155,346,2664582,1,0
182,261,2664806,1,0
96,234,2665030,1,0
182,262,2665254,2,0,B|398:231,1,200
506,369,2665926,6,0,B|497:299|449:257,1,100
500,182,2666374,1,0
427,113,2666597,2,0,B|436:43|492:10,1,100
372,3,2667045,2,0,B|267:26|234:157,1,200
385,212,2667717,6,0,B|381:273|324:303,1,100
399,33,2668165,2,0,B|294:56|261:187,1,200
79,197,2668836,2,0,B|184:174|217:43,1,200
302,18,2669508,5,0
376,85,2669732,2,0,B|427:96|465:165,2,100
305,156,2670403,2,0,B|347:255|469:286,1,200
231,107,2671075,6,0,B|145:108|111:163,2,100
248,8,2671747,2,0,B|132:2|44:73,1,200
22,95,2672306,1,0
11,143,2672418,1,0
35,186,2672530,1,0
84,195,2672642,6,0,B|148:201|156:271,1,100,4|0
252,240,2673090,1,0
235,338,2673314,2,0,B|358:357|418:242,1,200
175,277,2673985,6,0,B|110:267|73:328,1,100
0,256,2674433,1,0
82,199,2674657,2,0,B|47:88|92:-9,1,200
216,125,2675329,6,0,B|294:191,1,100
338,100,2675777,2,0,B|494:232,1,200
463,325,2676448,1,0
463,325,2676672,2,0,B|422:365|353:347,1,100
275,25,2677568,5,0
275,25,2677791,1,0
275,25,2678015,2,0,B|303:70|297:135,1,100
44,299,2678911,6,0,B|108:297|155:246,1,100
47,322,2679359,2,0,B|111:320|158:269,1,100
237,272,2679806,5,0
237,272,2679918,1,0
237,272,2680030,2,0,B|352:306,1,100
370,207,2680478,1,0
444,273,2680702,2,0,B|493:237|487:181,2,100
425,371,2681374,6,0,B|214:354,1,200
133,262,2682045,2,0,B|332:278,1,200
358,196,2682717,2,0,B|252:187,1,100
208,183,2683053,1,0
158,178,2683165,1,0
108,173,2683277,1,0
58,166,2683388,2,0,B|20:124|41:55,1,100
108,2,2683836,2,0,B|146:44|125:113,1,100
222,57,2684284,6,0,B|433:40,1,200,0|0
492,111,2684956,2,0,B|293:127,1,200
235,209,2685627,2,0,B|341:200,1,100
263,129,2686075,1,0
213,134,2686187,1,0
163,141,2686299,2,0,B|125:183|146:252,1,100
256,30,2697717,5,0
110,125,2697941,1,0
133,290,2698165,1,0
299,333,2698388,1,0
421,211,2698612,1,0
342,54,2698836,5,0
169,54,2699060,1,0
90,211,2699284,1,0
212,333,2699508,1,0
378,290,2699732,1,0
401,125,2699956,1,0
256,30,2700179,1,0
256,192,2700403,5,0
256,192,2700515,1,0
256,192,2700627,1,0
256,192,2700739,1,0
256,192,2700851,1,0
256,192,2700963,1,0
256,192,2701075,1,0
256,192,2701187,1,0
256,192,2701299,1,4
326,324,2701635,6,0,B|306:358|256:377|213:363|187:324,1,164.999995082617,0|0
60,280,2702194,1,0
76,148,2702418,2,0,B|88:92|88:92|132:52,1,109.999996721745
209,147,2702866,2,0,B|219:123|254:115|289:122|302:146,1,109.999996721745
256,188,2703202,1,0
256,240,2703314,1,0
384,56,2703538,2,0,B|424:92|424:92|436:148,1,109.999996721745
326,311,2703985,2,0,B|306:345|256:364|213:350|187:311,2,164.999995082617
256,192,2704881,5,0
256,144,2704993,1,0
256,96,2705105,1,0
130,80,2705329,2,0,B|119:56|84:48|50:55|37:79,1,109.999996721745
209,259,2705777,2,0,B|219:282|254:290|289:284|302:260,1,109.999996721745
475,79,2706224,2,0,B|462:55|427:48|392:56|382:80,1,109.999996721745
408,296,2706672,6,0,B|464:264,2,54.9999983608723
300,336,2707120,2,0,B|286:360|256:366|256:366|225:360|212:336,1,109.999996721745
192,228,2707568,2,0,B|211:192|257:182|257:182|303:192|322:228,2,164.999995082617
104,296,2708463,2,0,B|48:264,2,54.9999983608723
136,108,2708911,5,0
256,32,2709135,1,0
376,108,2709359,1,0
336,260,2709582,1,0
176,260,2709806,1,0
256,152,2710030,1,0
256,152,2710254,5,0
404,348,2710702,1,0
108,348,2711150,1,0
175,131,2711597,6,0,B|192:71|257:48|320:72|338:134,1,219.999993443489,0|0
256,156,2712157,2,0,B|256:232,1,54.9999983608723
356,280,2712493,2,0,B|372:332|372:332|436:360|436:360,2,109.999996721745
256,364,2713165,1,0
156,280,2713388,2,0,B|140:332|140:332|76:360|76:360,2,109.999996721745
156,280,2713948,1,0
156,280,2714060,1,0
209,160,2714284,2,0,B|219:136|254:128|289:135|302:159,1,109.999996721745
95,106,2714732,5,0
124,65,2714844,1,0
161,33,2714956,1,0
206,15,2715068,1,0
256,8,2715179,1,0
306,15,2715291,1,0
351,33,2715403,1,0
388,65,2715515,1,0
417,106,2715627,1,4
340,310,2716075,6,0,B|316:352|256:374|204:357|173:311,1,200,0|0
340,129,2716971,2,0,B|316:87|256:65|204:82|173:128,1,200,0|0
256,176,2717530,2,0,B|256:232|256:232,1,50
400,336,2718090,6,0,B|440:224,1,100
256,176,2718538,2,0,B|256:276,1,100
112,336,2718985,2,0,B|72:224,1,100,0|4
176,88,2719657,6,0,B|200:44|256:32|256:32|312:44|336:88,1,200
336,296,2720553,2,0,B|312:340|256:352|256:352|200:340|176:296,1,200
256,252,2721112,2,0,B|256:184|256:184,1,50
160,48,2721672,5,0
216,120,2721896,2,0,B|224:96|256:88|288:96|296:120,1,100
352,48,2722344,1,0
256,204,2722791,5,4
160,356,2723239,1,0
352,356,2723687,1,0
340,157,2724135,2,0,B|316:115|256:93|204:110|173:156,1,200,0|0
256,204,2724694,2,0,B|256:260|256:260,1,50
416,92,2725254,5,0
348,28,2725478,1,0
256,8,2725702,1,0
164,28,2725926,1,0
96,92,2726150,1,0
160,164,2726374,5,0
144,212,2726485,1,0
104,244,2726597,1,0
208,316,2726821,2,0,B|190:336|190:336|180:360,2,50
304,316,2727269,2,0,B|322:336|322:336|332:360,2,50
408,244,2727717,1,0
368,212,2727829,1,0
352,164,2727941,1,0
184,80,2728165,5,0
80,104,2728388,1,0
328,80,2728612,5,0
432,104,2728836,1,0
256,32,2729060,5,0
256,104,2729284,1,0
270,190,2729508,1,0
270,190,2729620,1,0
270,190,2729732,1,0
270,190,2729844,1,0
270,190,2729956,6,0,B|271:312|126:334,1,200,4|0
344,248,2730627,2,0,B|402:270|419:337,2,100
409,169,2731299,1,0
310,151,2731523,2,0,B|325:32|457:27,1,200
297,226,2732194,6,0,B|286:279|226:297,2,100
204,186,2732866,1,0
131,117,2733090,1,0
208,53,2733314,2,0,B|432:48,1,200
226,288,2733985,6,0,B|160:280|141:204,1,100
276,358,2734433,2,0,B|393:349|414:209,1,200
236,26,2735105,2,0,B|119:35|98:175,1,200
166,229,2735777,5,0
84,285,2736000,2,0,B|65:344|-6:353,2,100
48,190,2736672,1,0
118,118,2736896,1,0
118,118,2737008,1,0
118,118,2737120,2,0,B|326:103,1,200,4|0
455,238,2737791,6,0,B|393:233|379:150,2,100
476,139,2738463,1,0
458,301,2738687,2,0,B|338:294|324:163,1,200
476,139,2739359,1,0
476,139,2739582,1,0
416,356,2739806,6,0,B|295:340|272:206,1,200
96,28,2740478,2,0,B|216:43|240:178,1,200
145,200,2741150,1,0
218,268,2741374,2,0,B|330:261,2,100
169,355,2742045,6,0,B|389:363,1,200
419,366,2742605,1,0
468,367,2742717,1,0
500,272,2742941,1,0
448,186,2743165,1,0
397,184,2743277,1,0
347,181,2743388,1,0
369,83,2743612,5,0
318,82,2743724,1,0
268,78,2743836,1,0
217,77,2743948,1,0
166,75,2744060,1,0
116,71,2744172,1,0
66,68,2744284,6,0,B|22:166|85:277,1,200,4|0
174,237,2744956,1,0
152,334,2745179,1,0
152,334,2745403,2,0,B|259:358,1,100
316,280,2745851,2,0,B|435:312|488:212,1,200
194,111,2746523,5,0
274,50,2746747,1,0
194,111,2746971,1,0
194,111,2747194,1,0
261,185,2747418,1,0
206,269,2747642,2,0,B|236:385|393:359,1,200
438,298,2748314,6,0,B|440:198,1,100
330,214,2748762,2,0,B|336:14,1,200
209,285,2749433,2,0,B|214:86,1,200
445,24,2750105,5,0
345,30,2750329,1,0
245,36,2750553,1,0
145,41,2750777,1,0
150,140,2751000,1,0
50,153,2751224,2,0,B|21:275|129:337,1,200
444,267,2751896,5,0
345,254,2752120,1,0
345,254,2752344,1,0
444,267,2752568,1,0
345,254,2752791,1,0
285,335,2753015,2,0,B|161:325|165:199,1,200
80,150,2753687,6,0,B|40:183|33:247,1,100
139,102,2754135,2,0,B|234:49|359:83,1,200
373,282,2754806,2,0,B|278:335|153:301,1,200
147,211,2755478,5,0
78,284,2755702,2,0,B|4:294|-11:364,2,100
20,201,2756374,2,0,B|62:102|17:-2,1,200
207,276,2757045,6,0,B|272:283|323:217,2,100
156,362,2757717,2,0,B|249:393|381:350,1,200
401,346,2758277,1,0
443,319,2758388,1,0
467,275,2758500,1,4
480,228,2758612,5,4
304,57,2759060,2,0,B|335:101|310:159|256:176|213:166|177:124|184:84|207:56|207:56,1,259.999995350838,0|0
32,228,2759956,1,0
298,356,2760403,2,0,B|312:296|312:296|256:256|256:256|199:296|199:296|215:357|215:357,1,259.999995350838
368,112,2761299,5,0
256,48,2761523,1,0
144,112,2761747,1,0
223,233,2761971,2,0,B|232:217|256:211|282:220|290:232,1,74.9999977648259
256,304,2762194,1,0
474,73,2762642,6,0,B|430:90|431:171|489:190|489:190|430:215|427:293|489:319,1,299.999991059304
37,311,2763538,6,0,B|80:288|82:215|23:190|23:190|81:171|82:90|38:73,1,299.999991059304
256,296,2764433,5,0
256,24,2764881,1,0
308,169,2765105,1,0
184,88,2765329,1,0
336,88,2765553,1,0
336,88,2765665,1,0
336,88,2765777,1,0
212,168,2766000,1,0
80,224,2766224,5,0
144,328,2766448,1,0
256,368,2766672,1,0
368,328,2766896,1,0
432,224,2767120,1,0
298,192,2767344,2,0,B|302:215|288:248|259:253|233:252|210:230|206:209|215:190|215:190,1,149.999995529652,0|0
192,82,2767791,2,0,B|256:42|256:42|320:82,1,149.999995529652
397,162,2768239,6,0,B|465:191|465:191|484:274,1,149.999995529652
440,362,2768687,1,0
344,312,2768911,1,0
308,348,2769023,1,0
256,360,2769135,1,0
204,348,2769247,1,0
168,312,2769359,1,0
72,364,2769582,1,0
30,265,2769807,2,0,B|47:191|47:191|115:162,1,149.999995529652
96,60,2770254,5,0
196,96,2770478,2,0,B|205:120|244:118|256:89|256:89|265:118|306:118|315:97,1,149.999995529652
420,60,2770926,1,0
404,164,2771150,1,0
318,240,2771374,2,0,B|299:208|254:191|215:204|191:239,1,149.999995529652,0|0
208,340,2771821,1,0
256,316,2771933,1,0
304,340,2772045,1,0
388,168,2772269,5,0
356,128,2772381,1,0
308,100,2772493,1,0
256,88,2772605,1,0
204,100,2772717,1,0
156,128,2772829,1,0
124,168,2772941,1,4
256,296,2773165,5,0
256,296,2773277,1,0
256,296,2773388,1,0
120,360,2773612,1,0
28,240,2773836,1,0
112,116,2774060,1,0
256,152,2774284,1,0
256,296,2774508,5,0
256,296,2774620,1,0
256,296,2774731,1,0
392,360,2774955,1,0
484,240,2775179,1,0
400,116,2775403,1,0
320,16,2775627,6,0,B|301:48|256:65|217:52|193:17,1,149.999995529652,0|0
112,120,2776075,1,0
204,240,2776299,1,0
256,220,2776411,1,0
304,240,2776523,1,4
196,344,2776747,2,0,B|213:376|255:385|255:385|297:376|315:344,1,149.999995529652
436,252,2777194,5,0
396,108,2777418,1,0
256,56,2777642,1,0
116,108,2777866,1,0
76,252,2778090,1,0
76,252,2778202,1,0
76,252,2778314,1,0
208,348,2778538,5,0
256,208,2778762,1,0
304,348,2778985,1,0
180,264,2779209,1,0
332,264,2779433,1,0
348,124,2779657,1,0
312,80,2779769,1,0
256,60,2779881,1,0
200,80,2779993,1,0
164,124,2780105,1,4
76,240,2780329,5,0
256,160,2780553,1,0
436,244,2780777,1,0
192,368,2781000,2,0,B|211:336|256:319|295:332|319:367,2,149.999995529652
192,192,2781672,1,0
256,192,2781784,1,0
320,192,2781896,1,0
320,16,2782120,6,0,B|301:48|256:65|217:52|193:17,2,149.999995529652
424,120,2782791,1,0
256,192,2783015,1,0
96,120,2783239,1,0
256,352,2783463,1,0
256,192,2783687,6,0,B|252:203|238:234|285:241|301:236|315:230|336:212|323:182|328:171|332:161|326:145|310:125|295:132|283:107|277:112|244:105|219:108|204:131|189:147|180:169|180:169|169:197|172:220|178:254|191:280|206:310|255:317|286:330|322:338|357:307|381:282|403:250|408:216|414:197|422:176|425:150|406:108|386:57|353:37|305:22|251:26|214:22|174:41|139:77|121:113|107:146|107:146|97:176|87:233|95:284|124:325|166:371|200:383|250:410|330:406|384:383|417:348|445:311|483:242|479:162,1,1799.99994635582
478,147,2786485,1,0
472,126,2786597,1,0
466,104,2786709,1,0
457,83,2786821,1,0
444,64,2786933,1,0
432,44,2787045,1,0
415,28,2787157,1,0
397,14,2787269,1,4
256,80,2801597,5,4
256,192,2801709,12,0,2804284
366,72,2804508,5,0
422,120,2804732,1,0
422,192,2804956,1,0
366,239,2805179,2,0,B|253:192|145:240,1,224.999993294478,4|0
113,306,2806075,2,0,B|258:390|408:299,1,300
494,192,2807418,1,0
398,79,2807866,2,0,B|258:-6|114:78,1,299.999991059304,4|4
256,192,2808874,12,0,2811896
64,152,2812120,5,0
64,232,2812344,1,4
256,192,2812456,12,0,2814135
424,116,2814359,5,0
426,153,2814471,1,0
411,187,2814582,1,0
380,208,2814694,1,0
342,205,2814806,1,0
309,186,2814918,1,0
272,177,2815030,1,0
234,178,2815142,1,0
199,192,2815254,1,0
177,222,2815366,1,0
167,258,2815478,1,0
171,293,2815590,1,0
195,321,2815702,1,0
227,339,2815814,1,0
264,339,2815926,6,0,B|306:298|375:323,1,100
441,263,2816374,1,0
362,201,2816597,2,0,B|347:124|383:92,2,100
272,248,2817269,1,0
201,177,2817493,5,0
201,177,2817605,1,0
201,177,2817717,2,0,B|93:194,2,100
289,129,2818388,1,0
312,32,2818612,5,0
410,30,2818836,1,0
204,32,2819060,1,0
106,30,2819284,1,0
29,94,2819508,6,0,B|14:141|65:193,1,100
57,184,2819844,1,0
57,184,2819956,1,0
52,284,2820179,5,0
52,284,2820291,1,0
52,284,2820403,2,0,B|170:273,1,100
151,274,2820739,1,0
151,274,2820851,1,0
232,333,2821075,5,0
232,333,2821187,1,0
232,333,2821299,2,0,B|298:328|314:249,1,100
306,275,2821635,1,0
306,275,2821747,1,0
401,305,2821971,5,0
401,305,2822082,1,0
401,305,2822194,2,0,B|382:81,1,200
349,69,2822754,1,0
303,47,2822866,1,0
254,60,2822978,1,0
232,105,2823090,6,0,B|234:166|174:188,1,100
147,220,2823426,1,0
111,255,2823538,1,0
204,291,2823762,5,0
239,326,2823874,1,0
274,361,2823985,2,0,B|398:345,1,100
421,363,2824321,1,0
468,379,2824433,1,0
462,279,2824657,5,0
437,235,2824769,1,0
392,211,2824881,2,0,B|379:150|437:120,1,100
471,99,2825217,1,0
480,49,2825329,1,0
387,10,2825553,5,0
337,16,2825665,1,0
288,27,2825777,2,0,B|282:137|177:182,1,200
235,263,2826448,1,0
134,263,2826672,2,0,B|109:321|132:372,1,100,4|0
127,360,2827008,1,0
127,360,2827120,1,0
225,343,2827344,5,0
321,367,2827568,1,0
338,268,2827791,1,0
338,268,2827903,1,0
338,268,2828015,2,0,B|479:251,1,100
373,124,2828463,6,0,B|273:135,1,100
189,80,2828911,1,0
149,111,2829023,1,0
139,160,2829135,1,0
157,206,2829247,1,0
196,236,2829359,1,0
245,243,2829471,1,0
290,262,2829582,1,0
316,304,2829694,1,0
307,353,2829806,1,0
263,377,2829918,1,0
213,381,2830030,1,0
166,361,2830142,1,0
116,366,2830254,1,4
48,296,2830478,5,0
17,256,2830590,1,0
19,206,2830702,1,0
54,168,2830814,1,0
100,160,2830926,1,0
145,180,2831038,1,0
194,188,2831150,1,0
243,181,2831262,1,0
285,154,2831374,1,0
302,107,2831485,1,0
291,58,2831597,1,0
255,22,2831709,1,0
205,14,2831821,1,0
160,36,2831933,1,0
136,80,2832045,1,0
194,188,2832269,5,0
226,222,2832381,1,0
232,273,2832493,1,0
204,314,2832605,1,0
155,328,2832717,1,0
101,243,2832941,1,0
53,227,2833053,1,0
28,183,2833165,1,0
112,132,2833388,1,0
130,87,2833500,1,0
176,62,2833612,1,0
224,71,2833724,1,0
255,111,2833836,1,0
340,144,2834060,5,0
390,145,2834172,1,0
434,121,2834284,1,0
492,202,2834508,2,0,B|456:227|438:286|453:314,1,100
360,348,2834956,1,0
360,348,2835068,1,0
360,348,2835180,1,0
296,288,2835403,2,0,B|288:312|256:320|224:312|216:288,1,100
152,348,2835851,1,0
152,348,2835963,1,0
152,348,2836075,1,0
256,208,2836299,5,0
170,101,2836523,2,0,B|203:58|256:44|312:56|344:104,3,200,0|0|4|0
404,192,2838090,5,0
384,200,2838202,1,0
368,212,2838314,1,0
356,228,2838426,1,0
348,248,2838538,1,0
344,268,2838650,1,0
348,288,2838762,1,0
356,308,2838874,1,0
368,324,2838985,1,0
384,336,2839097,1,0
404,344,2839209,1,0
256,196,2839657,5,0
108,192,2839881,5,0
128,200,2839993,1,0
144,212,2840105,1,0
156,228,2840217,1,0
164,248,2840329,1,0
168,268,2840441,1,0
164,288,2840553,1,0
156,308,2840665,1,0
144,324,2840776,1,0
128,336,2840888,1,0
108,344,2841000,1,0
216,124,2841448,6,0,B|224:148|256:156|288:148|296:124,1,100
296,123,2841784,1,0
296,123,2841896,1,0
256,36,2842120,1,0
216,260,2842344,6,0,B|224:236|256:228|288:236|296:260,1,100
256,348,2842791,1,0
256,192,2842847,12,4,2843687
256,192,2843799,12,0,2844582
176,104,2845030,5,0
256,48,2845254,1,0
336,104,2845478,1,0
308,200,2845702,1,0
204,200,2845926,1,0
183,297,2846150,2,0,B|198:352|258:373|316:351|333:294,1,200,0|0
424,344,2846821,6,0,B|448:296|448:296|496:280,1,100
424,208,2847269,1,0
456,112,2847493,1,0
372,48,2847717,1,0
293,106,2847941,2,0,B|316:139|297:184|256:197|223:189|195:157|201:126|218:105|218:105,1,200,0|0
140,48,2848612,1,0
56,112,2848836,1,0
88,208,2849060,1,0
256,352,2849508,1,0
338,300,2849732,2,0,B|310:254|257:240|202:251|172:305,1,200
120,216,2850403,5,0
208,168,2850627,1,0
256,156,2850739,1,0
304,168,2850851,1,0
392,216,2851075,1,0
396,116,2851299,1,0
304,56,2851523,1,0
256,44,2851635,1,0
208,56,2851747,1,4
116,116,2851971,1,0
120,216,2852194,5,0
208,268,2852418,2,0,B|184:276|176:308|184:340|208:348,1,100
303,348,2852866,2,0,B|328:340|336:308|328:276|304:268,1,100
392,216,2853314,6,0,B|336:188|332:132|332:132|384:121|408:60,1,200
308,32,2853985,1,0
204,32,2854209,1,0
111,75,2854433,2,0,B|134:120|180:132|180:132|176:188|120:216,1,200
216,280,2855105,2,0,B|227:258|255:252|255:252|283:258|295:280,1,100
256,192,2855385,12,0,2856224
256,192,2856280,12,0,2857120
333,71,2857568,6,0,B|328:134|394:164,1,100
179,313,2858015,2,0,B|184:250|118:220,1,100
96,197,2858351,1,0
74,151,2858463,1,0
87,102,2858575,1,0
129,75,2858687,1,0
178,79,2858799,1,0
218,108,2858911,2,0,B|298:184|412:151,1,200,4|0
163,154,2859582,6,0,B|192:206|164:266,2,100
93,81,2860254,1,0
23,153,2860478,2,0,B|-22:249|34:367,1,200
308,324,2861150,6,0,B|210:318,2,100
353,234,2861821,2,0,B|362:164|297:140,1,100
247,222,2862269,2,0,B|41:209,1,200
126,25,2862941,6,0,B|102:71|96:129,1,100
278,101,2863388,2,0,B|293:199|248:304,1,200
428,259,2864060,2,0,B|404:145|420:45,1,200
243,29,2864732,6,0,B|369:47,2,100
143,15,2865403,1,0
107,50,2865515,1,0
105,100,2865627,1,0
138,137,2865739,1,0
184,155,2865851,1,0
216,193,2865963,1,0
227,241,2866075,2,0,B|261:337|415:331,1,200,4|0
359,235,2866747,2,0,B|395:120,1,100
474,190,2867194,2,0,B|510:75,1,100
269,128,2867642,2,0,B|202:341,1,200
460,196,2868314,6,0,B|496:81,1,100
255,134,2868762,2,0,B|188:347,1,200
195,324,2869433,1,0
256,192,2869545,12,0,2873239
256,96,2873463,5,0
256,96,2873575,1,0
256,96,2873687,1,0
256,96,2873911,1,0
256,96,2874135,1,0
256,288,2874359,5,0
256,288,2874471,1,0
256,288,2874582,1,0
256,288,2874806,1,0
256,288,2875030,1,0
352,192,2875254,5,0
352,192,2875366,1,0
352,192,2875478,1,0
352,192,2875702,1,0
352,192,2875926,1,0
160,192,2876150,5,0
160,192,2876262,1,0
160,192,2876374,1,0
160,192,2876597,1,0
160,192,2876821,1,0
296,56,2877045,5,0
304,56,2877157,1,0
312,56,2877269,1,0
216,56,2877493,1,0
200,56,2877717,1,0
216,328,2877941,5,0
208,328,2878053,1,0
200,328,2878165,1,0
296,328,2878389,1,0
312,328,2878613,1,0
256,192,2878724,12,0,2880403
392,128,2880627,5,0
392,128,2880739,1,0
392,128,2880851,1,0
392,248,2881075,1,0
392,128,2881299,1,0
120,256,2881523,5,0
120,256,2881635,1,0
120,256,2881747,1,0
120,136,2881971,1,0
120,256,2882194,1,0
320,328,2882418,5,0
320,328,2882530,1,0
320,328,2882642,1,0
200,328,2882866,1,0
320,328,2883090,1,0
192,56,2883314,5,0
192,56,2883426,1,0
192,56,2883538,1,0
312,56,2883762,1,0
192,56,2883985,1,0
256,192,2884209,5,0
256,192,2884321,1,0
256,192,2884433,1,0
256,192,2884657,1,0
256,192,2884881,1,0
256,192,2885105,5,0
256,192,2885217,1,0
256,192,2885329,1,0
256,192,2885553,1,0
256,192,2885777,1,0
64,344,2886224,5,0
96,344,2886336,1,0
128,344,2886448,1,0
160,344,2886560,1,0
192,344,2886672,1,0
224,344,2886784,1,0
256,344,2886896,1,0
288,344,2887008,1,0
320,344,2887120,1,0
352,344,2887232,1,0
384,344,2887344,1,0
416,344,2887456,1,0
448,344,2887568,1,0
256,192,2887679,12,0,2889359
176,192,2901769,6,0,B|196:288|272:340|364:360,1,240.000005722046
332,84,2903251,1,0
428,136,2903621,1,2
336,192,2903991,1,0
428,252,2904362,1,2
336,192,2904732,6,0,B|316:288|240:340|148:360,1,240.000005722046
180,84,2906214,1,0
84,136,2906584,1,2
176,192,2906954,1,0
84,252,2907325,1,2
176,192,2907695,6,0,B|196:96|272:44|364:24,1,240.000005722046
332,300,2909176,1,0
428,248,2909547,1,2
336,192,2909917,1,0
428,132,2910288,1,2
336,192,2910658,6,0,B|316:96|240:44|148:24,1,240.000005722046
180,324,2912139,1,0
332,324,2912510,1,2
176,192,2912880,1,0
204,236,2913065,1,0
256,248,2913251,1,2
308,236,2913436,1,0
336,192,2913621,5,0
76,324,2914362,1,0
236,96,2915102,1,0
340,128,2915473,2,0,B|308:164|304:200|352:248,1,120.000002861023,2|0
240,276,2916214,1,2
176,192,2916584,5,0
436,324,2917325,1,0
276,96,2918065,1,0
172,128,2918436,2,0,B|204:164|208:200|160:248,1,120.000002861023,2|0
272,276,2919176,1,2
336,192,2919547,5,0
76,60,2920288,1,0
236,288,2921028,1,0
340,256,2921399,2,0,B|308:220|304:184|352:136,1,120.000002861023,2|0
240,108,2922139,1,2
176,192,2922510,5,0
436,60,2923251,1,0
316,312,2923991,1,0
228,296,2924362,2,0,B|228:280|228:280|228:208|280:208|280:120|280:120|280:104,1,200
196,88,2925473,1,0
174,95,2940288,6,0,B|194:52|255:27|316:48|338:97,2,200,2|8|2
256,144,2942139,1,0
208,224,2942510,1,8
304,224,2942880,1,0
347,302,2943251,2,0,B|308:333|270:317|255:302|255:302|240:317|199:333|164:302,1,200,2|8
88,155,2944732,5,2
68,67,2945102,1,0
149,28,2945473,1,8
210,93,2945843,1,0
181,184,2946214,2,0,B|191:220|255:244|255:244|319:220|333:183,1,200,2|8
424,229,2947695,5,2
444,317,2948065,1,0
363,356,2948436,1,8
302,291,2948806,1,0
331,200,2949176,2,0,B|321:164|257:140|257:140|194:160|181:202,1,200,2|8
352,88,2950658,1,2
256,48,2951028,1,0
152,88,2951399,1,8
44,56,2951769,21,8
44,56,2951954,1,0
44,56,2952139,1,4
160,348,2952880,1,8
36,172,2953436,1,0
36,172,2953621,1,0
192,140,2953991,1,0
320,244,2954362,1,8
476,212,2954732,1,0
476,212,2954917,2,0,B|424:8|112:76|168:296,1,500,0|8
320,244,2956214,1,0
476,212,2956584,5,0
320,244,2956954,1,0
192,140,2957325,1,8
36,172,2957695,1,0
36,172,2957880,2,0,B|88:376|400:308|344:88,1,500,0|8
192,140,2959176,1,0
112,276,2959547,5,0
256,344,2959917,1,0
400,276,2960288,1,8
340,136,2960658,2,0,B|364:66|291:34|256:69|256:69|221:34|148:66|172:136,2,299.999991059304
460,270,2962510,1,0
421,325,2962695,1,0
360,300,2962880,1,0
256,256,2963251,1,8
152,300,2963621,1,0
91,325,2963806,1,0
52,270,2963991,5,0
352,56,2964732,1,8
116,92,2965288,1,0
116,92,2965473,1,0
176,240,2965843,1,0
336,240,2966214,1,8
396,92,2966584,1,0
396,92,2966769,2,0,B|492:128|532:196|532:304|448:392|348:384|260:320,1,500,0|8
396,92,2968065,5,0
396,92,2968251,1,0
396,92,2968436,1,0
336,240,2968806,1,0
176,240,2969176,1,8
116,92,2969547,1,0
116,92,2969732,2,0,B|20:128|-20:196|-20:304|64:392|164:384|252:320,1,500,0|8
256,36,2971399,5,0
176,172,2971769,1,0
336,172,2972139,1,8
432,300,2972510,2,0,B|356:399|257:327|257:327|158:399|83:300,1,400
256,236,2973621,1,8
432,172,2973991,2,0,B|356:73|257:144|257:144|158:73|83:172,1,400
256,236,2975102,1,8
256,60,2975473,1,8
256,60,2975658,1,0
256,60,2975843,5,4
378,372,2976584,2,0,B|348:306|260:264|172:297|136:371,1,300,8|0
156,204,2977325,2,0,B|372:204,1,200,8|8
296,32,2978065,2,0,B|314:70|296:101|268:115|240:115|212:101|194:70|212:32,1,200,8|0
126,127,2978621,2,0,B|174:192|256:213|337:192|385:127,1,300
432,304,2979547,5,8
256,352,2979917,1,0
80,304,2980288,1,8
181,159,2980658,2,0,B|191:195|255:219|255:219|319:195|333:158,1,200,0|8
127,79,2981399,2,0,B|143:14|207:-1|272:14|304:46|288:95|256:111|223:95|207:46|239:14|304:-1|368:14|384:79,1,400
480,224,2982510,5,8
360,322,2982880,2,0,B|325:339|290:339|256:322|221:304|204:252|221:201|256:183|290:201|308:252|290:304|256:322|221:339|187:339|152:322,1,400
32,224,2983991,1,8
173,146,2984362,2,0,B|181:115|213:90|254:84|254:84|281:74|303:41|281:9|257:3|229:9|201:41|227:74|254:84|254:84|297:90|324:111|338:152,1,400
448,288,2985473,1,8
256,368,2985843,5,8
184,312,2986028,1,8
208,224,2986214,1,0
304,224,2986399,1,8
328,312,2986584,1,8
334,99,2986954,2,0,B|317:52|255:28|199:50|176:101,1,200,4|0
256,136,2987510,1,0
256,136,2987695,5,4
256,352,2988436,1,8
412,108,2988991,1,0
412,194,2989176,2,0,B|362:199|313:154|308:94|344:51,1,200,8|0
167,51,2989917,2,0,B|203:94|198:154|149:199|100:194,1,200,8|0
100,108,2990473,1,0
256,204,2990843,1,0
330,254,2991028,2,0,B|320:290|256:314|256:314|192:290|178:253,1,200,0|8
364,344,2991769,5,0
420,140,2992139,1,0
256,48,2992510,1,0
92,140,2992880,1,8
148,344,2993251,1,0
256,48,2993991,5,0
432,336,2994732,1,0
80,332,2995473,1,0
256,304,2995843,1,8
172,152,2996214,2,0,B|136:76|172:14|227:-12|283:-12|338:14|374:76|338:152,1,400
472,276,2997325,1,8
311,381,2997695,2,0,B|311:325|255:307|255:307|200:288|200:233,1,200,0|8
256,168,2998251,1,8
311,232,2998436,2,0,B|311:288|256:307|256:307|201:325|201:381,1,200,8|8
39,276,2999176,1,8
39,276,2999362,1,8
39,276,2999547,1,4
256,192,2999639,12,8,3001769
256,192,3002510,5,4
468,56,3008436,5,4
352,348,3009176,1,8
476,172,3009732,1,0
476,172,3009917,1,0
320,140,3010288,1,0
192,244,3010658,1,8
36,212,3011028,1,0
36,212,3011214,2,0,B|88:8|400:76|344:296,1,500,0|8
36,212,3012880,5,0
192,244,3013251,1,0
320,140,3013621,1,8
476,172,3013991,1,0
476,172,3014176,2,0,B|424:376|112:308|168:88,1,500,0|8
320,140,3015473,1,0
400,276,3015843,5,0
256,344,3016214,1,0
112,276,3016584,1,8
172,136,3016954,2,0,B|148:66|221:34|256:69|256:69|291:34|364:66|340:136,2,299.999991059304
256,272,3018806,1,0
412,300,3019176,1,0
256,272,3019547,1,8
100,300,3019917,1,0
100,300,3020102,1,0
100,300,3020288,5,0
376,99,3021028,2,0,B|349:30|255:-8|170:25|135:103,1,300,8|0
176,180,3021769,2,0,B|193:227|255:251|311:229|334:178,1,200,0|0
488,264,3022510,1,8
336,348,3022880,1,0
256,372,3023065,1,0
176,348,3023251,1,0
256,52,3023991,5,8
24,264,3024547,1,0
24,264,3024732,1,0
120,112,3025102,1,0
256,228,3025473,1,8
392,112,3025843,1,0
336,180,3026028,2,0,B|308:136|239:99|166:123|80:208|151:317|208:352|279:356|344:292|344:245,1,500,0|8
448,352,3027325,5,0
255,229,3027695,1,0
64,352,3028065,1,0
32,128,3028436,5,8
173,13,3028806,2,0,B|137:89|173:151|228:177|284:177|339:151|375:89|339:13,1,400
480,128,3029917,1,8
352,288,3030288,5,0
160,288,3030658,1,0
336,184,3031028,1,8
256,216,3031214,1,0
176,184,3031399,1,8
304,96,3031769,21,8
208,96,3031954,1,0
256,32,3032139,1,4
256,32,3032880,37,8
48,280,3033436,1,0
48,280,3033621,1,0
192,212,3033991,1,0
328,292,3034362,1,8
464,216,3034732,1,0
464,216,3034917,2,0,B|397:316|291:313|235:285|185:249|132:157|191:49,1,500,0|8
320,48,3036214,1,0
256,196,3036584,5,0
320,336,3036954,1,0
416,208,3037325,1,8
256,195,3037695,2,0,B|122:154|122:154|189:218|155:337|25:311,2,400
256,196,3039917,1,0
256,36,3040288,1,8
256,195,3040658,2,0,B|389:154|389:154|322:218|356:337|486:311,1,400
476,152,3041769,1,8
352,52,3042139,5,0
316,108,3042325,1,0
256,136,3042510,1,0
196,108,3042695,1,8
160,52,3042880,1,0
256,232,3043251,1,8
256,40,3043621,1,0
256,40,3043806,1,0
256,40,3043991,5,4
256,40,3044732,1,8
464,280,3045288,1,0
464,280,3045473,1,0
320,212,3045843,1,0
184,292,3046214,1,8
48,216,3046584,1,0
48,216,3046769,2,0,B|114:316|220:313|276:285|326:249|379:157|320:49,1,500,0|8
192,48,3048065,1,0
256,196,3048436,5,0
192,336,3048806,1,0
96,208,3049176,1,8
256,196,3049547,2,0,B|389:236|389:236|322:173|356:54|486:80,2,400
256,196,3051769,1,0
256,355,3052139,1,8
256,196,3052510,2,0,B|122:236|122:236|189:173|155:54|25:80,1,400
36,239,3053621,1,8
160,339,3053991,5,0
196,283,3054176,1,0
256,255,3054362,1,0
316,283,3054547,1,8
352,339,3054732,1,0
256,159,3055102,1,8
256,351,3055473,1,0
256,351,3055658,1,0
256,351,3055843,5,4
256,36,3056584,1,8
256,260,3057139,1,0
256,260,3057325,2,0,B|256:112,1,132.00000125885
312,96,3057880,1,0
316,160,3058065,1,0
256,188,3058251,1,0
196,160,3058436,1,0
200,96,3058621,1,0
256,64,3058806,5,4
332,348,3059547,2,0,B|289:366|256:333|256:308|256:308|256:333|222:366|181:348,1,200,8|0
80,192,3060288,1,8
256,88,3060658,1,0
432,192,3061028,1,8
340,39,3061399,2,0,B|376:115|340:177|285:203|229:203|174:177|138:115|174:39,2,400
432,192,3063251,5,8
256,296,3063621,1,0
80,192,3063991,1,8
172,345,3064362,2,0,B|136:269|172:207|227:181|283:181|338:207|374:269|338:345,2,400
356,48,3066584,6,0,B|156:48,1,200,0|8
52,196,3067325,1,0
174,338,3067695,2,0,B|321:183|321:183|256:126|256:126|190:183|190:183|337:338,1,600,8|0
464,192,3069176,1,8
464,192,3069362,1,8
464,192,3069547,1,0
341,61,3069917,6,0,B|309:102|257:126|200:102|170:59,1,200,8|0
19,154,3070658,2,0,B|49:231|123:301|196:315|255:330|314:315|392:300|461:231|492:152,1,600,4|0
480,336,3072139,5,8
384,80,3072510,1,0
256,288,3072880,1,8
128,80,3073251,1,0
32,336,3073621,1,8
97,274,3073806,1,0
171,219,3073991,2,0,B|202:175|257:161|311:175|342:219,1,200,0|8
344,39,3074732,6,0,B|311:82|258:96|203:82|171:39,1,200,0|8
160,224,3075473,1,0
352,224,3075843,1,8
256,352,3076214,1,0
256,352,3076954,5,0
256,192,3077325,1,8
120,76,3077695,2,0,B|147:143|226:120|256:102|256:37|256:37|256:102|292:120|368:144|400:65,1,400
376,248,3078806,5,8
256,344,3079176,1,0
256,140,3079547,1,0
136,248,3079917,1,0
256,44,3080288,1,8
376,248,3080658,1,0
340,172,3080843,1,8
256,140,3081028,1,8
172,172,3081214,1,8
136,248,3081399,1,8
256,344,3081769,21,8
488,104,3082510,2,0,B|500:97|521:64|516:9|478:-2|456:-23|369:-26|316:12|357:88|357:122|390:190|423:190|491:190|495:255|495:288|495:288|496:323|465:380|423:389|358:386|328:339|323:322|323:289|325:257|345:218|345:218|56:190|256:-177|457:190|157:221|157:221|189:250|198:289|190:322|190:338|156:389|90:389|51:373|21:337|19:289|19:289|20:240|33:208|90:190|123:190|156:122|156:88|169:17|140:-9|52:-29|18:-4|-9:55|4:88|27:110,1,2200,4|0
72,192,3103251,5,0
168,332,3103621,1,0
344,332,3103991,1,0
440,192,3104362,1,0
256,148,3104732,1,0
256,148,3105102,1,0
168,296,3105473,5,0
200,348,3105658,1,0
256,364,3105843,1,0
312,348,3106028,1,0
344,296,3106214,2,0,B|272:208|348:88|472:128,1,264.0000025177
500,268,3107510,1,0
500,268,3107695,1,0
400,236,3108065,1,0
300,204,3108436,1,0
300,100,3108806,1,0
168,88,3109176,6,0,B|240:176|164:296|40:256,1,264.0000025177
12,116,3110473,1,0
12,116,3110658,1,0
112,148,3111028,1,0
212,180,3111399,1,0
212,284,3111769,1,0
344,288,3112139,6,0,B|410:277|421:196|403:192|403:192|421:189|410:108|344:97,2,264.0000025177
256,192,3113991,1,0
168,96,3114362,2,0,B|101:106|90:187|108:191|108:191|90:194|101:275|168:286,1,264.0000025177
344,284,3115473,1,0
256,192,3115843,1,0
168,100,3116214,1,0
196,44,3116399,1,0
256,20,3116584,1,0
316,44,3116769,1,0
344,100,3116954,1,0
256,192,3117325,1,0
168,300,3117695,1,0
168,300,3117880,1,0
168,300,3118065,6,0,B|208:344|312:364|448:344|444:164|432:108|372:56|288:-28|144:4|64:152|140:248,2,800,4|8|8
256,192,3121121,12,8,3122510
256,192,3122602,12,8,3123991
256,192,3124084,12,8,3126214
108,240,3126584,5,0
168,72,3126954,1,0
348,72,3127325,1,0
404,240,3127695,1,8
256,360,3128065,1,8
192,312,3128251,1,8
212,232,3128436,1,8
300,232,3128621,1,0
320,312,3128806,1,8
344,56,3129176,6,0,B|340:104|340:104|288:136,1,100,8|0
216,131,3129547,2,0,B|171:103|171:103|167:55,1,100,8|0
256,44,3129917,5,4
256,44,3130658,1,8
464,280,3131214,1,0
464,280,3131399,1,0
320,212,3131769,1,0
184,292,3132139,1,8
48,216,3132510,1,0
48,216,3132695,2,0,B|115:316|221:313|277:285|327:249|380:157|321:49,1,500,0|8
192,48,3133991,1,0
256,196,3134362,5,0
192,336,3134732,1,0
96,208,3135102,1,8
256,195,3135473,2,0,B|390:154|390:154|323:218|357:337|487:311,2,400
256,196,3137695,5,0
256,36,3138065,1,8
256,195,3138436,2,0,B|123:154|123:154|190:218|156:337|26:311,1,400
36,152,3139547,1,8
160,52,3139917,1,0
196,108,3140102,1,0
256,136,3140288,1,0
316,108,3140473,1,8
352,52,3140658,1,0
256,232,3141028,5,8
256,40,3141399,1,0
256,40,3141584,1,0
256,40,3141769,1,4
378,372,3142510,6,0,B|348:306|260:264|172:297|136:371,1,300,8|0
156,204,3143251,2,0,B|372:204,1,200,8|8
296,32,3143991,2,0,B|314:70|296:101|268:115|240:115|212:101|194:70|212:32,1,200,8|0
126,127,3144547,2,0,B|174:192|256:213|337:192|385:127,1,300
428,304,3145473,5,8
256,364,3145843,1,0
84,304,3146214,1,0
332,212,3146584,6,0,B|322:176|258:152|258:152|192:172|180:213,1,200,0|8
104,72,3147325,2,0,B|189:109|256:42|256:-7|256:-7|256:42|322:109|406:72,1,400
480,224,3148436,1,8
360,322,3148806,2,0,B|325:339|290:339|256:322|221:304|204:252|221:201|256:183|290:201|308:252|290:304|256:322|221:339|187:339|152:322,1,400
32,224,3149917,5,8
173,146,3150288,2,0,B|181:115|213:90|254:84|254:84|281:74|303:41|281:9|257:3|229:9|201:41|227:74|254:84|254:84|297:90|324:111|338:152,1,400
492,232,3151399,1,8
352,344,3151769,2,0,B|312:312|312:312|304:264,1,100,8|0
392,256,3152139,2,0,B|384:208|384:208|344:176,1,100,8|0
328,88,3152510,1,8
256,144,3152695,1,0
184,88,3152880,1,8
168,176,3153065,2,0,B|128:208|128:208|120:256,1,100,0|8
208,264,3153436,2,0,B|200:312|200:312|160:344,1,100,0|4
160,56,3154362,5,8
396,92,3154917,1,0
396,92,3155102,1,0
336,240,3155473,1,0
176,240,3155843,1,8
116,91,3156214,2,0,B|51:116|28:160|20:208|72:284|148:287|204:212,1,300
176,240,3156954,1,0
288,116,3157325,1,8
116,92,3157695,5,0
116,92,3157880,1,0
116,92,3158065,1,0
176,240,3158436,1,0
336,240,3158806,1,8
396,91,3159176,2,0,B|460:116|484:160|492:208|440:284|363:287|308:212,1,300
336,240,3159917,2,0,B|372:288|288:332|256:256|256:256|224:332|140:288|176:240,1,300
175,240,3160658,1,0
256,80,3161028,5,0
388,320,3161399,1,0
124,320,3161769,1,8
96,104,3162139,2,0,B|132:10|259:-40|374:4|421:109,1,400
256,192,3163251,1,8
96,280,3163621,2,0,B|132:373|259:424|374:379|421:274,1,400
366,112,3164732,6,0,B|320:92|320:92|300:48,1,100,8|0
212,46,3165102,2,0,B|192:92|192:92|146:112,1,100,8|0
207,184,3165473,2,0,B|146:207|146:207|67:176|67:176|99:348|99:348|177:317|177:317|224:348|224:348|256:333|256:333|287:348|287:348|334:317|334:317|412:348|412:348|444:176|444:176|365:207|365:207|303:184,1,1000,4|0
256,24,3167695,5,8
396,91,3168065,2,0,B|461:116|484:160|492:208|440:284|364:287|308:212,1,300
336,240,3168806,1,0
224,116,3169176,1,8
396,92,3169547,5,0
396,92,3169732,1,0
396,92,3169917,1,0
336,240,3170288,1,0
176,240,3170658,1,8
116,91,3171028,2,0,B|52:116|28:160|20:208|72:284|149:287|204:212,1,300
176,240,3171769,2,0,B|140:288|224:332|256:256|256:256|288:332|372:288|336:240,1,300
337,240,3172510,1,0
256,80,3172880,5,0
124,320,3173251,1,0
388,320,3173621,1,8
416,104,3173991,2,0,B|380:10|253:-40|138:4|91:109,1,400
256,192,3175102,1,8
104,304,3175473,2,0,B|189:267|256:334|256:383|256:383|256:334|322:267|406:304,1,400,8|0
386,195,3176460,5,0
309,126,3176583,2,0,B|341:62,2,66.6666666666667,8|0|8
203,126,3176955,2,0,B|171:62,2,66.6666666666667,8|0|8
126,195,3177325,1,4
