osu file format v9

[General]
AudioFilename: Within Temptation - The Unforgiving.mp3
AudioLeadIn: 2000
PreviewTime: 2066297
Countdown: 0
SampleSet: Soft
StackLeniency: 0.7
Mode: 0
LetterboxInBreaks: 1

[Editor]
Bookmarks: 2225841,2272127,2290127
DistanceSpacing: 0.9
BeatDivisor: 3
GridSize: 4

[Metadata]
Title:The Unforgiving
Artist:Within Temptation
Creator:Armin
Version:Lost
Source:
Tags:Gonzvlo narakucrimson Roddie Vass_Bass ErufenRito Glass Card N'FoRcE force HakunoKaemi metal Why not me Shot in the Dark In the Middle of the Night Faster Fire and Ice Iron Where is the edge Sinead Lost Murder A Demon's Fate Stairway to the skies TU Marathon symphonic metal rock Sharon den Adel collab

[Difficulty]
HPDrainRate:6
CircleSize:4
OverallDifficulty:7
ApproachRate:8
SliderMultiplier:2
SliderTickRate:1

[Events]
//Background and Video events
0,0,"Within-Temptation.png"
//Break Periods
2,2205454,2225075
//Storyboard Layer 0 (Background)
//Storyboard Layer 1 (Fail)
//Storyboard Layer 2 (Pass)
//Storyboard Layer 3 (Foreground)
//Storyboard Sound Samples
//Background Colour Transformations
3,100,163,162,255

[TimingPoints]
2406,418.848167539267,4,2,0,100,1,0
15829,418.848167539267,4,2,0,100,1,0
34572,565.904267861353,4,1,0,100,1,0
47011,-100,4,2,1,100,0,0
95696,566.037735849057,4,2,1,100,1,0
97111,-100,4,1,0,80,0,1
97247,-100,4,1,0,82,0,1
97388,-100,4,1,0,84,0,1
97530,-100,4,1,0,86,0,1
97671,-100,4,1,0,90,0,1
97818,-100,4,1,0,93,0,0
97960,-100,4,1,0,96,0,1
98096,-100,4,2,1,100,0,1
106020,-100,4,1,1,80,0,1
106233,-100,4,1,1,83,0,1
106374,-100,4,1,1,86,0,1
106516,-100,4,1,1,89,0,1
106657,-100,4,1,1,92,0,1
106799,-100,4,1,1,95,0,1
106940,-100,4,2,1,98,0,1
116073,-100,4,2,1,98,0,0
124134,-100,4,1,0,100,0,0
124983,-100,4,2,1,100,0,0
160926,-100,4,1,0,100,0,0
161209,-100,4,2,1,100,0,0
165454,-100,4,1,0,100,0,0
165737,-100,4,2,1,100,0,0
169983,-100,4,1,0,100,0,0
170266,-100,4,2,0,87,0,0
172671,-100,4,1,0,100,0,0
173101,-100,4,1,0,81,0,1
173237,-100,4,1,0,84,0,1
173379,-100,4,1,0,87,0,1
173520,-100,4,1,0,90,0,1
174658,-100,4,2,0,100,0,0
174941,-100,4,2,1,100,0,1
182436,-100,4,2,0,100,0,1
183002,-100,4,1,0,100,0,1
183714,-100,4,2,0,100,0,0
183997,-100,4,2,1,100,0,1
191563,-100,4,1,0,80,0,1
191775,-100,4,1,0,83,0,1
191917,-100,4,1,0,86,0,1
192058,-100,4,1,0,89,0,1
192200,-100,4,1,0,91,0,1
192341,-100,4,1,0,93,0,1
192483,-100,4,1,0,95,0,1
192624,-100,4,1,0,97,0,1
192766,-100,4,1,0,98,0,1
192907,-100,4,1,0,99,0,1
193054,-100,4,2,0,100,0,0
209888,-100,4,1,0,63,0,0
211311,-100,4,2,0,5,0,0
214708,-100,4,2,0,30,0,0
215549,-100,4,1,0,15,0,0
215686,566.037735849057,4,1,0,15,1,0
215761,-100,4,2,0,5,0,0
217105,-100,4,2,0,31,0,0
217884,-100,4,1,0,15,0,0
218450,-100,4,2,0,30,0,0
218662,-100,4,1,0,15,0,0
219299,-100,4,2,0,29,0,0
219511,-100,4,2,0,36,0,0
220148,-100,4,1,0,16,0,0
220289,-100,4,2,0,16,0,0
220997,-100,4,1,0,16,0,0
221138,-100,4,2,0,16,0,0
222341,-100,4,1,0,16,0,0
222907,-100,4,2,0,16,0,0
223190,-100,4,1,0,16,0,0
223473,-100,4,2,0,16,0,0
224605,-100,4,1,0,16,0,0
225171,-100,4,2,0,16,0,0
225454,-100,4,1,0,16,0,0
226091,-100,4,2,0,16,0,0
226870,-100,4,1,0,16,0,0
227436,-100,4,2,0,16,0,0
227719,-100,4,1,0,16,0,0
228072,-100,4,2,0,16,0,0
229134,-100,4,1,0,16,0,0
229770,-100,4,2,0,16,0,0
229983,-100,4,1,0,16,0,0
230195,-100,4,2,0,16,0,0
231469,-100,4,1,0,16,0,0
231610,-100,4,2,0,16,0,0
232318,-100,4,1,0,16,0,0
232601,-100,4,2,0,33,0,0
233167,-100,4,2,0,21,0,0
233733,-100,4,1,0,21,0,0
243355,-100,4,1,0,41,0,0
246256,-100,4,1,0,26,0,0
247954,-100,4,1,0,39,0,0
250510,-100,4,2,0,40,0,0
250651,-100,4,2,0,50,0,0
250793,-100,4,2,0,60,0,0
251912,-100,4,2,1,100,0,1
267761,-100,4,2,1,100,0,0
270025,-100,4,2,1,100,0,1
270171,-76.9230769230769,4,2,1,83,0,1
285737,-76.9230769230769,4,1,0,36,0,1
286162,-76.9230769230769,4,1,0,45,0,1
286445,-76.9230769230769,4,1,0,52,0,1
286728,-76.9230769230769,4,1,0,60,0,1
287011,-76.9230769230769,4,1,0,68,0,1
287294,-76.9230769230769,4,1,0,76,0,1
287577,-76.9230769230769,4,1,1,83,0,1
287855,-76.9230769230769,4,2,1,100,0,0
288138,-76.9230769230769,4,2,1,100,0,1
296068,-76.9230769230769,4,1,1,54,0,1
296351,-76.9230769230769,4,1,1,60,0,1
296634,-76.9230769230769,4,1,1,71,0,1
296923,-76.9230769230769,4,2,1,93,0,0
297195,-76.9230769230769,4,2,1,100,0,1
306252,-76.9230769230769,4,2,1,100,0,0
324082,-76.9230769230769,4,2,1,100,0,0
324152,-76.9230769230769,4,2,1,65,0,0
337093,300,4,2,1,40,1,0
346663,-100,4,1,0,70,0,0
346851,-100,4,2,1,70,0,0
366193,-100,4,2,1,70,0,0
384870,-100,4,2,0,70,0,0
384943,-100,4,1,0,70,0,0
385138,-100,4,2,1,70,0,0
388663,-100,4,1,0,70,0,0
389001,-100,4,2,1,70,0,0
399493,-100,4,1,0,70,0,0
399651,-100,4,2,1,70,0,0
408343,-100,4,1,0,70,0,0
408943,-100,4,1,0,70,0,0
409093,-100,4,1,0,70,0,0
409168,-100,4,2,1,70,0,0
416593,-100,4,1,0,70,0,0
416670,-100,4,2,0,70,0,0
416743,-100,4,1,0,50,0,0
416893,-100,4,1,0,80,0,0
416968,-100,4,2,0,70,0,0
417043,-100,4,1,0,50,0,0
417193,-100,4,1,0,90,0,0
417270,-100,4,2,0,70,0,0
417493,-100,4,1,0,100,0,0
417568,-100,4,2,0,70,0,0
418693,-100,4,2,1,70,0,1
428226,-100,4,1,0,70,0,1
428451,-100,4,2,1,70,0,1
436634,-100,4,2,0,70,0,1
436784,-100,4,1,0,70,0,1
437830,-100,4,1,0,70,0,0
437893,-100,4,1,0,70,0,1
442693,-100,4,1,0,70,0,0
452001,-100,4,2,1,70,0,0
461293,-100,4,1,0,70,0,0
461976,-100,4,2,1,70,0,0
470293,-100,4,1,0,70,0,0
471576,-100,4,2,0,70,0,0
471726,-100,4,1,0,70,0,0
471876,-100,4,2,1,70,0,0
475693,-100,4,1,0,70,0,0
475926,-100,4,1,0,70,0,0
476526,-100,4,1,0,70,0,0
476676,-100,4,2,1,70,0,0
479893,-100,4,1,0,70,0,0
481176,-100,4,2,0,70,0,0
481326,-100,4,1,0,70,0,0
481476,-100,4,2,1,70,0,0
490693,-100,4,1,0,70,0,1
490851,-100,4,2,1,70,0,1
499693,-100,4,1,0,60,0,1
499993,-100,4,1,0,65,0,1
500143,-100,4,1,0,70,0,0
500293,-100,4,1,0,70,0,1
501276,-100,4,2,0,70,0,1
501426,-100,4,1,0,70,0,1
501876,-100,4,2,0,70,0,1
502326,-100,4,1,0,70,0,1
502776,-100,4,2,0,70,0,1
502926,-100,4,1,0,70,0,1
509293,-100,4,1,0,60,0,1
509593,-100,4,1,0,65,0,1
514693,-100,4,1,0,70,0,0
514709,-100,4,1,0,70,0,0
563151,-83.3333333333333,4,1,0,70,0,0
574251,-76.9230769230769,4,1,0,70,0,0
581893,-76.9230769230769,4,1,0,70,0,1
591193,-76.9230769230769,4,1,0,70,0,0
591493,-76.9230769230769,4,1,0,70,0,1
601093,-76.9230769230769,4,1,0,70,0,1
603726,-83.3333333333333,4,1,0,70,0,1
605893,-83.3333333333333,4,1,0,70,0,0
634993,-83.3333333333333,4,1,0,20,0,0
648736,500,4,2,1,100,1,0
710611,-100,4,1,0,63,0,0
710781,-100,4,1,0,65,0,0
710857,-100,4,1,0,70,0,0
710982,-100,4,1,0,76,0,0
711107,-100,4,1,0,79,0,0
711232,-100,4,1,0,85,0,0
711357,-100,4,1,0,91,0,0
711482,-100,4,1,0,94,0,0
711781,-100,4,1,0,100,0,0
712736,-76.9230769230769,4,1,0,100,0,1
712798,-76.9230769230769,4,2,1,100,0,1
720498,-76.9230769230769,4,1,0,100,0,0
720736,-76.9230769230769,4,1,0,100,0,1
721986,-76.9230769230769,4,2,1,100,0,1
727986,-76.9230769230769,4,1,0,80,0,1
728111,-76.9230769230769,4,1,0,83,0,1
728236,-76.9230769230769,4,1,0,86,0,1
728361,-76.9230769230769,4,1,0,89,0,1
728486,-76.9230769230769,4,1,0,92,0,1
728623,-76.9230769230769,4,1,0,95,0,0
728736,-76.9230769230769,4,1,0,98,0,1
744736,-100,4,1,0,100,0,0
751234,-100,4,2,1,100,0,0
752611,-100,4,1,0,100,0,0
752861,-100,4,2,1,100,0,0
759611,-100,4,1,0,100,0,0
759861,-100,4,2,0,100,0,0
760173,-100,4,1,0,100,0,0
760361,-100,4,2,0,100,0,0
760673,-100,4,1,0,100,0,0
760861,-100,4,2,1,100,0,0
784548,-100,4,2,0,100,0,0
785111,-100,4,1,0,100,0,0
785361,-83.3333333333333,4,1,0,100,0,0
785548,-83.3333333333333,4,2,0,100,0,0
786111,-83.3333333333333,4,1,0,100,0,0
786361,-71.4285714285714,4,1,0,100,0,0
786548,-71.4285714285714,4,2,0,100,0,0
787111,-62.5,4,1,0,100,0,0
787548,-62.5,4,2,0,100,0,0
788111,-55.5555555555556,4,1,0,100,0,0
789361,-50,4,1,0,100,0,0
789548,-50,4,2,0,100,0,0
790111,-76.9230769230769,4,1,0,100,0,0
790736,-76.9230769230769,4,1,0,80,0,0
790986,-76.9230769230769,4,1,0,85,0,0
791236,-76.9230769230769,4,1,0,90,0,0
791486,-76.9230769230769,4,1,0,95,0,0
791736,-76.9230769230769,4,1,0,100,0,0
792736,-76.9230769230769,4,1,0,100,0,1
800486,-76.9230769230769,4,1,0,100,0,0
800736,-76.9230769230769,4,1,0,100,0,1
808611,-76.9230769230769,4,1,0,100,0,0
808736,-76.9230769230769,4,1,0,100,0,1
824611,-76.9230769230769,4,1,0,100,0,0
824736,-76.9230769230769,4,1,0,100,0,1
824861,-76.9230769230769,4,1,0,100,0,0
852361,-76.9230769230769,4,2,0,100,0,0
858736,-76.9230769230769,4,1,0,100,0,0
860736,-66.6666666666667,4,1,0,100,0,1
868486,-66.6666666666667,4,1,0,100,0,0
868736,-66.6666666666667,4,1,0,100,0,1
872361,-66.6666666666667,4,1,0,100,0,1
873861,-66.6666666666667,4,1,0,100,0,1
884486,-66.6666666666667,4,1,0,100,0,0
884736,-66.6666666666667,4,1,0,100,0,1
886236,-66.6666666666667,4,1,0,100,0,0
912957,856.959223023638,4,2,0,21,1,0
941887,-117.647058823529,4,2,0,21,0,0
972298,-100,4,2,0,21,0,0
974654,-100,4,2,0,21,0,0
991894,-117.647058823529,4,2,0,21,0,0
992858,-100,4,2,0,21,0,0
1015131,-90.9090909090909,4,2,0,21,0,0
1015452,-90.9090909090909,4,2,0,5,0,0
1017701,-100,4,2,0,15,0,0
1022649,428.571428571429,4,2,1,78,1,0
1030031,-90.9090909090909,4,2,0,79,0,0
1031103,-100,4,2,1,79,0,0
1049960,-100,4,1,0,60,0,0
1050174,-100,4,2,0,100,0,0
1051674,-100,4,1,0,60,0,0
1051889,-100,4,2,0,100,0,0
1052103,-100,4,1,0,60,0,0
1052317,-100,4,2,0,100,0,0
1052531,-100,4,1,0,60,0,0
1052746,-100,4,2,0,100,0,0
1052960,-100,4,1,0,60,0,0
1053174,-100,4,2,0,100,0,0
1053389,-100,4,1,0,80,0,0
1053603,-100,4,2,0,100,0,0
1054246,-100,4,1,0,80,0,0
1054460,-100,4,2,1,81,0,0
1067103,-100,4,1,0,80,0,0
1067317,-100,4,2,1,100,0,0
1069674,-100,4,1,0,85,0,0
1069996,-100,4,2,1,85,0,0
1070531,-100,4,1,0,68,0,0
1070746,-100,4,2,0,100,0,0
1071389,-100,4,1,0,80,0,0
1071603,-100,4,2,0,100,0,0
1072246,-100,4,1,0,60,0,0
1072460,-100,4,2,0,100,0,0
1073103,-100,4,1,0,80,0,0
1073317,-100,4,2,0,100,0,0
1073960,-100,4,1,0,60,0,0
1074174,-100,4,2,0,100,0,0
1074389,-100,4,1,0,60,0,0
1074603,-100,4,2,0,100,0,0
1074817,-100,4,1,0,80,0,0
1075031,-100,4,2,0,100,0,0
1075674,-100,4,1,0,60,0,0
1076317,-100,4,2,0,100,0,0
1076531,-100,4,1,0,80,0,0
1076746,-100,4,2,0,100,0,0
1077389,-100,4,2,1,81,0,0
1081246,-90.9090909090909,4,2,1,82,0,0
1082317,-100,4,2,1,80,0,0
1083281,-100,4,2,1,80,0,0
1093460,-90.9090909090909,4,2,1,80,0,0
1094317,-100,4,2,1,80,0,0
1105674,-100,4,2,1,80,0,0
1118531,-100,4,1,0,80,0,0
1118746,-100,4,2,1,80,0,0
1122014,-100,4,1,0,80,0,0
1122174,-100,4,2,1,80,0,0
1128817,-133.333333333333,4,2,1,80,0,0
1135674,-100,4,2,0,22,0,0
1137505,444.444444444444,4,2,0,22,1,0
1139282,461.538461538462,4,2,0,16,1,0
1140205,571.428571428571,4,2,0,19,1,0
1141347,571.428571428571,4,2,0,19,1,0
1150313,454.545454545455,4,2,0,100,1,0
1153040,-100,4,2,1,100,0,0
1226981,-72.992700729927,4,2,1,100,0,0
1241222,-68.0272108843537,4,2,1,100,0,1
1284868,-105.042016806723,4,1,0,100,0,0
1291224,-80.7754442649435,4,1,0,100,0,0
1291299,-80.7754442649435,4,2,1,100,0,0
1291375,-80.7754442649435,4,1,0,100,0,0
1291451,-80.7754442649435,4,2,1,100,0,0
1291527,-80.7754442649435,4,1,0,100,0,0
1291602,-80.7754442649435,4,2,1,100,0,0
1291678,-74.6268656716418,4,1,0,100,0,0
1292133,-72.7272727272727,4,2,1,100,0,0
1328494,-72.992700729927,4,2,1,100,0,1
1342147,-72.992700729927,4,2,1,100,0,1
1342737,-72.992700729927,4,2,1,100,0,0
1343040,-72.992700729927,4,2,1,100,0,1
1345025,-63.2911392405063,4,2,1,100,0,1
1345935,-72.992700729927,4,2,1,100,0,1
1357585,-72.992700729927,4,2,1,100,0,0
1372139,-72.992700729927,4,2,1,100,0,0
1408427,-86.2068965517241,4,2,1,100,0,0
1409571,-87.5656742556918,4,2,1,100,0,0
1412071,-87.5656742556918,4,1,0,100,0,0
1412222,-87.5656742556918,4,2,1,100,0,0
1415767,-72.992700729927,4,2,1,100,0,1
1430009,-72.992700729927,4,2,1,100,0,0
1430312,-72.992700729927,4,2,1,100,0,1
1430632,-63.2911392405063,4,2,1,100,0,1
1444706,-63.2911392405063,4,2,1,100,0,0
1444858,-63.2911392405063,4,2,1,100,0,1
1473949,-63.2911392405063,4,2,1,100,0,0
1491562,389.61038961039,4,1,0,80,1,0
1506367,-200,4,1,0,80,0,0
1507146,-100,4,1,0,80,0,0
1550782,-100,4,1,0,80,0,1
1575717,-100,4,1,0,80,0,0
1584873,-100,4,2,0,70,0,0
1587511,-100,4,1,0,80,0,0
1589938,-200,4,1,0,80,0,0
1590523,-100,4,1,0,80,0,0
1619354,-100,4,1,0,80,0,1
1644289,-100,4,1,0,80,0,0
1662990,-100,4,2,0,40,0,0
1678575,-100,4,2,0,70,0,0
1688315,-100,4,1,0,40,0,0
1688510,-100,4,1,0,50,0,0
1688704,-100,4,1,0,60,0,0
1688899,-100,4,1,0,70,0,0
1689094,-100,4,1,0,80,0,0
1689289,-100,4,1,0,80,0,0
1689484,-100,4,1,0,80,0,0
1691042,-100,4,1,0,80,0,1
1714419,-100,4,2,0,40,0,0
1730551,512.820512820513,4,1,0,100,1,0
1747667,-181.818181818182,4,2,0,35,0,0
1763137,-120.481927710843,4,2,1,70,0,0
1795191,-120.481927710843,4,2,1,90,0,0
1796192,-90.9090909090909,4,2,1,100,0,1
1824909,-100,4,2,1,100,0,0
1830166,-119.760479041916,4,2,1,100,0,0
1874140,-90.9090909090909,4,2,1,100,0,1
1902858,-100,4,2,1,100,0,0
1917477,-120.481927710843,4,2,1,100,0,0
1950551,-120.481927710843,4,2,1,70,0,0
1951063,-120.481927710843,4,2,1,60,0,0
1952088,-90.9090909090909,4,2,1,100,0,1
1967986,-90.9090909090909,4,2,1,100,0,0
1968499,-90.9090909090909,4,2,1,100,0,1
1980807,-90.9090909090909,4,2,1,100,0,0
1994397,428.571428571429,3,2,0,30,1,0
1995484,-100,3,2,0,48,0,0
1995913,-100,3,2,0,30,0,0
2000627,-100,3,2,0,51,0,0
2001055,-100,3,2,0,30,0,0
2045825,-100,3,2,0,40,0,0
2070163,-100,3,1,0,60,0,0
2070323,-100,3,2,0,60,0,0
2071539,-100,3,1,0,50,0,0
2072825,-100,3,1,0,60,0,0
2073055,-100,3,2,0,60,0,0
2073913,-100,3,2,1,60,0,0
2130682,-100,3,2,1,60,0,1
2141198,-87.719298245614,3,2,1,60,0,1
2142484,-100,3,2,1,60,0,1
2153825,-100,3,2,1,60,0,0
2189734,-87.719298245614,3,2,1,60,0,0
2197448,-100,3,2,1,60,0,0
2245012,-100,3,1,0,60,0,0
2246397,-100,3,1,0,60,0,1
2246619,-100,3,2,1,60,0,1
2269111,-100,3,2,1,60,0,0
2269539,-100,3,2,1,60,0,1
2290111,-100,3,2,1,60,0,0
2308992,447.761194029851,4,2,0,29,1,0
2316044,-100,4,2,1,51,0,0
2336305,-100,4,1,0,41,0,0
2337318,-100,4,2,1,51,0,0
2350969,-100,4,1,0,41,0,0
2351865,-133.333333333333,4,2,1,60,0,0
2365521,-133.333333333333,4,1,0,20,0,0
2365745,-133.333333333333,4,1,0,30,0,0
2365969,-100,4,1,0,50,0,0
2366305,-100,4,1,2,60,0,1
2379408,-100,4,1,2,70,0,1
2381087,-100,4,1,2,60,0,1
2394962,-100,4,1,2,60,0,0
2402350,-100,4,2,1,55,0,0
2415223,-100,4,1,0,50,0,0
2416566,-100,4,2,1,50,0,0
2429775,-100,4,1,0,50,0,0
2430671,-133.333333333333,4,2,1,50,0,0
2444327,-133.333333333333,4,2,1,40,0,0
2444551,-133.333333333333,4,2,1,50,0,0
2445111,-100,4,1,2,60,0,1
2470186,-100,4,1,0,65,0,0
2488096,-100,4,1,0,65,0,1
2488214,-100,4,1,0,65,0,0
2502424,-100,4,1,0,65,0,1
2502542,-100,4,1,0,65,0,0
2526162,-100,4,1,0,40,0,0
2526721,-100,4,1,0,50,0,0
2527169,-100,4,1,0,60,0,0
2527499,-100,4,1,2,65,0,1
2541380,-100,4,1,2,65,0,0
2541827,-100,4,1,2,65,0,1
2553021,-100,4,1,2,65,0,1
2555596,-100,4,1,2,5,0,1
2556156,-100,4,1,2,56,0,0
2565180,447.761194029851,4,1,0,100,1,0
2579508,-100,4,2,0,100,0,0
2586112,-100,4,1,0,69,0,0
2643985,-100,4,1,0,69,0,1
2658314,-100,4,1,0,69,0,1
2671747,-100,4,1,0,69,0,1
2672642,-100,4,1,0,69,0,0
2701539,-90.9090909090909,4,1,0,69,0,0
2715643,-100,4,1,0,69,0,0
2729956,-100,4,1,0,69,0,1
2758612,-76.9230769230769,4,1,0,69,0,0
2761875,-66.6666666666667,4,1,0,69,0,0
2801605,-133.333333333333,4,1,0,60,0,0
2815926,-100,4,1,0,60,0,0
2844582,-100,4,1,0,60,0,1
2855329,-100,4,1,0,60,0,0
2858911,-100,4,1,0,60,0,1
2873239,-100,4,1,0,60,0,0
2889304,-100,4,2,0,5,0,0
2895844,370.37037037037,4,2,0,100,1,0
2901399,-166.666666666667,4,2,0,50,0,0
2924269,-200,4,2,0,50,0,0
2940108,-200,4,2,1,50,0,0
2952145,-100,4,2,1,75,0,0
2960479,-133.333333333333,4,2,1,75,0,0
2962331,-100,4,2,1,75,0,0
2976220,-100,4,2,1,75,0,0
3016775,-133.333333333333,4,2,1,75,0,0
3018627,-100,4,2,1,75,0,0
3057232,-151.515151515152,4,1,0,60,0,0
3058719,-100,4,2,0,75,0,0
3059182,-100,4,2,1,75,0,0
3082562,-100,4,2,0,10,0,0
3086775,-100,4,2,0,75,0,0
3103066,-151.515151515152,4,1,0,60,0,0
3105571,-151.515151515152,4,2,0,75,0,0
3106126,-151.515151515152,4,1,0,60,0,0
3108066,-151.515151515152,4,2,0,75,0,0
3108437,-151.515151515152,4,1,0,60,0,0
3108626,-151.515151515152,4,2,0,75,0,0
3109177,-151.515151515152,4,1,0,60,0,0
3111029,-151.515151515152,4,2,0,75,0,0
3111400,-151.515151515152,4,1,0,60,0,0
3111589,-151.515151515152,4,2,0,75,0,0
3112140,-151.515151515152,4,1,0,60,0,0
3117978,-100,4,2,1,75,0,0
3126214,-100,4,2,1,75,0,0
3165474,-100,4,2,1,75,0,1
3176960,-100,4,2,1,75,0,0
3177325,-100,4,2,1,75,0,1
3177695,-100,4,2,1,75,0,0

[Colours]
Combo1 : 12,50,233
Combo2 : 253,225,28
Combo3 : 185,17,17
Combo4 : 30,136,35
SliderBorder : 0,0,0

[HitObjects]
256,64,1994397,5,2
336,320,1994825,1,0
128,160,1995254,1,0
384,160,1995682,1,0
176,320,1996111,1,0
256,192,1996539,1,0
336,320,1996968,1,2
336,144,1997397,6,0,B|320:101|256:69|192:101|176:149,1,200
384,32,1998254,1,2
256,192,1998682,1,0
128,32,1999111,1,0
176,240,1999539,2,0,B|192:283|256:315|320:283|336:235,1,200,2|0
128,352,2000397,5,0
256,192,2000825,1,0
384,352,2001254,1,0
472,200,2001682,2,0,B|456:96|456:96|384:32,1,200,0|2
213,100,2002539,2,0,B|192:128|208:176|255:196|304:176|320:128|296:95,1,200
126,33,2003397,2,0,B|56:96|56:96|40:200,1,200,2|0
176,352,2004254,6,0,B|200:312|256:296|256:296|312:312|336:352,1,200,0|2
301,182,2005111,1,0
213,182,2005325,1,0
304,24,2005754,2,0,B|349:50|349:50|368:96,1,100,0|2
208,24,2006397,2,0,B|163:50|163:50|144:96,1,100
339,233,2007254,6,0,B|380:288|348:384|255:424|157:384|125:288|173:223,1,400,2|0
86,73,2008539,2,0,B|108:33|161:17|214:22|256:77|256:77|299:21|352:13|416:31|429:79|429:79,1,400,2|0
336,248,2009825,2,0,B|320:202|256:170|192:202|176:245,1,200,2|0
176,336,2010468,2,0,B|191:381|255:413|319:381|335:338,1,200
256,296,2011111,5,2
336,136,2011539,1,0
176,136,2011968,1,0
256,176,2012182,1,0
336,136,2012397,2,0,B|368:80|336:32|304:16|304:16|256:52|256:52|208:16|208:16|176:32|136:80|180:144,1,400,2|0
94,276,2013682,2,0,B|134:359|222:383|262:386|300:380|377:360|420:275,1,400,2|0
256,192,2014968,5,2
104,112,2015397,1,0
184,64,2015611,2,0,B|199:18|263:-13|327:18|343:61,1,200
408,112,2016254,1,2
256,192,2016682,5,0
168,360,2017111,1,0
256,320,2017325,1,0
340,360,2017539,2,0,B|395:298|408:225|358:155|311:129|254:113|210:125|154:141|108:209|110:255|111:328|188:373,1,600,2|2
32,240,2019254,2,0,B|32:140,1,100
104,84,2019682,1,0
176,248,2020111,2,0,B|200:288|256:304|256:304|312:288|336:248,1,200,2|0
336,156,2020754,2,0,B|312:116|256:100|256:100|200:116|176:156,1,200
256,200,2021397,5,2
356,348,2021825,1,0
480,240,2022254,2,0,B|480:140,1,100,2|0
408,84,2022682,1,0
300,228,2023111,6,0,B|321:256|305:304|258:324|209:304|193:256|217:223,1,200,0|2
256,148,2023754,1,0
256,60,2023968,1,0
100,84,2024397,1,2
100,84,2024611,1,0
100,84,2024825,1,0
175,247,2025254,2,0,B|190:293|254:324|318:293|334:250,2,200,2|0|0
342,361,2026539,5,2
256,200,2026968,1,0
256,200,2027182,1,0
169,361,2027611,1,0
169,361,2027825,1,2
64,203,2028254,6,0,B|92:107|92:107|168:43,1,200,0|2
343,42,2029111,2,0,B|420:107|420:107|448:203,1,200
336,339,2029968,1,2
256,312,2030182,1,0
176,340,2030397,2,0,B|160:282|194:232|256:224|256:224|296:208|328:160|296:112|256:104|216:112|176:160|216:208|256:224|256:224|320:232|355:286|334:348,1,600,0|2
440,192,2032111,5,0
344,40,2032539,1,0
256,16,2032754,1,0
168,40,2032968,1,2
72,192,2033397,1,0
211,312,2033825,2,0,B|190:340|206:388|253:408|302:388|318:340|294:307,1,200,0|2
208,156,2034682,5,0
256,24,2034897,1,0
304,156,2035111,1,2
184,72,2035325,1,0
324,76,2035539,1,0
408,236,2035968,5,2
256,340,2036397,1,0
104,236,2036825,1,2
172,68,2037254,1,0
172,68,2037468,1,0
340,68,2037897,1,0
340,68,2038111,1,0
256,200,2038539,5,2
336,360,2038968,2,0,B|312:320|256:304|256:304|200:320|176:360,1,200,0|2
104,196,2039825,1,0
256,100,2040254,1,2
408,200,2040682,1,0
256,192,2040897,12,0,2043254
256,24,2044325,5,2
301,102,2044539,2,0,B|322:130|306:178|259:198|210:178|194:130|218:97,1,200
340,232,2045397,1,2
256,260,2045611,1,0
172,232,2045825,1,4
76,360,2046254,1,0
436,360,2047111,1,2
334,144,2047539,6,0,B|320:183|265:230|188:199|179:142|179:142,1,200,0|2
212,52,2048182,2,0,B|224:38|241:23|296:26|305:57|305:57,1,100
64,336,2049682,5,2
173,204,2050111,2,0,B|187:236|247:285|320:257|341:200|341:200,1,200,0|2
374,109,2050754,2,0,B|347:44|270:-14|156:19|137:117|137:117,1,300
448,336,2052254,1,2
256,192,2052682,5,0
192,250,2052897,2,0,B|157:294|184:334|233:346|256:312|256:312|282:348|328:336|364:292|309:241,2,300,0|2|0
56,324,2054611,1,0
56,324,2054825,5,2
176,96,2055254,2,0,B|200:56|256:40|256:40|312:56|336:96,1,200,0|2
256,144,2055897,1,0
336,188,2056111,2,0,B|312:228|256:244|256:244|200:228|176:188,1,200
344,356,2057397,2,0,B|312:320|276:336|256:356|256:356|236:332|192:320|160:368,1,200,2|0
256,264,2058039,1,0
359,34,2058682,6,0,B|413:71|379:165|309:209|236:120|188:73|200:24|245:-2|264:-12|283:-2|302:16|321:73|283:120|231:211|109:185|106:73|123:44|171:20,1,600,2|2
256,208,2060397,1,0
212,372,2060825,1,2
300,372,2061039,1,0
136,168,2061682,6,0,B|163:233|240:291|354:258|373:160|373:160,1,300,0|0
337,73,2062539,2,0,B|323:41|263:-8|190:20|169:77|169:77,1,200,2|0
254,129,2063182,1,0
176,352,2063825,1,2
256,316,2064039,1,0
336,352,2064254,1,0
256,192,2064468,12,0,2065968
46,270,2066397,6,0,B|106:194|106:194|46:110,1,200,2|0
299,34,2067254,2,0,B|320:62|304:110|257:130|208:110|192:62|216:29,1,200,2|0
454,270,2068111,2,0,B|394:194|394:194|454:110,1,200,2|0
298,350,2068968,2,0,B|319:322|303:274|256:254|207:274|191:322|215:355,1,200,4|0
480,60,2070254,6,0,B|480:107|412:116|391:71|391:71|372:26|320:26|301:71|301:71|284:116|230:116|211:71|211:71|194:26|140:26|123:71|123:71|99:116|33:107|33:58,2,600
256,200,2073254,5,0
168,360,2073682,1,0
340,360,2074111,2,0,B|395:298|408:225|358:155|311:129|254:113|210:125|154:141|108:209|110:255|111:328|188:373,2,600,8|8|8
472,200,2077325,6,0,B|472:100,1,100,8|8
392,56,2077754,1,0
336,128,2077968,2,0,B|312:168|256:184|256:184|200:168|176:128,1,200,8|0
40,200,2078825,2,0,B|40:100,1,100,8|0
116,52,2079254,1,4
177,271,2079682,6,0,B|201:231|257:215|257:215|313:231|337:271,1,200
299,355,2080325,2,0,B|283:372|256:377|256:377|227:372|213:354,1,100,0|8
144,90,2080968,6,0,B|153:55|199:44|221:77|199:100|209:146|242:133|255:48|255:48|265:133|298:146|310:100|288:77|310:44|364:50|366:88,1,400,0|8
340,268,2082254,1,0
256,304,2082468,1,8
172,268,2082682,1,0
328,360,2083111,5,8
256,196,2083539,1,0
184,360,2083968,1,0
112,194,2084397,2,0,B|172:135|127:69|127:69|216:94|257:0|257:0|292:94|382:69|382:69|339:136|399:194,2,600,8|8|8
206,348,2087397,6,0,B|310:348,1,100,8|8
355,271,2087825,2,0,B|154:271,1,200,8|8
208,40,2088682,6,0,B|312:40,1,100,8|8
357,117,2089111,2,0,B|156:117,1,200,8|4
52,260,2089968,1,0
212,344,2090397,2,0,B|224:358|241:373|296:370|305:339|305:339,1,100,0|2
256,268,2090825,1,8
460,260,2091254,1,0
416,84,2091682,5,2
352,148,2091897,1,0
328,60,2092111,1,8
160,148,2092539,1,0
96,84,2092754,1,8
184,60,2092968,1,0
129,290,2093397,6,0,B|157:341|243:400|353:360|384:290|384:290,1,300,8|0
300,228,2094254,2,0,B|288:242|271:257|216:254|207:223|207:223,1,100,2|0
256,144,2094682,1,8
148,44,2095111,6,0,B|72:112|72:112|56:208,1,200
80,288,2095754,1,0
168,324,2095968,2,0,B|192:360|232:360|256:344|256:344|276:360|320:360|344:324,1,200,8|0
456,208,2096825,2,0,B|440:112|440:112|364:44,1,200,2|8
256,192,2097682,1,0
301,268,2097897,2,0,B|256:288|256:288|210:268,1,100,8|0
48,344,2098539,5,8
192,48,2099182,2,0,B|160:89|184:161|254:190|327:161|351:89|315:40,1,300,2|8
464,344,2100468,1,0
256,272,2100897,5,2
256,360,2101111,1,8
172,208,2101539,2,0,B|186:176|246:127|319:155|340:212|340:212,1,200,0|0
123,97,2102397,2,0,B|158:52|257:5|353:49|389:100,1,300,8|8
388,99,2103254,1,0
332,296,2103682,1,8
256,340,2103897,1,0
180,296,2104111,1,0
176,208,2104325,1,0
256,160,2104539,1,0
336,208,2104754,1,0
256,248,2104968,5,8
256,36,2105611,1,0
256,248,2106039,5,2
176,304,2106254,2,0,B|200:344|256:360|256:360|312:344|336:304,1,200,8|0
411,139,2107111,2,0,B|370:42,1,100,2|0
299,99,2107539,2,0,B|320:127|304:175|257:195|208:175|192:127|216:94,1,200,8|0
139,46,2108182,2,0,B|101:139,1,100,8|0
128,288,2108825,2,0,B|256:368|256:368|384:288,1,300,8|8
300,232,2109682,2,0,B|256:256|256:256|212:232,1,100,8|0
256,152,2110111,1,4
108,52,2110539,5,2
204,204,2110968,2,0,B|210:255|210:255|254:287|302:255|302:255|306:203,1,200,0|8
412,60,2111825,1,2
412,60,2112039,1,0
440,224,2112468,1,0
440,224,2112682,2,0,B|416:324|416:324|328:368|328:368,1,200,8|2
184,368,2113539,2,0,B|97:324|97:324|73:224,1,200,0|8
176,76,2114397,2,0,B|200:116|256:132|256:132|312:116|336:76,1,200,2|8
256,32,2115039,1,0
256,32,2115254,5,4
432,192,2115682,2,0,B|404:171|356:187|336:234|356:283|404:299|437:275,1,200,2|0
256,360,2116539,1,8
80,276,2116968,2,0,B|108:297|156:281|176:234|156:185|108:169|75:193,1,200,2|0
176,40,2117825,5,8
336,40,2118254,1,0
256,96,2118468,1,8
176,40,2118682,1,0
256,200,2119111,1,8
208,348,2119539,5,8
176,260,2119754,1,8
256,200,2119968,1,8
336,260,2120182,1,0
304,348,2120397,1,12
348,72,2120825,6,0,B|288:72|288:72|256:48|256:48|224:72|224:72|164:72,1,200,2|0
160,352,2121682,6,0,B|128:338|79:278|107:205|164:184|164:184,1,200,8|2
256,172,2122325,2,0,B|256:372,1,200,0|2
352,352,2122968,2,0,B|384:338|433:278|405:205|348:184|348:184,1,200,8|0
256,32,2123825,5,2
96,152,2124254,1,8
164,336,2124682,1,2
348,336,2125111,1,0
416,152,2125539,1,0
256,192,2125647,12,0,2127682
348,80,2127897,6,0,B|288:80|288:80|256:56|256:56|224:80|224:80|164:80,1,200,2|0
172,288,2128754,2,0,B|186:256|246:207|319:235|340:292|340:292,1,200,0|0
256,344,2129397,1,8
192,152,2129825,2,0,B|156:56,1,100,8|0
256,68,2130254,1,8
320,152,2130468,2,0,B|356:56,1,100,0|4
426,311,2131111,6,0,B|404:351|351:367|298:362|256:307|256:307|213:363|160:371|96:353|83:305|83:305,1,400,0|8
256,192,2132397,5,0
340,32,2132825,1,2
256,64,2133039,1,0
172,32,2133254,1,8
256,284,2133897,1,8
182,323,2134111,2,0,B|256:387|256:387|336:323,1,200,0|8
320,152,2134968,2,0,B|292:208|292:208|256:188|220:208|220:208|196:152,1,200
144,76,2135611,2,0,B|196:64|232:20|232:20|256:56|256:56|276:20|276:20|320:64|368:76,1,300
404,252,2136682,5,0
256,356,2137111,1,8
108,252,2137539,1,0
164,172,2137754,2,0,B|224:140|256:172|304:220|288:268|224:268|208:220|256:172|288:140|348:172,2,300,0|2|0
256,28,2139468,5,0
256,28,2139682,1,8
396,140,2140111,1,8
344,216,2140325,1,8
256,240,2140539,1,0
168,216,2140754,1,8
116,140,2140968,1,12
113,306,2141397,2,0,B|128:352|192:368|224:336|224:288|184:272|152:320|204:368|256:368|256:368|308:368|360:320|328:272|288:288|288:336|324:368|400:344|403:296,1,456.000004348755,0|8
256,144,2142682,1,0
256,56,2142897,1,0
344,360,2143539,6,0,B|294:310|319:215|378:210|418:265|378:315|304:290|254:225|254:225|204:290|129:315|89:265|129:210|189:215|214:310|164:360,1,600,0|8
172,68,2145254,2,0,B|186:36|246:-13|319:15|340:72|340:72,1,200,0|2
373,163,2145897,2,0,B|346:228|269:286|155:253|136:155|136:155,2,300,0|0|2
440,224,2147397,5,8
213,335,2147825,2,0,B|236:352|256:360|256:360|277:351|304:331,1,100,0|2
76,228,2148682,1,8
256,192,2148789,12,2,2151254
60,85,2151682,6,0,B|32:134|31:182,1,100,2|8
120,156,2152111,2,0,B|98:269|152:358,1,200,0|8
451,298,2152968,6,0,B|479:249|480:201,1,100,8|8
391,227,2153397,2,0,B|413:114|359:25,1,200,8|4
256,192,2154254,5,0
33,334,2155111,6,0,B|33:287|101:278|122:323|122:323|141:368|193:368|212:323|212:323|229:278|283:278|302:323|302:323|319:368|373:368|390:323|390:323|414:278|480:287|480:336,1,600,8|8
256,152,2157039,1,8
176,108,2157254,2,0,B|192:65|256:33|320:65|336:113,2,200,8|8|8
256,264,2158539,1,8
80,336,2158968,6,0,B|132:368|160:336|176:320|176:320|192:336|208:352|232:344|232:344|256:368|280:344|280:344|304:352|320:336|336:320|336:320|352:336|380:368|432:336,1,400,8|0
340,172,2160254,2,0,B|381:116|349:21|256:-18|159:21|127:116|175:181,1,400,8|0
157,353,2161539,2,0,B|358:353,1,200,8|0
306,276,2162182,2,0,B|202:276,1,100,8|0
56,176,2162825,5,8
157,31,2163254,2,0,B|358:31,1,200,0|8
306,108,2163897,2,0,B|202:108,1,100,0|4
256,280,2164539,1,0
456,176,2164968,5,0
380,228,2165182,1,0
464,268,2165397,1,8
300,364,2165825,2,0,B|321:336|305:288|258:268|209:288|193:336|217:369,1,200
256,192,2166682,1,8
56,176,2167111,1,0
132,228,2167325,1,8
48,264,2167539,1,0
256,192,2167968,5,8
300,20,2168397,2,0,B|321:48|305:96|258:116|209:96|193:48|217:15,1,200
97,157,2169254,2,0,B|128:223|176:255|256:301|335:255|383:223|415:160,1,400,8|0
437,320,2170539,2,0,B|368:384|256:416|139:386|72:316,1,400,8|0
165,176,2171825,2,0,B|195:207|256:237|316:207|346:176,1,200,8|0
352,88,2172468,2,0,B|296:0,1,100,8|0
213,5,2172897,2,0,B|159:89,1,100,8|8
48,232,2173539,5,8
24,320,2173754,1,0
104,360,2173968,1,8
176,304,2174182,1,0
136,224,2174397,1,4
76,56,2174825,2,0,B|128:20|112:100|207:51|191:51|191:51|223:83|255:50|255:50|287:83|330:51|314:51|314:51|384:100|384:20|442:59,1,400,0|8
464,232,2176111,5,8
488,320,2176325,1,0
408,360,2176539,1,8
336,304,2176754,1,0
376,224,2176968,1,8
312,56,2177397,2,0,B|416:104|416:104,1,100
200,56,2178039,2,0,B|96:104|96:104,1,100,0|8
176,264,2178682,2,0,B|232:272|256:216|256:216|280:272|336:264,1,200
344,360,2179325,1,0
344,360,2179539,2,0,B|312:396|276:380|256:360|256:360|236:384|192:396|160:348,2,200,4|0|0
367,36,2180825,6,0,B|398:21|475:23|512:92|491:149|491:149,1,200,8|2
456,240,2181468,2,0,B|392:271|296:264|232:164|282:78|282:78,1,300,0|2
256,336,2182754,1,0
256,336,2182968,1,0
256,152,2183397,1,8
145,36,2183825,2,0,B|114:21|37:23|0:92|21:149|21:149,1,200,8|2
56,240,2184468,2,0,B|120:271|216:264|280:164|230:78|230:78,1,300,0|2
388,164,2185539,5,0
256,360,2185968,1,8
124,164,2186397,1,2
180,308,2186825,1,0
256,272,2187039,1,0
332,308,2187254,1,8
256,24,2187897,5,8
256,216,2188325,1,0
336,172,2188539,2,0,B|312:132|256:116|256:116|200:132|176:172,2,200,8|0|0
428,337,2189825,2,0,B|397:384|334:368|272:337|319:306|319:259|303:243|256:228|209:243|194:259|194:306|241:337|178:368|116:384|85:337,1,456.000004348755,4|0
16,176,2191111,2,0,B|59:186|103:161|113:118|113:118|114:83|115:49|81:30|46:46|28:80|44:116|78:117|113:118|113:118|157:111|184:69|177:25,1,456.000004348755,8|0
334,24,2192397,2,0,B|327:69|354:111|398:118|398:118|433:117|467:116|483:80|465:46|430:30|396:49|397:83|398:118|398:118|408:161|452:186|496:176,1,456.000004348755,8|0
464,254,2193468,1,0
404,328,2193682,5,8
256,192,2194111,1,0
176,124,2194325,1,8
208,36,2194539,1,8
304,36,2194754,1,0
336,124,2194968,1,12
96,226,2195397,2,0,B|112:308|179:376|252:395|355:368|404:296|422:226,1,456.000004348755,0|8
256,104,2196682,5,0
44,48,2197111,1,0
104,116,2197325,1,0
176,56,2197539,2,0,B|192:13|256:-19|320:13|336:61,1,200,8|0
336,148,2198182,2,0,B|320:191|256:223|192:191|176:143,1,200,8|0
256,104,2198825,5,8
164,300,2199254,1,0
348,300,2199682,1,0
256,192,2200111,12,8,2201397
256,192,2201504,12,8,2202682
256,192,2202789,12,4,2205254
384,80,2225825,5,4
128,80,2226468,1,2
132,308,2227111,1,8
384,308,2227754,1,2
256,192,2228182,5,0
336,148,2228397,1,8
336,60,2228611,1,0
256,24,2228825,1,2
176,60,2229039,1,0
176,148,2229254,1,0
256,192,2229468,1,0
320,256,2229682,2,0,B|351:297|327:368|257:398|185:368|161:297|196:248,1,300,8|2
108,228,2230539,5,0
72,208,2230682,1,0
52,168,2230825,1,0
56,128,2230968,2,0,B|64:76|112:28|176:36|212:76|212:76,1,200,8|0
288,120,2231611,2,0,B|348:140|388:104|388:104,1,100,2|0
468,96,2232039,1,0
440,180,2232254,2,0,B|395:224|395:268|395:313|440:357,1,200,8|2
256,364,2233111,2,0,B|256:156,1,200,0|8
72,180,2233968,2,0,B|116:224|116:268|116:313|72:357,2,200,2|0|8
48,136,2234968,1,0
56,88,2235111,1,0
88,60,2235254,2,0,B|112:32|148:32|172:68|172:68|196:100|236:104|260:72,1,200,2|0
344,48,2235897,5,0
428,80,2236111,2,0,B|496:88|508:160|492:220|440:240|372:224|372:224,1,200,4|0
452,308,2236754,2,0,B|404:328|344:296|328:244|328:204|356:176|356:176,1,200,2|0
336,100,2237397,2,0,B|312:60|256:44|256:44|200:60|176:100,1,200,8|0
164,188,2238039,2,0,B|156:176|184:204|184:244|168:296|108:328|60:308,1,200,2|0
76,220,2238682,1,8
88,132,2238897,1,0
172,100,2239111,5,2
212,109,2239218,1,0
245,142,2239325,1,0
304,208,2239539,1,0
388,172,2239754,1,0
468,212,2239968,2,0,B|500:248|500:304|468:364|388:344|388:344,1,200,8|2
368,328,2240539,1,0
345,310,2240682,1,0
314,311,2240825,1,0
285,326,2240968,1,0
252,331,2241111,1,0
230,317,2241254,2,0,B|193:288|193:230|252:200|252:200|310:171|310:113|252:80,1,300,4|2
176,48,2242111,6,0,B|136:92|80:76|80:76,1,100,0|0
80,156,2242539,1,8
168,324,2242968,5,2
344,324,2243397,1,0
432,156,2243825,1,4
256,32,2244254,1,2
176,76,2244468,2,0,B|192:119|256:151|320:119|336:71,1,200,8|0
407,131,2245111,5,0
388,154,2245218,1,0
366,175,2245325,1,0
341,192,2245432,1,0
313,202,2245539,1,0
283,210,2245647,1,0
256,212,2245754,1,0
229,210,2245861,1,0
199,202,2245968,1,0
171,192,2246075,1,0
146,175,2246182,1,0
124,154,2246289,1,0
105,131,2246397,1,4
52,240,2246825,5,2
140,320,2247254,1,0
256,348,2247682,1,8
372,320,2248111,1,2
460,240,2248539,1,0
488,156,2248754,1,0
404,172,2248968,6,0,B|320:128|320:128|304:20,1,200,8|2
207,23,2249611,1,0
207,23,2249825,2,0,B|192:128|192:128|108:172,1,200,0|8
336,292,2250682,6,0,B|322:324|262:373|189:345|168:288|168:288,1,200,2|0
135,197,2251325,2,0,B|162:132|239:74|353:107|372:205|372:205,1,300,2|0
152,36,2252397,1,2
360,36,2252825,1,8
256,192,2253254,5,0
192,250,2253468,2,0,B|157:294|184:334|233:346|256:312|256:312|282:348|328:336|364:292|309:241,2,300,2|8|0
56,324,2255182,5,2
56,324,2255397,1,8
176,96,2255825,2,0,B|200:56|256:40|256:40|312:56|336:96,1,200,2|0
256,144,2256468,1,0
336,188,2256682,2,0,B|312:228|256:244|256:244|200:228|176:188,1,200,4|0
456,324,2257539,1,0
256,364,2257968,1,8
56,324,2258397,1,2
92,232,2258611,6,0,B|140:232|152:194|150:166|150:166|182:167|220:143|206:87,1,200,0|0
303,101,2259254,2,0,B|298:142|329:167|361:166|361:166|359:194|371:232|420:232,1,200,2|0
376,312,2259897,2,0,B|324:324|324:324|300:372,1,100,8|0
208,365,2260325,2,0,B|188:324|188:324|136:312,1,100,0|8
56,128,2260968,5,2
256,104,2261397,1,0
304,20,2261611,1,0
208,20,2261825,1,8
372,132,2262254,2,0,B|345:197|268:255|154:222|135:124|135:124,1,300,2|0
56,188,2263111,2,0,B|76:240|144:300|220:308,1,200,8|0
304,306,2263754,2,0,B|372:294|436:240|456:188,1,200,2|0
456,187,2264397,1,2
256,192,2264504,12,8,2265682
256,192,2265789,12,10,2266968
184,124,2267397,5,8
256,76,2267611,1,8
328,124,2267825,1,8
304,212,2268039,1,0
212,212,2268254,1,8
256,352,2268682,5,8
80,68,2269111,1,8
432,64,2269539,1,12
466,303,2269968,2,0,B|466:182|332:145|256:220|256:220|142:315|199:391|256:411|313:391|370:315|256:220|256:220|180:145|9:172|46:321|46:321,1,1000,0|8
256,32,2272754,1,8
176,76,2272968,2,0,B|192:119|256:151|320:119|336:71,1,200,8|8
256,200,2273825,5,0
168,360,2274254,1,0
340,360,2274682,2,0,B|395:298|408:225|358:155|311:129|254:113|210:125|154:141|108:209|110:255|111:328|188:373,2,600,8|8|8
472,200,2277897,6,0,B|472:100,1,100,8|8
392,56,2278325,1,8
336,128,2278539,2,0,B|312:168|256:184|256:184|200:168|176:128,1,200,4|0
40,200,2279397,2,0,B|40:100,1,100,2|0
116,52,2279825,1,4
177,271,2280254,6,0,B|201:231|257:215|257:215|313:231|337:271,1,200
299,355,2280897,2,0,B|283:372|256:377|256:377|227:372|213:354,1,100,0|8
144,90,2281539,6,0,B|153:55|199:44|221:77|199:100|209:146|242:133|255:48|255:48|265:133|298:146|310:100|288:77|310:44|364:50|366:88,1,400,0|8
340,268,2282825,5,0
256,304,2283039,1,8
172,268,2283254,1,0
328,360,2283682,5,8
256,196,2284111,1,0
184,360,2284539,1,0
256,196,2284968,5,4
256,192,2285075,12,0,2286254
256,192,2286361,12,0,2287539
256,192,2287647,12,0,2290111
