osu file format v9

[General]
AudioFilename: Within Temptation - The Unforgiving.mp3
AudioLeadIn: 2000
PreviewTime: 1429260
Countdown: 0
SampleSet: Soft
StackLeniency: 0.7
Mode: 0
LetterboxInBreaks: 1

[Editor]
DistanceSpacing: 1
BeatDivisor: 6
GridSize: 4

[Metadata]
Title:The Unforgiving
Artist:Within Temptation
Creator:Armin
Version:Iron
Source:
Tags:Gonzvlo narakucrimson Roddie Vass_Bass ErufenRito Glass Card N'FoRcE force HakunoKaemi metal Why not me Shot in the Dark In the Middle of the Night Faster Fire and Ice Iron Where is the edge Sinead Lost Murder A Demon's Fate Stairway to the skies TU Marathon symphonic metal rock Sharon den Adel collab

[Difficulty]
HPDrainRate:6
CircleSize:4
OverallDifficulty:7
ApproachRate:8
SliderMultiplier:2
SliderTickRate:1

[Events]
//Background and Video events
0,0,"Within-Temptation.png"
//Break Periods
2,1285058,1290472
2,1372331,1382290
//Storyboard Layer 0 (Background)
//Storyboard Layer 1 (Fail)
//Storyboard Layer 2 (Pass)
//Storyboard Layer 3 (Foreground)
//Storyboard Sound Samples
//Background Colour Transformations
3,100,163,162,255

[TimingPoints]
2406,418.848167539267,4,2,0,100,1,0
15829,418.848167539267,4,2,0,100,1,0
34572,565.904267861353,4,1,0,100,1,0
47011,-100,4,2,1,100,0,0
95696,566.037735849057,4,2,1,100,1,0
97111,-100,4,1,0,80,0,1
97247,-100,4,1,0,82,0,1
97388,-100,4,1,0,84,0,1
97530,-100,4,1,0,86,0,1
97671,-100,4,1,0,90,0,1
97818,-100,4,1,0,93,0,0
97960,-100,4,1,0,96,0,1
98096,-100,4,2,1,100,0,1
106020,-100,4,1,1,80,0,1
106233,-100,4,1,1,83,0,1
106374,-100,4,1,1,86,0,1
106516,-100,4,1,1,89,0,1
106657,-100,4,1,1,92,0,1
106799,-100,4,1,1,95,0,1
106940,-100,4,2,1,98,0,1
116073,-100,4,2,1,98,0,0
124134,-100,4,1,0,100,0,0
124983,-100,4,2,1,100,0,0
160926,-100,4,1,0,100,0,0
161209,-100,4,2,1,100,0,0
165454,-100,4,1,0,100,0,0
165737,-100,4,2,1,100,0,0
169983,-100,4,1,0,100,0,0
170266,-100,4,2,0,87,0,0
172671,-100,4,1,0,100,0,0
173101,-100,4,1,0,81,0,1
173237,-100,4,1,0,84,0,1
173379,-100,4,1,0,87,0,1
173520,-100,4,1,0,90,0,1
174658,-100,4,2,0,100,0,0
174941,-100,4,2,1,100,0,1
182436,-100,4,2,0,100,0,1
183002,-100,4,1,0,100,0,1
183714,-100,4,2,0,100,0,0
183997,-100,4,2,1,100,0,1
191563,-100,4,1,0,80,0,1
191775,-100,4,1,0,83,0,1
191917,-100,4,1,0,86,0,1
192058,-100,4,1,0,89,0,1
192200,-100,4,1,0,91,0,1
192341,-100,4,1,0,93,0,1
192483,-100,4,1,0,95,0,1
192624,-100,4,1,0,97,0,1
192766,-100,4,1,0,98,0,1
192907,-100,4,1,0,99,0,1
193054,-100,4,2,0,100,0,0
209888,-100,4,1,0,63,0,0
211311,-100,4,2,0,5,0,0
214708,-100,4,2,0,30,0,0
215549,-100,4,1,0,15,0,0
215686,566.037735849057,4,1,0,15,1,0
215761,-100,4,2,0,5,0,0
217105,-100,4,2,0,31,0,0
217884,-100,4,1,0,15,0,0
218450,-100,4,2,0,30,0,0
218662,-100,4,1,0,15,0,0
219299,-100,4,2,0,29,0,0
219511,-100,4,2,0,36,0,0
220148,-100,4,1,0,16,0,0
220289,-100,4,2,0,16,0,0
220997,-100,4,1,0,16,0,0
221138,-100,4,2,0,16,0,0
222341,-100,4,1,0,16,0,0
222907,-100,4,2,0,16,0,0
223190,-100,4,1,0,16,0,0
223473,-100,4,2,0,16,0,0
224605,-100,4,1,0,16,0,0
225171,-100,4,2,0,16,0,0
225454,-100,4,1,0,16,0,0
226091,-100,4,2,0,16,0,0
226870,-100,4,1,0,16,0,0
227436,-100,4,2,0,16,0,0
227719,-100,4,1,0,16,0,0
228072,-100,4,2,0,16,0,0
229134,-100,4,1,0,16,0,0
229770,-100,4,2,0,16,0,0
229983,-100,4,1,0,16,0,0
230195,-100,4,2,0,16,0,0
231469,-100,4,1,0,16,0,0
231610,-100,4,2,0,16,0,0
232318,-100,4,1,0,16,0,0
232601,-100,4,2,0,33,0,0
233167,-100,4,2,0,21,0,0
233733,-100,4,1,0,21,0,0
243355,-100,4,1,0,41,0,0
246256,-100,4,1,0,26,0,0
247954,-100,4,1,0,39,0,0
250510,-100,4,2,0,40,0,0
250651,-100,4,2,0,50,0,0
250793,-100,4,2,0,60,0,0
251912,-100,4,2,1,100,0,1
267761,-100,4,2,1,100,0,0
270025,-100,4,2,1,100,0,1
270171,-76.9230769230769,4,2,1,83,0,1
285737,-76.9230769230769,4,1,0,36,0,1
286162,-76.9230769230769,4,1,0,45,0,1
286445,-76.9230769230769,4,1,0,52,0,1
286728,-76.9230769230769,4,1,0,60,0,1
287011,-76.9230769230769,4,1,0,68,0,1
287294,-76.9230769230769,4,1,0,76,0,1
287577,-76.9230769230769,4,1,1,83,0,1
287855,-76.9230769230769,4,2,1,100,0,0
288138,-76.9230769230769,4,2,1,100,0,1
296068,-76.9230769230769,4,1,1,54,0,1
296351,-76.9230769230769,4,1,1,60,0,1
296634,-76.9230769230769,4,1,1,71,0,1
296923,-76.9230769230769,4,2,1,93,0,0
297195,-76.9230769230769,4,2,1,100,0,1
306252,-76.9230769230769,4,2,1,100,0,0
324082,-76.9230769230769,4,2,1,100,0,0
324152,-76.9230769230769,4,2,1,65,0,0
337093,300,4,2,1,40,1,0
346663,-100,4,1,0,70,0,0
346851,-100,4,2,1,70,0,0
366193,-100,4,2,1,70,0,0
384870,-100,4,2,0,70,0,0
384943,-100,4,1,0,70,0,0
385138,-100,4,2,1,70,0,0
388663,-100,4,1,0,70,0,0
389001,-100,4,2,1,70,0,0
399493,-100,4,1,0,70,0,0
399651,-100,4,2,1,70,0,0
408343,-100,4,1,0,70,0,0
408943,-100,4,1,0,70,0,0
409093,-100,4,1,0,70,0,0
409168,-100,4,2,1,70,0,0
416593,-100,4,1,0,70,0,0
416670,-100,4,2,0,70,0,0
416743,-100,4,1,0,50,0,0
416893,-100,4,1,0,80,0,0
416968,-100,4,2,0,70,0,0
417043,-100,4,1,0,50,0,0
417193,-100,4,1,0,90,0,0
417270,-100,4,2,0,70,0,0
417493,-100,4,1,0,100,0,0
417568,-100,4,2,0,70,0,0
418693,-100,4,2,1,70,0,1
428226,-100,4,1,0,70,0,1
428451,-100,4,2,1,70,0,1
436634,-100,4,2,0,70,0,1
436784,-100,4,1,0,70,0,1
437830,-100,4,1,0,70,0,0
437893,-100,4,1,0,70,0,1
442693,-100,4,1,0,70,0,0
452001,-100,4,2,1,70,0,0
461293,-100,4,1,0,70,0,0
461976,-100,4,2,1,70,0,0
470293,-100,4,1,0,70,0,0
471576,-100,4,2,0,70,0,0
471726,-100,4,1,0,70,0,0
471876,-100,4,2,1,70,0,0
475693,-100,4,1,0,70,0,0
475926,-100,4,1,0,70,0,0
476526,-100,4,1,0,70,0,0
476676,-100,4,2,1,70,0,0
479893,-100,4,1,0,70,0,0
481176,-100,4,2,0,70,0,0
481326,-100,4,1,0,70,0,0
481476,-100,4,2,1,70,0,0
490693,-100,4,1,0,70,0,1
490851,-100,4,2,1,70,0,1
499693,-100,4,1,0,60,0,1
499993,-100,4,1,0,65,0,1
500143,-100,4,1,0,70,0,0
500293,-100,4,1,0,70,0,1
501276,-100,4,2,0,70,0,1
501426,-100,4,1,0,70,0,1
501876,-100,4,2,0,70,0,1
502326,-100,4,1,0,70,0,1
502776,-100,4,2,0,70,0,1
502926,-100,4,1,0,70,0,1
509293,-100,4,1,0,60,0,1
509593,-100,4,1,0,65,0,1
514693,-100,4,1,0,70,0,0
514709,-100,4,1,0,70,0,0
563151,-83.3333333333333,4,1,0,70,0,0
574251,-76.9230769230769,4,1,0,70,0,0
581893,-76.9230769230769,4,1,0,70,0,1
591193,-76.9230769230769,4,1,0,70,0,0
591493,-76.9230769230769,4,1,0,70,0,1
601093,-76.9230769230769,4,1,0,70,0,1
603726,-83.3333333333333,4,1,0,70,0,1
605893,-83.3333333333333,4,1,0,70,0,0
634993,-83.3333333333333,4,1,0,20,0,0
648736,500,4,2,1,100,1,0
710611,-100,4,1,0,63,0,0
710781,-100,4,1,0,65,0,0
710857,-100,4,1,0,70,0,0
710982,-100,4,1,0,76,0,0
711107,-100,4,1,0,79,0,0
711232,-100,4,1,0,85,0,0
711357,-100,4,1,0,91,0,0
711482,-100,4,1,0,94,0,0
711781,-100,4,1,0,100,0,0
712736,-76.9230769230769,4,1,0,100,0,1
712798,-76.9230769230769,4,2,1,100,0,1
720498,-76.9230769230769,4,1,0,100,0,0
720736,-76.9230769230769,4,1,0,100,0,1
721986,-76.9230769230769,4,2,1,100,0,1
727986,-76.9230769230769,4,1,0,80,0,1
728111,-76.9230769230769,4,1,0,83,0,1
728236,-76.9230769230769,4,1,0,86,0,1
728361,-76.9230769230769,4,1,0,89,0,1
728486,-76.9230769230769,4,1,0,92,0,1
728623,-76.9230769230769,4,1,0,95,0,0
728736,-76.9230769230769,4,1,0,98,0,1
744736,-100,4,1,0,100,0,0
751234,-100,4,2,1,100,0,0
752611,-100,4,1,0,100,0,0
752861,-100,4,2,1,100,0,0
759611,-100,4,1,0,100,0,0
759861,-100,4,2,0,100,0,0
760173,-100,4,1,0,100,0,0
760361,-100,4,2,0,100,0,0
760673,-100,4,1,0,100,0,0
760861,-100,4,2,1,100,0,0
784548,-100,4,2,0,100,0,0
785111,-100,4,1,0,100,0,0
785361,-83.3333333333333,4,1,0,100,0,0
785548,-83.3333333333333,4,2,0,100,0,0
786111,-83.3333333333333,4,1,0,100,0,0
786361,-71.4285714285714,4,1,0,100,0,0
786548,-71.4285714285714,4,2,0,100,0,0
787111,-62.5,4,1,0,100,0,0
787548,-62.5,4,2,0,100,0,0
788111,-55.5555555555556,4,1,0,100,0,0
789361,-50,4,1,0,100,0,0
789548,-50,4,2,0,100,0,0
790111,-76.9230769230769,4,1,0,100,0,0
790736,-76.9230769230769,4,1,0,80,0,0
790986,-76.9230769230769,4,1,0,85,0,0
791236,-76.9230769230769,4,1,0,90,0,0
791486,-76.9230769230769,4,1,0,95,0,0
791736,-76.9230769230769,4,1,0,100,0,0
792736,-76.9230769230769,4,1,0,100,0,1
800486,-76.9230769230769,4,1,0,100,0,0
800736,-76.9230769230769,4,1,0,100,0,1
808611,-76.9230769230769,4,1,0,100,0,0
808736,-76.9230769230769,4,1,0,100,0,1
824611,-76.9230769230769,4,1,0,100,0,0
824736,-76.9230769230769,4,1,0,100,0,1
824861,-76.9230769230769,4,1,0,100,0,0
852361,-76.9230769230769,4,2,0,100,0,0
858736,-76.9230769230769,4,1,0,100,0,0
860736,-66.6666666666667,4,1,0,100,0,1
868486,-66.6666666666667,4,1,0,100,0,0
868736,-66.6666666666667,4,1,0,100,0,1
872361,-66.6666666666667,4,1,0,100,0,1
873861,-66.6666666666667,4,1,0,100,0,1
884486,-66.6666666666667,4,1,0,100,0,0
884736,-66.6666666666667,4,1,0,100,0,1
886236,-66.6666666666667,4,1,0,100,0,0
912957,856.959223023638,4,2,0,21,1,0
941887,-117.647058823529,4,2,0,21,0,0
972298,-100,4,2,0,21,0,0
974654,-100,4,2,0,21,0,0
991894,-117.647058823529,4,2,0,21,0,0
992858,-100,4,2,0,21,0,0
1015131,-90.9090909090909,4,2,0,21,0,0
1015452,-90.9090909090909,4,2,0,5,0,0
1017701,-100,4,2,0,15,0,0
1022649,428.571428571429,4,2,1,78,1,0
1030031,-90.9090909090909,4,2,0,79,0,0
1031103,-100,4,2,1,79,0,0
1049960,-100,4,1,0,60,0,0
1050174,-100,4,2,0,100,0,0
1051674,-100,4,1,0,60,0,0
1051889,-100,4,2,0,100,0,0
1052103,-100,4,1,0,60,0,0
1052317,-100,4,2,0,100,0,0
1052531,-100,4,1,0,60,0,0
1052746,-100,4,2,0,100,0,0
1052960,-100,4,1,0,60,0,0
1053174,-100,4,2,0,100,0,0
1053389,-100,4,1,0,80,0,0
1053603,-100,4,2,0,100,0,0
1054246,-100,4,1,0,80,0,0
1054460,-100,4,2,1,81,0,0
1067103,-100,4,1,0,80,0,0
1067317,-100,4,2,1,100,0,0
1069674,-100,4,1,0,85,0,0
1069996,-100,4,2,1,85,0,0
1070531,-100,4,1,0,68,0,0
1070746,-100,4,2,0,100,0,0
1071389,-100,4,1,0,80,0,0
1071603,-100,4,2,0,100,0,0
1072246,-100,4,1,0,60,0,0
1072460,-100,4,2,0,100,0,0
1073103,-100,4,1,0,80,0,0
1073317,-100,4,2,0,100,0,0
1073960,-100,4,1,0,60,0,0
1074174,-100,4,2,0,100,0,0
1074389,-100,4,1,0,60,0,0
1074603,-100,4,2,0,100,0,0
1074817,-100,4,1,0,80,0,0
1075031,-100,4,2,0,100,0,0
1075674,-100,4,1,0,60,0,0
1076317,-100,4,2,0,100,0,0
1076531,-100,4,1,0,80,0,0
1076746,-100,4,2,0,100,0,0
1077389,-100,4,2,1,81,0,0
1081246,-90.9090909090909,4,2,1,82,0,0
1082317,-100,4,2,1,80,0,0
1083281,-100,4,2,1,80,0,0
1093460,-90.9090909090909,4,2,1,80,0,0
1094317,-100,4,2,1,80,0,0
1105674,-100,4,2,1,80,0,0
1118531,-100,4,1,0,80,0,0
1118746,-100,4,2,1,80,0,0
1122014,-100,4,1,0,80,0,0
1122174,-100,4,2,1,80,0,0
1128817,-133.333333333333,4,2,1,80,0,0
1135674,-100,4,2,0,22,0,0
1137505,444.444444444444,4,2,0,22,1,0
1139282,461.538461538462,4,2,0,16,1,0
1140205,571.428571428571,4,2,0,19,1,0
1141347,571.428571428571,4,2,0,19,1,0
1150313,454.545454545455,4,2,0,100,1,0
1153040,-100,4,2,1,100,0,0
1226981,-72.992700729927,4,2,1,100,0,0
1241222,-68.0272108843537,4,2,1,100,0,1
1284868,-105.042016806723,4,1,0,100,0,0
1291224,-80.7754442649435,4,1,0,100,0,0
1291299,-80.7754442649435,4,2,1,100,0,0
1291375,-80.7754442649435,4,1,0,100,0,0
1291451,-80.7754442649435,4,2,1,100,0,0
1291527,-80.7754442649435,4,1,0,100,0,0
1291602,-80.7754442649435,4,2,1,100,0,0
1291678,-74.6268656716418,4,1,0,100,0,0
1292133,-72.7272727272727,4,2,1,100,0,0
1328494,-72.992700729927,4,2,1,100,0,1
1342147,-72.992700729927,4,2,1,100,0,1
1342737,-72.992700729927,4,2,1,100,0,0
1343040,-72.992700729927,4,2,1,100,0,1
1345025,-63.2911392405063,4,2,1,100,0,1
1345935,-72.992700729927,4,2,1,100,0,1
1357585,-72.992700729927,4,2,1,100,0,0
1372139,-72.992700729927,4,2,1,100,0,0
1408427,-86.2068965517241,4,2,1,100,0,0
1409571,-87.5656742556918,4,2,1,100,0,0
1412071,-87.5656742556918,4,1,0,100,0,0
1412222,-87.5656742556918,4,2,1,100,0,0
1415767,-72.992700729927,4,2,1,100,0,1
1430009,-72.992700729927,4,2,1,100,0,0
1430312,-72.992700729927,4,2,1,100,0,1
1430632,-63.2911392405063,4,2,1,100,0,1
1444706,-63.2911392405063,4,2,1,100,0,0
1444858,-63.2911392405063,4,2,1,100,0,1
1473949,-63.2911392405063,4,2,1,100,0,0
1491562,389.61038961039,4,1,0,80,1,0
1506367,-200,4,1,0,80,0,0
1507146,-100,4,1,0,80,0,0
1550782,-100,4,1,0,80,0,1
1575717,-100,4,1,0,80,0,0
1584873,-100,4,2,0,70,0,0
1587511,-100,4,1,0,80,0,0
1589938,-200,4,1,0,80,0,0
1590523,-100,4,1,0,80,0,0
1619354,-100,4,1,0,80,0,1
1644289,-100,4,1,0,80,0,0
1662990,-100,4,2,0,40,0,0
1678575,-100,4,2,0,70,0,0
1688315,-100,4,1,0,40,0,0
1688510,-100,4,1,0,50,0,0
1688704,-100,4,1,0,60,0,0
1688899,-100,4,1,0,70,0,0
1689094,-100,4,1,0,80,0,0
1689289,-100,4,1,0,80,0,0
1689484,-100,4,1,0,80,0,0
1691042,-100,4,1,0,80,0,1
1714419,-100,4,2,0,40,0,0
1730551,512.820512820513,4,1,0,100,1,0
1747667,-181.818181818182,4,2,0,35,0,0
1763137,-120.481927710843,4,2,1,70,0,0
1795191,-120.481927710843,4,2,1,90,0,0
1796192,-90.9090909090909,4,2,1,100,0,1
1824909,-100,4,2,1,100,0,0
1830166,-119.760479041916,4,2,1,100,0,0
1874140,-90.9090909090909,4,2,1,100,0,1
1902858,-100,4,2,1,100,0,0
1917477,-120.481927710843,4,2,1,100,0,0
1950551,-120.481927710843,4,2,1,70,0,0
1951063,-120.481927710843,4,2,1,60,0,0
1952088,-90.9090909090909,4,2,1,100,0,1
1967986,-90.9090909090909,4,2,1,100,0,0
1968499,-90.9090909090909,4,2,1,100,0,1
1980807,-90.9090909090909,4,2,1,100,0,0
1994397,428.571428571429,3,2,0,30,1,0
1995484,-100,3,2,0,48,0,0
1995913,-100,3,2,0,30,0,0
2000627,-100,3,2,0,51,0,0
2001055,-100,3,2,0,30,0,0
2045825,-100,3,2,0,40,0,0
2070163,-100,3,1,0,60,0,0
2070323,-100,3,2,0,60,0,0
2071539,-100,3,1,0,50,0,0
2072825,-100,3,1,0,60,0,0
2073055,-100,3,2,0,60,0,0
2073913,-100,3,2,1,60,0,0
2130682,-100,3,2,1,60,0,1
2141198,-87.719298245614,3,2,1,60,0,1
2142484,-100,3,2,1,60,0,1
2153825,-100,3,2,1,60,0,0
2189734,-87.719298245614,3,2,1,60,0,0
2197448,-100,3,2,1,60,0,0
2245012,-100,3,1,0,60,0,0
2246397,-100,3,1,0,60,0,1
2246619,-100,3,2,1,60,0,1
2269111,-100,3,2,1,60,0,0
2269539,-100,3,2,1,60,0,1
2290111,-100,3,2,1,60,0,0
2308992,447.761194029851,4,2,0,29,1,0
2316044,-100,4,2,1,51,0,0
2336305,-100,4,1,0,41,0,0
2337318,-100,4,2,1,51,0,0
2350969,-100,4,1,0,41,0,0
2351865,-133.333333333333,4,2,1,60,0,0
2365521,-133.333333333333,4,1,0,20,0,0
2365745,-133.333333333333,4,1,0,30,0,0
2365969,-100,4,1,0,50,0,0
2366305,-100,4,1,2,60,0,1
2379408,-100,4,1,2,70,0,1
2381087,-100,4,1,2,60,0,1
2394962,-100,4,1,2,60,0,0
2402350,-100,4,2,1,55,0,0
2415223,-100,4,1,0,50,0,0
2416566,-100,4,2,1,50,0,0
2429775,-100,4,1,0,50,0,0
2430671,-133.333333333333,4,2,1,50,0,0
2444327,-133.333333333333,4,2,1,40,0,0
2444551,-133.333333333333,4,2,1,50,0,0
2445111,-100,4,1,2,60,0,1
2470186,-100,4,1,0,65,0,0
2488096,-100,4,1,0,65,0,1
2488214,-100,4,1,0,65,0,0
2502424,-100,4,1,0,65,0,1
2502542,-100,4,1,0,65,0,0
2526162,-100,4,1,0,40,0,0
2526721,-100,4,1,0,50,0,0
2527169,-100,4,1,0,60,0,0
2527499,-100,4,1,2,65,0,1
2541380,-100,4,1,2,65,0,0
2541827,-100,4,1,2,65,0,1
2553021,-100,4,1,2,65,0,1
2555596,-100,4,1,2,5,0,1
2556156,-100,4,1,2,56,0,0
2565180,447.761194029851,4,1,0,100,1,0
2579508,-100,4,2,0,100,0,0
2586112,-100,4,1,0,69,0,0
2643985,-100,4,1,0,69,0,1
2658314,-100,4,1,0,69,0,1
2671747,-100,4,1,0,69,0,1
2672642,-100,4,1,0,69,0,0
2701539,-90.9090909090909,4,1,0,69,0,0
2715643,-100,4,1,0,69,0,0
2729956,-100,4,1,0,69,0,1
2758612,-76.9230769230769,4,1,0,69,0,0
2761875,-66.6666666666667,4,1,0,69,0,0
2801605,-133.333333333333,4,1,0,60,0,0
2815926,-100,4,1,0,60,0,0
2844582,-100,4,1,0,60,0,1
2855329,-100,4,1,0,60,0,0
2858911,-100,4,1,0,60,0,1
2873239,-100,4,1,0,60,0,0
2889304,-100,4,2,0,5,0,0
2895844,370.37037037037,4,2,0,100,1,0
2901399,-166.666666666667,4,2,0,50,0,0
2924269,-200,4,2,0,50,0,0
2940108,-200,4,2,1,50,0,0
2952145,-100,4,2,1,75,0,0
2960479,-133.333333333333,4,2,1,75,0,0
2962331,-100,4,2,1,75,0,0
2976220,-100,4,2,1,75,0,0
3016775,-133.333333333333,4,2,1,75,0,0
3018627,-100,4,2,1,75,0,0
3057232,-151.515151515152,4,1,0,60,0,0
3058719,-100,4,2,0,75,0,0
3059182,-100,4,2,1,75,0,0
3082562,-100,4,2,0,10,0,0
3086775,-100,4,2,0,75,0,0
3103066,-151.515151515152,4,1,0,60,0,0
3105571,-151.515151515152,4,2,0,75,0,0
3106126,-151.515151515152,4,1,0,60,0,0
3108066,-151.515151515152,4,2,0,75,0,0
3108437,-151.515151515152,4,1,0,60,0,0
3108626,-151.515151515152,4,2,0,75,0,0
3109177,-151.515151515152,4,1,0,60,0,0
3111029,-151.515151515152,4,2,0,75,0,0
3111400,-151.515151515152,4,1,0,60,0,0
3111589,-151.515151515152,4,2,0,75,0,0
3112140,-151.515151515152,4,1,0,60,0,0
3117978,-100,4,2,1,75,0,0
3126214,-100,4,2,1,75,0,0
3165474,-100,4,2,1,75,0,1
3176960,-100,4,2,1,75,0,0
3177325,-100,4,2,1,75,0,1
3177695,-100,4,2,1,75,0,0

[Colours]
Combo1 : 255,150,0
Combo2 : 5,240,5
Combo3 : 5,5,240
Combo4 : 240,5,5
SliderBorder : 0,0,0

[HitObjects]
256,320,1153040,5,8
256,252,1153343,1,8
256,240,1153494,1,8
256,228,1153646,1,8
256,216,1153797,1,0
256,204,1153949,1,4
380,136,1154252,6,0,B|412:196,1,66.6666666666667,0|8
456,124,1154555,2,0,B|423:62,1,66.6666666666667,0|0
324,64,1154858,2,2,B|256:92|188:64,1,133.333333333333,2|0
88,62,1155312,2,0,B|56:124,1,66.6666666666667,8|0
99,197,1155616,2,0,B|132:136,1,66.6666666666667,0|0
256,228,1156070,6,0,B|256:296,2,66.6666666666667,0|8|0
256,140,1156525,1,0
196,80,1156676,2,2,B|256:53|256:53|316:80,1,133.333333333333,2|0
388,140,1157131,2,0,B|456:156,2,66.6666666666667,8|0|0
316,201,1157585,6,0,B|255:227|255:227|195:201,1,133.333333333333,4|0
124,140,1158040,2,0,B|56:156,1,66.6666666666667,8|0
44,336,1158494,2,2,B|184:304,1,133.333333333333,2|0
256,256,1158949,2,0,B|256:324,1,66.6666666666667,8|0
468,336,1159403,6,0,B|328:304,1,133.333333333333,4|0
324,212,1159858,2,0,B|360:152,1,66.6666666666667,8|0
256,140,1160161,1,0
188,212,1160312,2,0,B|152:152,1,66.6666666666667,2|0
204,52,1160616,5,8
228,40,1160767,1,8
256,36,1160919,1,8
288,40,1161070,1,0
316,52,1161222,1,4
468,156,1161525,6,0,B|468:224,1,66.6666666666667,0|8
468,316,1161828,1,0
380,344,1161979,1,0
288,352,1162131,2,0,B|288:284|288:284|336:228,1,133.333333333333,2|0
248,192,1162585,6,0,B|200:248,1,66.6666666666667,8|0
140,312,1162888,1,0
80,244,1163040,2,0,B|176:140,1,133.333333333333,0|0
256,100,1163494,2,0,B|256:30,2,66.6666666666667,8|0|0
337,141,1163949,2,0,B|432:244,1,133.333333333333,2|0
339,268,1164403,2,0,B|305:222|256:203|206:222|172:268,1,200,8|4
172,93,1165161,5,0
171,92,1165312,2,0,B|205:137|256:156|305:137|339:92,1,200,8|2
358,254,1166070,2,0,B|332:320,1,66.6666666666667,0|8
256,360,1166373,1,0
179,319,1166525,2,0,B|154:254,1,66.6666666666667,0|4
316,112,1166979,6,0,B|304:44,2,66.6666666666667,8|8|8
256,180,1167434,1,0
196,112,1167585,2,8,B|208:44,2,66.6666666666667,8|8|0
152,224,1168040,6,0,B|216:252,1,66.6666666666667,8|8
360,224,1168343,2,0,B|296:252,1,66.6666666666667,0|4
256,32,1168949,5,8
420,112,1169252,1,0
494,80,1169403,2,2,B|462:12|375:0|319:68|343:144|343:144|356:188|356:188|379:259|323:287,1,400,2|0
144,268,1170616,2,0,B|136:232|144:200,1,66.6666666666667,0|8
172,120,1170919,1,0
224,56,1171070,2,0,B|256:32|288:56,1,66.6666666666667,0|2
340,120,1171373,1,0
367,199,1171525,2,0,B|376:232|368:268,1,66.6666666666667,0|8
187,287,1172131,6,0,B|132:260|154:188|154:188|168:144|168:144|192:68|136:0|48:12|16:80,1,400,4|2
24,164,1173191,1,0
92,112,1173343,1,0
164,68,1173494,2,0,B|196:48|232:60|259:88|259:88|283:112,1,133.333333333333,8|0
328,184,1173949,1,2
256,224,1174100,1,0
184,184,1174252,1,0
227,112,1174403,2,0,B|252:88|252:88|280:60|316:48|348:68,1,133.333333333333,8|0
452,192,1174858,5,4
256,356,1175161,1,2
60,192,1175464,1,2
256,28,1175767,1,4
256,196,1176070,6,0,B|292:136,1,66.6666666666667,0|8
256,196,1176373,2,0,B|220:136,1,66.6666666666667
174,68,1176676,2,0,B|99:68|51:153|99:239|174:239,1,266.666666666667,4|2
338,67,1177585,2,0,B|412:67|461:152|412:239|338:239,1,266.666666666667,4|2
192,152,1178494,2,0,B|228:184|256:152|284:120|320:152,2,133.333333333333,4|2|2
80,281,1179403,6,0,B|136:352|256:396|376:352|441:272,1,400,4|2
448,188,1180464,1,0
368,164,1180616,1,0
356,248,1180767,2,0,B|332:272|292:276,1,66.6666666666667,8|0
156,248,1181070,6,0,B|180:272|218:275,1,66.6666666666667,8|4
212,192,1181373,2,0,B|188:168|150:165,1,66.6666666666667,0|0
68,148,1181676,1,8
84,64,1181828,1,8
168,80,1181979,1,8
256,106,1182131,6,0,B|256:36,1,66.6666666666667
344,80,1182434,1,0
428,64,1182585,1,8
444,148,1182737,1,8
362,164,1182888,2,0,B|324:168|300:192,1,66.6666666666667,0|4
68,292,1183494,5,8
40,212,1183646,2,0,B|84:192|140:220|148:268,2,133.333333333333,0|2|0
32,128,1184403,1,8
116,136,1184555,2,0,B|188:152|216:228,1,133.333333333333,0|4
395,136,1185161,6,0,B|324:152|296:225,1,133.333333333333,0|0
408,352,1185767,2,0,B|479:336|507:262,1,133.333333333333,2|0
396,136,1186373,1,0
104,352,1186676,6,0,B|32:336|4:262,1,133.333333333333,4|0
80,220,1187131,1,8
164,204,1187282,2,0,B|148:136,1,66.6666666666667
192,69,1187585,2,0,B|256:87|256:87|319:69,1,133.333333333333,2|0
364,135,1188040,2,0,B|348:204,1,66.6666666666667,8|0
256,344,1188494,5,4
140,120,1188797,1,2
332,284,1189100,1,2
256,44,1189403,1,4
180,284,1189706,1,2
372,120,1190009,1,2
256,344,1190312,1,4
488,244,1190767,6,0,B|436:40,1,200,8|2
300,140,1191525,2,0,B|364:164,1,66.6666666666667,0|8
212,140,1191979,2,0,B|148:164,1,66.6666666666667,8|2
75,40,1192585,2,0,B|24:244,1,200,8|2
204,268,1193343,5,0
228,280,1193494,1,8
256,284,1193646,1,8
288,280,1193797,1,0
316,268,1193949,1,4
80,203,1194403,6,0,B|141:127|256:85|370:127|431:203,1,400,8|10
212,312,1195767,2,0,B|180:252,1,66.6666666666667
300,312,1196222,2,0,B|332:248,1,66.6666666666667,8|0
212,144,1196676,5,8
208,108,1196828,1,0
224,76,1196979,1,0
256,64,1197131,1,8
288,76,1197282,1,0
304,108,1197434,1,0
300,144,1197585,1,12
392,264,1197888,5,2
392,264,1198040,1,2
256,344,1198343,1,2
256,344,1198494,1,0
120,264,1198797,1,2
176,104,1199100,1,2
332,104,1199403,1,0
256,216,1199706,5,0
256,200,1199858,1,8
256,184,1200009,1,0
256,168,1200161,1,0
256,152,1200312,1,2
304,284,1200616,1,0
284,304,1200767,1,8
256,312,1200919,1,0
228,304,1201070,1,0
208,284,1201222,1,2
84,192,1201525,6,0,B|52:280|52:280,1,66.6666666666667,0|8
32,108,1201979,2,0,B|64:32|64:32,1,66.6666666666667,0|2
201,101,1202434,2,0,B|219:71|252:59|293:64|315:108,1,133.333333333333
313,250,1203040,2,0,B|296:278|260:291|216:285|192:238,1,133.333333333333,2|0
155,317,1203494,6,0,B|182:349|233:356,1,66.6666666666667,8|0
298,353,1203797,2,0,B|332:345|357:317,1,66.6666666666667,0|2
256,188,1204252,1,0
256,168,1204403,1,8
256,148,1204555,1,0
256,128,1204706,1,0
256,104,1204858,1,4
428,192,1205161,6,0,B|460:280|460:280,1,66.6666666666667,0|8
480,108,1205616,2,0,B|448:32|448:32,1,66.6666666666667,0|2
311,57,1206070,2,0,B|292:30|265:30|254:19|254:19|246:30|220:30|203:55,1,133.333333333333
121,176,1206676,2,0,B|130:226|215:249|256:199|256:199|288:247|388:235|392:162,1,333.333333333333,2|0
464,232,1207585,1,2
337,345,1207888,5,0
294,354,1208040,1,8
256,336,1208191,1,0
217,354,1208343,1,0
178,345,1208494,1,2
48,232,1208797,1,0
48,232,1208949,1,8
224,165,1209252,6,0,B|256:176|256:176|290:164,1,66.6666666666667,0|2
197,56,1209706,2,0,B|255:28|255:28|317:55,2,133.333333333333,0|0|2
116,184,1210616,1,0
147,197,1210767,1,8
169,224,1210919,1,0
181,256,1211070,1,0
180,292,1211222,1,2
332,292,1211525,1,8
331,256,1211676,1,8
343,224,1211828,1,8
365,197,1211979,1,0
396,184,1212131,1,4
336,44,1212434,6,0,B|336:77|336:77|314:106,1,66.6666666666667,0|8
176,44,1212888,2,0,B|175:77|175:77|197:106,1,66.6666666666667,0|2
200,244,1213343,2,0,B|217:272|253:285|297:279|321:232,1,133.333333333333
99,267,1213949,2,0,B|131:363|263:412|385:368|423:243,1,400,2|2
180,145,1215312,6,0,B|195:97|255:86|255:86|311:94|333:148,1,200,8|4
124,44,1216222,5,8
256,168,1216525,1,0
256,168,1216676,1,2
388,44,1216979,1,0
435,226,1217282,1,2
353,350,1217585,2,0,B|284:340|117:251|74:123|147:-32|400:-9|466:163|336:289|227:339|160:351,1,800,2|4
77,224,1219706,1,0
77,224,1219858,5,8
120,48,1220161,1,2
120,48,1220312,1,2
256,120,1220616,1,0
392,48,1220919,1,0
400,200,1221222,2,0,B|382:282|318:334|255:334|166:330|116:273|107:181|107:181,2,400,2|2|4
256,40,1223494,5,8
256,184,1223797,1,2
256,184,1223949,1,2
319,332,1224252,2,0,B|300:360|264:373|220:367|196:320,1,133.333333333333,0|0
96,200,1224858,1,2
184,72,1225161,5,0
256,40,1225312,1,8
328,72,1225464,1,0
416,200,1225767,1,0
296,356,1226070,1,8
320,280,1226222,1,8
256,232,1226373,1,0
192,280,1226525,1,0
216,356,1226676,1,4
336,111,1227131,6,0,B|352:47|288:15|256:15|223:15|159:47|175:111,2,274.000001469851,2|2|8
256,304,1228343,1,0
193,277,1228494,2,0,B|181:298|174:343|209:397|268:399|316:376|345:340|324:276|318:268,1,274.000001469851,2|8
496,128,1229403,1,0
256,32,1229706,5,0
216,156,1229858,1,8
320,80,1230009,1,8
192,80,1230161,1,8
296,156,1230312,1,4
16,128,1230767,5,2
175,288,1231222,2,0,B|159:352|223:384|256:384|288:384|352:352|336:288,1,274.000001469851,2|8
438,116,1231979,1,0
361,51,1232131,2,0,B|334:77|294:90|255:51|255:24|255:24|255:51|215:90|175:77|149:51,1,274.000001469851,2|8
64,336,1233040,1,2
256,224,1233343,5,0
296,356,1233494,1,8
192,276,1233646,1,8
320,276,1233797,1,0
216,356,1233949,1,4
362,100,1234403,6,0,B|338:31|253:0|175:28|151:108,1,274.000001469851,2|2
448,336,1235312,1,8
256,212,1235616,1,0
203,281,1235767,2,0,B|184:332|184:332|220:332|256:368|256:368|292:332|328:332|328:332|308:279,1,274.000001469851,2|8
64,337,1236676,1,2
180,88,1237131,6,0,B|203:42|256:31|310:43|333:90,1,182.666667646567,8|0
362,187,1237585,2,0,B|324:295|164:293|148:177|148:177,3,274.000001469851,4|8|2|8
40,360,1239252,1,8
127,312,1239403,2,0,B|166:350|217:355,1,91.3333338232835,2|0
305,353,1239706,2,0,B|346:350|385:312,1,91.3333338232835,0|8
472,360,1240009,1,2
474,357,1240085,1,0
476,354,1240161,5,8
488,248,1240312,1,0
408,208,1240464,1,0
320,144,1240616,1,0
256,64,1240767,1,8
192,144,1240919,1,0
112,208,1241070,1,0
24,248,1241222,1,4
328,340,1241676,6,0,B|320:312|296:280|256:268|216:280|192:312|184:340,1,196.000001869202,8|0
120,252,1242131,2,0,B|180:208|256:180|332:208|392:252,1,294.000002803803,2|8
472,96,1242888,1,0
392,36,1243040,6,0,B|332:80|256:108|180:80|120:36,1,294.000002803803,4|8
16,68,1243646,2,0,B|8:168,1,98.0000009346008
112,140,1243949,2,0,B|196:196|204:308,1,196.000001869202,2|0
308,305,1244403,2,0,B|316:196|400:140,1,196.000001869202,8|2
368,36,1244858,6,0,B|304:60|256:128|256:128|208:60|144:36,2,294.000002803803,4|8|2
503,165,1246070,2,0,B|496:68,1,98.0000009346008,0|8
424,148,1246373,2,0,B|431:245,1,98.0000009346008,0|0
340,300,1246676,6,0,B|340:224|292:192|256:192|220:192|172:160|172:84,1,294.000002803803,4|8
339,85,1247585,2,0,B|340:160|292:192|256:192|220:192|172:224|171:299,1,294.000002803803,2|8
80,356,1248191,2,0,B|68:304|76:260,1,98.0000009346008,8|0
136,168,1248494,6,0,B|212:168|228:256|304:256,1,196.000001869202,4|0
412,248,1248949,2,0,B|480:252|496:180|496:180|512:104,1,196.000001869202,8|0
424,40,1249403,2,0,B|356:36|340:108|340:108|324:184,1,196.000001869202,2|0
324,184,1249858,1,8
100,248,1250161,5,0
100,248,1250312,2,0,B|32:252|16:180|16:180|0:104,1,196.000001869202,4|0
88,40,1250767,2,0,B|156:36|172:108|172:108|188:184,1,196.000001869202,8|0
292,212,1251222,2,0,B|384:220|384:220|396:164|372:120,1,196.000001869202,2|0
324,60,1251676,1,8
256,28,1251828,1,0
188,60,1251979,1,0
140,120,1252131,6,0,B|116:164|128:220|128:220|220:212,1,196.000001869202,4|0
328,204,1252585,2,0,B|384:200|384:200|440:196|472:248|452:308|392:312|392:312|340:316,2,294.000002803803,8|2|8
328,204,1253646,1,0
174,316,1253949,2,0,B|120:312|120:312|60:308|40:248|72:196|128:200|128:200|184:204,1,294.000002803803,4|8
192,96,1254555,2,0,B|96:88,2,98.0000009346008,0|8|4
418,87,1255161,6,0,B|320:96,1,98.0000009346008,0|8
280,184,1255464,2,0,B|378:175,1,98.0000009346008,8|0
376,272,1255767,6,0,B|280:280|280:280|224:284|204:336,1,196.000001869202,4|0
308,336,1256222,2,0,B|288:284|232:280|232:280|136:272,1,196.000001869202,8|0
40,264,1256676,2,0,B|52:180|140:176|140:176|228:172|240:88,1,294.000002803803,2|8
144,80,1257282,1,0
136,272,1257585,5,4
256,116,1257888,1,0
256,116,1258040,1,8
376,272,1258343,1,0
376,272,1258494,2,0,B|424:252|460:200|440:136|416:108,1,196.000001869202,2|0
332,60,1258949,2,0,B|280:60|256:8|256:8|232:60|180:60,1,196.000001869202,8|0
96,108,1259403,2,0,B|71:136|51:200|87:252|135:272,1,196.000001869202,4|0
180,360,1259858,2,0,B|232:360|256:308|256:308|280:360|332:360,1,196.000001869202,8|0
424,320,1260312,2,0,B|368:276|336:192|368:108|424:64,2,294.000002803803,2|8|4
256,176,1261676,5,8
87,320,1262131,2,0,B|144:276|176:192|144:108|88:64,1,294.000002803803,2|8
32,144,1262737,1,2
32,240,1262888,1,0
132,236,1263040,6,0,B|328:228,1,196.000001869202,4|0
380,148,1263494,2,0,B|184:156,1,196.000001869202,8|0
184,156,1263949,1,2
332,60,1264252,2,0,B|429:55,1,98.0000009346008,0|8
436,232,1264706,2,0,B|338:236,1,98.0000009346008,0|4
82,329,1265161,6,0,B|180:324,1,98.0000009346008,0|8
173,148,1265616,2,0,B|76:152,1,98.0000009346008,0|2
132,236,1266070,1,0
132,236,1266222,2,0,B|328:228,1,196.000001869202,8|0
432,192,1266676,5,4
256,128,1266979,1,0
256,128,1267131,1,8
80,192,1267434,1,0
80,192,1267585,1,2
352,240,1267888,1,0
352,240,1268040,1,8
160,240,1268343,1,0
160,240,1268494,1,2
316,372,1268949,5,8
256,380,1269100,1,8
196,372,1269252,1,2
168,288,1269403,5,8
256,276,1269555,1,0
344,284,1269706,1,2
372,200,1269858,5,8
256,176,1270009,1,0
140,200,1270161,1,2
256,100,1270312,5,4
384,280,1270767,6,0,B|436:280|488:252|512:192|488:132|436:104|384:104,1,294.000002803803,8|2
300,126,1271373,2,0,B|300:224,1,98.0000009346008,0|2
256,296,1271676,1,8
212,224,1271828,2,0,B|212:126,1,98.0000009346008,0|2
128,103,1272131,2,0,B|76:104|24:132|0:192|24:252|76:280|128:280,3,294.000002803803,4|2|0|2
340,76,1273949,6,0,B|384:108|412:184|384:260|332:308|256:328|180:308|128:260|100:184|128:108|172:76,2,588.000005607605,4|2|4
48,40,1276222,1,8
36,136,1276373,1,0
72,228,1276525,1,0
140,296,1276676,2,0,B|220:304|256:224|256:224|292:304|372:296,1,294.000002803803,2|8
440,228,1277282,1,0
476,136,1277434,1,0
464,40,1277585,1,4
256,248,1278040,5,8
256,64,1278494,1,2
160,164,1278646,5,0
160,260,1278797,1,0
256,288,1278949,1,8
352,260,1279100,1,0
352,164,1279252,1,2
256,136,1279403,1,4
456,56,1279858,6,0,B|456:350,1,294.000002803803,8|2
56,350,1280767,2,0,B|56:56,1,294.000002803803,8|4
360,88,1281676,2,0,B|360:212|360:212|360:284|328:324|256:352|184:324|152:284|152:212|152:212|152:88,1,588.000005607605,8|8
20,284,1283040,5,4
8,208,1283191,1,0
16,128,1283343,1,2
80,80,1283494,1,8
160,80,1283646,1,0
228,120,1283797,1,2
256,192,1283949,1,8
284,264,1284100,1,0
352,304,1284252,1,0
432,304,1284403,1,8
496,256,1284555,1,8
504,176,1284706,1,0
492,100,1284858,1,4
208,192,1291222,5,0
148,112,1291373,1,0
148,112,1291449,1,0
148,112,1291525,1,0
52,132,1291676,1,0
32,228,1291828,1,0
100,292,1291979,1,0
184,281,1292131,6,0,B|205:317|263:349|322:311|334:277,1,178.666658215332,4|2
309,192,1292585,2,0,B|301:140|257:124|257:124|205:104|209:48,1,183.333327869574,8|0
305,56,1293040,2,0,B|309:104|257:124|257:124|213:140|201:196,2,183.333327869574,2|0|0
392,40,1293797,1,0
464,96,1293949,1,2
392,264,1294252,5,0
336,328,1294403,1,8
256,352,1294555,1,0
176,328,1294706,1,0
120,264,1294858,1,2
120,120,1295161,1,0
176,56,1295312,1,8
256,32,1295464,1,0
336,56,1295616,1,0
392,120,1295767,1,2
256,200,1296070,5,0
256,200,1296222,1,8
256,24,1296525,5,0
256,24,1296676,1,2
201,169,1296979,1,0
331,76,1297282,1,2
175,76,1297585,1,0
297,171,1297888,1,0
300,259,1298040,6,0,B|255:244|255:244|212:259,1,91.6666639347872,8|0
212,349,1298343,2,0,B|256:363|256:363|299:349,1,91.6666639347872
392,184,1298797,1,8
346,101,1298949,1,8
256,67,1299100,1,0
165,101,1299252,1,8
119,184,1299403,1,4
256,276,1299706,5,0
182,318,1299858,2,0,B|202:359|257:382|312:360|331:316,1,183.333327869574,2|0
332,233,1300312,2,0,B|310:192|258:168|200:192|183:234,2,183.333327869574,2|0|0
422,128,1301222,2,0,B|352:92|336:12|336:12|256:108|256:108|180:8|180:8|156:92|94:128,2,549.999983608723,2|2|4
188,308,1303494,6,0,B|201:351|256:361|256:361|307:354|327:304,1,183.333327869574,8|0
256,256,1303949,1,2
360,80,1304252,1,0
152,80,1304555,1,2
68,233,1304858,2,0,B|52:304|140:352|191:289|191:289|209:334|255:347|302:334|320:291|320:291|370:351|463:307|443:225,2,549.999983608723,0|2|4
256,68,1306979,5,0
256,68,1307131,1,8
256,252,1307434,1,0
182,199,1307585,2,0,B|203:199|203:199|228:176|228:176|256:152|256:152|284:176|284:176|308:199|308:199|328:199,2,183.333327869574,2|0|0
46,322,1308494,2,0,B|68:284|182:252|208:368|160:384|164:318|240:304|256:251|256:251|272:304|352:320|352:384|304:368|333:281|364:284|455:262|475:337|475:337,2,549.999983608723,2|2|4
256,384,1310767,5,8
332,219,1311070,1,0
332,219,1311222,1,2
179,217,1311525,1,0
230,40,1311828,2,0,B|216:49|207:74|216:97|232:112|256:118|280:112|296:97|304:74|296:49|282:40,1,183.333327869574,2|0
448,74,1312434,6,0,B|489:156,1,91.6666639347872,2|8
444,238,1312737,2,0,B|416:326,1,91.6666639347872,0|8
324,366,1313040,2,0,B|310:324|256:313|256:313|206:321|186:370,1,183.333327869574,8|0
95,325,1313494,2,0,B|68:238,1,91.6666639347872,8|0
23,156,1313797,2,0,B|64:74,1,91.6666639347872,8|4
336,47,1314403,6,0,B|296:135|336:224,1,183.333327869574,8|0
376,304,1314858,2,0,B|296:308|256:361|256:361|211:308|135:304,1,274.999991804362,2|8
43,288,1315464,2,0,B|51:240|83:208,1,91.6666639347872,2|8
174,224,1315767,6,0,B|215:135|175:47,1,183.333327869574,4|0
83,51,1316222,2,0,B|139:107|127:200|43:240|-24:204,1,274.999991804362,8|2
68,360,1316979,6,0,B|144:308,1,91.6666639347872,0|8
256,372,1317282,2,0,B|256:280,1,91.6666639347872,8|0
256,188,1317585,1,4
444,360,1317888,6,0,B|368:308,1,91.6666639347872,0|8
209,116,1318343,2,0,B|254:100|297:116,1,91.6666639347872
344,43,1318646,2,0,B|256:2|167:43,1,183.333327869574,0|8
44,176,1319252,1,0
116,120,1319403,2,0,B|180:176|168:288,1,183.333327869574,2|0
256,316,1319858,2,0,B|256:135,1,183.333327869574,8|0
396,120,1320312,2,0,B|332:176|344:288,1,183.333327869574,2|0
428,324,1320767,6,0,B|420:280|424:232,1,91.6666639347872,8|8
464,84,1321070,2,0,B|472:128|468:176,1,91.6666639347872,0|4
320,336,1321525,6,0,B|324:292|308:244,1,91.6666639347872,0|8
256,172,1321828,1,0
210,102,1321979,2,0,B|255:86|298:102,1,91.6666639347872
191,339,1322434,6,0,B|187:295|202:249,1,91.6666639347872,0|8
256,172,1322737,1,0
312,100,1322888,1,0
348,14,1323040,2,0,B|401:10|401:10|457:6|485:38|489:83,1,183.333327869574,2|0
404,123,1323494,2,0,B|320:171|304:268,1,183.333327869574,8|0
207,268,1323949,2,0,B|191:171|107:123,1,183.333327869574,2|0
107,123,1324403,1,8
192,92,1324555,5,0
256,28,1324706,1,0
320,92,1324858,1,4
256,192,1325009,12,4,1326676
60,192,1327131,5,0
60,192,1327282,1,0
160,136,1327434,1,0
160,124,1327509,1,0
160,112,1327585,5,2
256,28,1327737,1,0
352,112,1327888,1,0
452,192,1328040,1,8
352,272,1328191,1,0
256,356,1328343,1,0
160,272,1328494,1,4
40,166,1328797,6,0,B|40:120|64:80,1,91.3333338232835,0|8
255,146,1329252,2,0,B|268:176|244:208|256:236,1,91.3333338232835,0|2
471,166,1329706,2,0,B|472:120|448:80,1,91.3333338232835,0|8
364,312,1330161,5,0
364,312,1330312,2,0,B|336:380|256:408|175:380|147:312,1,274.000001469851,4|8
192,232,1330919,1,0
256,168,1331070,1,0
320,232,1331222,2,0,B|364:232|408:208|424:163|416:107,1,182.666667646567,2|0
340,64,1331676,2,0,B|296:96|256:64|256:64|216:32|172:64,1,182.666667646567,8|2
96,107,1332131,6,0,B|88:164|104:208|148:232|192:232,1,182.666667646567,4|0
284,232,1332585,2,0,B|332:92|470:44,1,274.000001469851,8|2
227,151,1333494,2,0,B|178:290|40:338,1,274.000001469851,8|4
40,156,1334252,6,0,B|84:168|84:168|132:168,1,91.3333338232835,0|8
179,91,1334555,2,0,B|203:55|256:27|308:55|332:91,1,182.666667646567,0|2
360,180,1335009,1,0
336,268,1335161,1,0
256,308,1335312,1,8
176,268,1335464,1,8
152,180,1335616,1,0
148,88,1335767,6,0,B|208:56|208:56|256:84|316:88,1,182.666667646567,4|0
408,84,1336222,2,0,B|376:144|376:144|404:192|408:252,1,182.666667646567,8|0
364,344,1336676,2,0,B|304:312|304:312|256:340|196:344,1,182.666667646567,2|0
104,300,1337131,2,0,B|136:240|136:240|108:192|104:132,1,182.666667646567,8|0
27,183,1337585,6,0,B|75:244|175:236|215:147|179:83,1,274.000001469851,4|8
256,32,1338191,2,0,B|256:216,1,182.666667646567,0|2
332,84,1338797,1,0
332,83,1338949,2,0,B|296:148|336:236|436:244|484:183,1,274.000001469851,8|4
256,192,1339555,12,6,1342131
112,112,1342282,5,0
168,40,1342434,1,0
256,12,1342585,1,8
344,40,1342737,1,0
400,112,1342888,1,0
332,170,1343040,6,0,B|312:129|257:106|202:128|183:172,1,182.666667646567,6|0
181,260,1343494,2,0,B|201:301|256:324|311:302|330:258,1,182.666667646567,10|0
256,216,1343949,1,0
208,384,1344252,2,0,B|304:384|304:384,1,91.3333338232835,0|8
256,216,1344706,1,0
124,38,1345161,2,0,B|138:78|197:93|226:63|226:19|190:5|160:49|208:93|256:93|256:93|303:93|351:49|321:5|285:19|285:63|318:93|387:71|395:34,1,421.333338858287,2|0
440,216,1346070,5,2
388,304,1346222,1,10
256,140,1346525,1,0
204,212,1346676,2,0,B|212:264|256:280|256:280|308:300|304:356,1,182.666667646567
208,348,1347131,2,0,B|204:300|256:280|256:280|300:264|312:208,1,182.666667646567,8|0
256,140,1347585,1,0
72,216,1347888,1,2
124,304,1348040,1,10
160,156,1348343,6,0,B|213:103|186:3|123:-2|81:55|123:108|202:81|257:14|257:14|310:81|390:108|432:55|390:-2|326:3|299:103|352:156,1,639.333336762985,0|2
344,236,1349555,6,0,B|388:316,1,91.3333338232835,0|0
256,364,1349858,2,0,B|256:252,1,91.3333338232835,8|0
124,315,1350161,2,0,B|168:236,1,91.3333338232835,0|4
44,44,1350767,1,8
335,282,1351222,2,0,B|376:257|405:184|376:114|328:68|258:49|185:68|135:114|111:184|135:257|178:284,1,548.000002939701,2|2
468,44,1352585,1,8
357,277,1353040,6,0,B|339:348|254:387|171:346|154:277,1,274.000001469851,4|8
22,192,1353797,2,0,B|5:-6|238:-24|305:41|372:108|388:158|354:192|256:441|156:192|122:158|138:108|205:41|272:-24|505:-6|483:194,1,1096.0000058794,0|0
377,321,1355767,2,0,B|319:381|256:336|256:336|187:384|131:316,1,274.000001469851,2|2
200,268,1356373,1,0
140,212,1356525,1,0
132,132,1356676,1,4
180,64,1356828,1,0
256,40,1356979,1,0
332,64,1357131,1,6
380,132,1357282,1,0
372,212,1357434,1,0
312,268,1357585,1,4
52,80,1358494,6,0,B|52:37|113:29|132:69|132:69|150:110|197:110|214:69|214:69|229:29|279:29|296:69|296:69|312:110|360:110|376:69|376:69|397:29|458:37|458:81,2,548.000002939701,8|0|8
256,192,1360767,1,0
52,302,1361222,2,0,B|52:345|113:353|132:313|132:313|150:272|197:272|214:313|214:313|229:353|279:353|296:313|296:313|312:272|360:272|376:313|376:313|397:353|458:345|458:301,2,548.000002939701,0|8|0
256,44,1363494,5,0
244,104,1363949,1,8
264,152,1364403,1,0
244,208,1364858,1,4
256,356,1365767,1,8
256,356,1366373,5,0
256,356,1366525,1,0
256,356,1366676,1,0
308,196,1367131,1,0
176,288,1367585,1,8
336,288,1368040,1,0
204,196,1368494,1,0
361,51,1369403,6,0,B|334:77|294:90|255:51|255:24|255:24|255:51|215:90|175:77|149:51,1,274.000001469851,8|0
140,60,1370009,1,0
127,69,1370161,1,0
117,79,1370312,1,0
256,192,1370767,1,0
344,296,1371222,1,8
320,324,1371373,1,0
292,340,1371525,1,0
260,344,1371676,1,8
220,340,1371828,1,0
192,324,1371979,1,0
168,296,1372131,1,4
256,192,1383040,12,0,1386676
256,48,1387131,5,4
256,216,1387585,1,0
256,216,1388040,1,8
176,236,1388191,1,0
96,256,1388343,1,0
40,200,1388494,6,0,B|20:156|40:112,1,91.3333338232835
164,88,1388797,2,0,B|144:128|144:128|108:156,1,91.3333338232835,0|4
210,327,1389403,6,0,B|256:344|300:328,1,91.3333338232835,0|0
208,192,1389706,2,0,B|254:175|298:191,1,91.3333338232835,0|4
472,200,1390161,5,0
472,200,1390312,2,0,B|492:156|472:112,1,91.3333338232835
348,88,1390616,2,0,B|368:128|368:128|404:156,1,91.3333338232835,0|4
256,216,1391222,5,0
256,216,1391676,1,8
336,236,1391828,1,0
416,256,1391979,1,0
384,332,1392131,6,0,B|296:308,1,91.3333338232835
128,332,1392434,2,0,B|216:308,1,91.3333338232835,0|4
384,128,1393040,6,0,B|296:152,1,91.3333338232835
128,128,1393343,2,0,B|216:152,1,91.3333338232835,0|4
408,232,1393797,5,0
408,232,1393949,2,0,B|316:232,1,91.3333338232835
104,232,1394252,2,0,B|195:232,1,91.3333338232835,0|4
195,232,1394858,1,0
302,40,1395312,6,0,B|210:40,1,91.3333338232835,8|0
296,116,1395616,2,0,B|380:152,1,91.3333338232835
300,220,1395919,2,0,B|256:228|256:228|212:220,1,91.3333338232835
216,116,1396222,2,0,B|48:188,1,182.666667646567,4|0
80,312,1396676,5,8
164,260,1396828,1,0
256,300,1396979,1,0
256,300,1397131,1,4
395,232,1397282,6,0,B|353:313,1,91.3333338232835,0|0
256,300,1397585,1,8
159,313,1397737,2,0,B|117:232,1,91.3333338232835,0|0
256,116,1398040,1,4
256,116,1398494,1,0
356,336,1398949,6,0,B|356:244,1,91.3333338232835,8|0
256,348,1399252,2,0,B|256:256,1,91.3333338232835
156,336,1399555,2,0,B|156:244,1,91.3333338232835
256,116,1399858,1,4
280,32,1400009,2,0,B|208:32,2,45.6666669116418
356,84,1400312,1,8
376,180,1400464,1,0
348,276,1400616,1,0
256,316,1400767,1,8
164,276,1400919,1,0
136,180,1401070,1,0
152,88,1401222,6,0,B|112:24,2,45.6666669116418
208,152,1401525,1,0
256,72,1401676,2,0,B|256:24,2,45.6666669116418,8|0|0
304,148,1401979,1,0
360,88,1402131,2,0,B|400:24,2,45.6666669116418
304,148,1402434,1,0
256,216,1402585,2,0,B|256:308,1,91.3333338232835,8|0
256,384,1402888,1,0
176,352,1403040,5,2
156,316,1403116,1,0
136,280,1403191,1,0
176,208,1403343,1,0
184,128,1403494,2,0,B|204:84|256:60|308:84|328:128,1,182.666667646567,8|0
336,208,1403949,1,8
376,280,1404100,1,2
356,316,1404176,1,0
336,352,1404252,1,0
256,384,1404403,5,8
196,268,1404555,1,2
316,268,1404706,1,0
416,368,1404858,6,0,B|476:344|492:280|492:280|508:216,1,182.666667646567,4|0
500,136,1405312,2,0,B|404:172|328:104,1,182.666667646567,8|0
344,23,1405767,2,0,B|256:-16|167:23,1,182.666667646567,4|2
11,135,1406373,6,0,B|107:171|180:105,1,182.666667646567,0|2
330,277,1406979,2,0,B|404:212|500:248,1,182.666667646567,8|0
180,277,1407585,2,0,B|107:212|11:247,1,182.666667646567,10|2
120,332,1408040,5,8
256,248,1408191,1,8
392,332,1408343,1,0
384,147,1408494,6,0,B|360:95|304:55|239:63|183:135|195:192|256:232|316:192|328:135|272:63|207:55|151:95|127:147,1,464.000007743836,4|2
80,208,1409555,2,0,B|104:244|96:292,1,76.1333349488259
12,180,1409858,2,0,B|12:136|40:100,1,76.1333349488259,8|0
473,282,1410312,6,0,B|500:248|500:204,1,76.1333349488259,2|0
415,95,1410616,2,0,B|408:140|432:176,1,76.1333349488259,0|8
364,268,1410919,2,0,B|280:252,1,76.1333349488259,2|0
148,116,1411222,2,0,B|232:132,1,76.1333349488259,2|0
144,304,1411525,6,0,B|116:272|112:228,1,76.1333349488259,0|8
368,80,1411828,2,0,B|396:112|400:156,1,76.1333349488259,2|8
256,192,1412131,5,4
256,192,1412282,12,8,1413494
84,108,1413949,6,0,B|20:160,1,76.1333349488259,4|0
84,251,1414252,2,0,B|128:180,1,76.1333349488259,8|2
216,125,1414555,1,2
216,125,1414631,1,0
216,125,1414706,2,0,B|200:209,1,76.1333349488259,0|8
312,208,1415009,2,0,B|296:125,1,76.1333349488259,0|2
384,180,1415312,2,0,B|428:252,1,76.1333349488259,2|0
493,160,1415616,2,0,B|428:108,1,76.1333349488259,0|4
336,272,1416222,6,0,B|352:336|288:368|256:368|223:368|159:336|175:272,2,274.000001469851,2|2|8
256,80,1417434,1,0
193,107,1417585,2,0,B|181:86|174:41|209:-13|268:-15|316:8|345:44|324:108|313:114,1,274.000001469851,2|8
496,256,1418494,1,2
256,352,1418797,5,0
216,228,1418949,1,8
320,304,1419100,1,8
192,304,1419252,1,8
296,228,1419403,1,4
16,256,1419858,5,2
175,95,1420312,2,0,B|159:31|223:0|256:0|288:0|352:31|336:95,1,274.000001469851,2|8
438,268,1421070,1,0
361,333,1421222,2,0,B|334:307|294:294|255:333|255:360|255:360|255:333|215:294|175:307|149:333,1,274.000001469851,2|8
80,288,1421828,2,0,B|108:248|160:236,1,91.3333338232835
112,168,1422131,2,0,B|160:160|188:120,1,91.3333338232835,8|0
256,76,1422434,1,0
324,120,1422585,2,0,B|352:160|400:168,1,91.3333338232835,8|0
357,237,1422888,2,0,B|400:248|432:288,1,91.3333338232835,0|4
150,100,1423494,6,0,B|174:31|259:0|337:28|361:108,1,274.000001469851,2|2
64,336,1424403,1,8
256,212,1424706,1,0
309,281,1424858,2,0,B|328:332|328:332|292:332|256:368|256:368|220:332|184:332|184:332|204:279,1,274.000001469851,2|8
448,337,1425767,1,2
180,88,1426222,6,0,B|203:42|256:31|310:43|333:90,1,182.666667646567,8|0
362,187,1426676,2,0,B|324:295|164:293|148:177|148:177,3,274.000001469851,4|8|2|8
40,360,1428494,1,2
127,312,1428646,2,0,B|166:350|217:355,1,91.3333338232835,2|0
305,353,1428949,2,0,B|346:350|385:312,1,91.3333338232835,8|8
476,354,1429252,1,8
488,248,1429403,5,8
408,208,1429555,1,0
320,144,1429706,1,0
256,64,1429858,1,8
192,144,1430009,1,0
112,208,1430161,1,0
24,248,1430312,1,4
337,289,1430767,6,0,B|321:338|256:371|190:338|174:289,1,210.666669429143,2|0
256,248,1431222,1,2
256,56,1431525,1,0
175,87,1431676,2,0,B|191:127|256:151|256:151|313:129|336:87,1,210.666669429143,8|0
416,144,1432131,1,2
416,336,1432434,2,0,B|368:312|368:312|344:264,1,105.333334714572,0|8
166,266,1432888,2,0,B|144:312|144:312|96:336,1,105.333334714572,0|2
96,144,1433343,5,0
174,91,1433494,2,0,B|229:91|256:35|256:35|282:91|337:91,1,210.666669429143,8|0
400,184,1433949,2,0,B|430:234|430:234|457:284|446:343|379:351|379:351,1,210.666669429143,2|0
294,306,1434403,2,0,B|299:294|311:265|305:238|281:222|254:214|225:221|205:241|201:269|207:289|220:306,1,210.666669429143,8|0
132,351,1434858,2,0,B|65:343|54:284|81:234|81:234|112:184,1,210.666669429143,2|0
136,96,1435312,5,8
215,45,1435464,2,0,B|222:20|255:3|288:20|296:45,1,105.333334714572,2|0
376,96,1435767,1,2
440,276,1436070,2,0,B|412:308|412:308|376:312|376:312|360:336,1,105.333334714572,0|8
308,256,1436373,2,0,B|320:220|320:220|352:208|352:208|364:172,1,105.333334714572,2|0
256,160,1436676,2,0,B|264:136|264:136|240:96|240:96|256:68|256:68,2,105.333334714572,8|0|0
149,176,1437131,2,0,B|160:208|160:208|192:220|192:220|204:256,1,105.333334714572,8|0
150,333,1437434,2,0,B|136:312|136:312|100:308|100:308|72:276,1,105.333334714572,0|4
256,124,1437888,5,0
176,92,1438040,2,0,B|192:43|257:10|323:43|339:92,1,210.666669429143,8|0
360,192,1438494,2,0,B|136:192,1,210.666669429143,2|0
176,292,1438949,2,0,B|192:341|257:374|323:341|339:292,1,210.666669429143,8|0
416,348,1439403,5,2
256,252,1439706,1,0
256,252,1439858,1,8
96,348,1440161,1,0
96,348,1440312,1,2
112,160,1440616,1,0
164,80,1440767,1,8
256,52,1440919,1,0
348,80,1441070,1,0
392,156,1441222,1,6
256,192,1441373,12,2,1443040
256,344,1443191,5,0
344,312,1443343,1,10
404,240,1443494,1,0
404,144,1443646,1,8
344,72,1443797,1,0
256,40,1443949,1,8
168,72,1444100,1,0
108,144,1444252,1,8
108,240,1444403,1,8
168,312,1444555,5,8
256,344,1444706,1,8
344,312,1444858,1,4
412,136,1445161,1,2
452,52,1445312,1,8
256,84,1445616,1,2
256,176,1445767,1,0
100,136,1446070,1,2
60,52,1446222,1,8
134,257,1446525,22,0,B|160:337|259:373|350:340|378:247,1,316.000004143715,2|2
432,331,1447131,2,0,B|504:216|466:84|466:84,1,210.666669429143,8|0
402,67,1447585,1,2
256,188,1447888,1,0
350,175,1448040,2,0,B|363:214|334:293|255:300|213:278,1,210.666669429143,8|0
161,208,1448494,2,0,B|148:169|177:90|256:83|298:105,1,210.666669429143,2|0
256,188,1448949,1,8
112,68,1449252,1,0
35,130,1449403,2,0,B|28:248|84:336,1,210.666669429143,2|0
172,356,1449858,1,8
300,236,1450161,38,0,B|323:218|338:177|323:136|295:111|254:100|213:111|185:136|170:177|185:218|209:236,1,316.000004143715,2|0
104,228,1450767,1,8
108,132,1450919,1,8
164,56,1451070,1,0
256,28,1451222,1,8
348,56,1451373,1,8
404,132,1451525,1,0
408,228,1451676,1,8
344,300,1451828,1,0
256,332,1451979,1,8
168,300,1452131,1,4
44,44,1452585,21,2
256,232,1453040,1,2
312,60,1453343,1,0
168,160,1453646,1,2
348,160,1453949,1,2
204,60,1454252,1,2
256,136,1454403,1,8
468,44,1454858,1,2
448,232,1455161,5,0
448,232,1455312,1,8
296,352,1455616,1,0
218,297,1455767,2,0,B|189:364|93:358|82:299|67:262|90:207|157:188|201:214|200:251,1,316.000004143715,2|8
294,87,1456676,2,0,B|323:20|418:25|429:84|444:121|422:177|354:195|311:170|311:132,1,316.000004143715,2|8
436,286,1457434,21,2
350,317,1457585,1,8
256,302,1457737,1,2
185,247,1457888,1,2
161,160,1458040,1,8
177,66,1458191,1,0
256,26,1458343,1,2
334,66,1458494,1,10
350,160,1458646,1,8
326,247,1458797,1,0
256,302,1458949,1,8
161,317,1459100,1,8
75,286,1459252,1,0
40,200,1459403,38,0,B|8:160|16:88|64:48|136:56,1,210.666669429143,4|2
200,112,1459858,1,8
256,184,1460009,1,0
312,112,1460161,1,2
388,55,1460312,2,0,B|448:48|496:88|504:160|472:200,1,210.666669429143,0|0
392,248,1460767,1,8
296,288,1460919,2,0,B|289:263|256:246|223:263|215:288,1,105.333334714572,2|0
128,240,1461222,1,0
256,360,1461525,21,0
256,360,1461676,1,8
216,176,1461979,2,0,B|223:201|256:218|289:201|297:176,1,105.333334714572,2|0
120,112,1462434,1,0
168,32,1462585,1,8
256,8,1462737,1,0
344,32,1462888,1,0
392,112,1463040,1,4
256,192,1463191,12,2,1464858
278,319,1465312,6,0,B|239:286|239:286|175:289|175:289,1,105.333334714572,8|0
360,268,1465616,2,0,B|348:219|348:219|378:162|378:162,1,105.333334714572,2|8
233,64,1465919,2,0,B|272:97|272:97|336:94|336:94,1,105.333334714572,0|8
151,115,1466222,2,0,B|163:164|163:164|133:221|133:221,1,105.333334714572,8|0
94,295,1466525,5,8
194,352,1466676,2,0,B|203:291|254:272|254:272|315:249|310:184,1,210.666669429143,4|0
328,96,1467131,1,8
256,40,1467282,1,0
184,96,1467434,1,0
201,192,1467585,2,0,B|196:249|257:272|257:272|308:291|318:352,1,210.666669429143,2|0
418,295,1468040,5,8
472,216,1468191,2,0,B|416:192|424:128|424:128,1,105.333334714572
344,80,1468494,2,0,B|304:96|264:80|256:48|256:48|248:80|208:96|168:80,1,210.666669429143,2|0
168,176,1468949,2,0,B|216:208|216:208|256:184|256:184|296:208|296:208|344:176,1,210.666669429143,8|0
256,280,1469403,5,2
40,216,1469706,2,0,B|97:187|88:128|88:128,1,105.333334714572,0|8
159,47,1470009,1,0
257,24,1470161,1,0
355,49,1470312,2,0,B|483:105|483:330|316:388|254:334|254:334|168:248|196:161|312:161|339:248|254:334|254:334|168:392|24:307|24:105|173:40,1,1264.00001657486,2|8
264,76,1472282,5,8
264,76,1472434,1,0
264,76,1472585,1,8
264,76,1472737,1,0
264,76,1472888,1,8
264,76,1473040,1,4
400,320,1473494,1,6
112,320,1473949,1,4
256,192,1474100,12,0,1476676
