osu file format v9

[General]
AudioFilename: Within Temptation - The Unforgiving.mp3
AudioLeadIn: 2000
PreviewTime: 711611
Countdown: 0
SampleSet: Normal
StackLeniency: 0.7
Mode: 0
LetterboxInBreaks: 1

[Editor]
DistanceSpacing: 1
BeatDivisor: 4
GridSize: 4

[Metadata]
Title:The Unforgiving
Artist:Within Temptation
Creator:Armin
Version:Faster
Source:
Tags:Gonzvlo narakucrimson Roddie Vass_Bass ErufenRito Glass Card N'FoRcE force HakunoKaemi metal Why not me Shot in the Dark In the Middle of the Night Faster Fire and Ice Iron Where is the edge Sinead Lost Murder A Demon's Fate Stairway to the skies TU Marathon symphonic metal rock Sharon den Adel collab

[Difficulty]
HPDrainRate:6
CircleSize:4
OverallDifficulty:7
ApproachRate:8
SliderMultiplier:2
SliderTickRate:1

[Events]
//Background and Video events
0,0,"Within-Temptation.png"
Video,648748,"17 Faster_x264_001.avi"
//Break Periods
2,744936,750986
//Storyboard Layer 0 (Background)
//Storyboard Layer 1 (Fail)
//Storyboard Layer 2 (Pass)
//Storyboard Layer 3 (Foreground)
//Storyboard Sound Samples
//Background Colour Transformations
3,100,163,162,255

[TimingPoints]
2406,418.848167539267,4,2,0,100,1,0
15829,418.848167539267,4,2,0,100,1,0
34572,565.904267861353,4,1,0,100,1,0
47011,-100,4,2,1,100,0,0
95696,566.037735849057,4,2,1,100,1,0
97111,-100,4,1,0,80,0,1
97247,-100,4,1,0,82,0,1
97388,-100,4,1,0,84,0,1
97530,-100,4,1,0,86,0,1
97671,-100,4,1,0,90,0,1
97818,-100,4,1,0,93,0,0
97960,-100,4,1,0,96,0,1
98096,-100,4,2,1,100,0,1
106020,-100,4,1,1,80,0,1
106233,-100,4,1,1,83,0,1
106374,-100,4,1,1,86,0,1
106516,-100,4,1,1,89,0,1
106657,-100,4,1,1,92,0,1
106799,-100,4,1,1,95,0,1
106940,-100,4,2,1,98,0,1
116073,-100,4,2,1,98,0,0
124134,-100,4,1,0,100,0,0
124983,-100,4,2,1,100,0,0
160926,-100,4,1,0,100,0,0
161209,-100,4,2,1,100,0,0
165454,-100,4,1,0,100,0,0
165737,-100,4,2,1,100,0,0
169983,-100,4,1,0,100,0,0
170266,-100,4,2,0,87,0,0
172671,-100,4,1,0,100,0,0
173101,-100,4,1,0,81,0,1
173237,-100,4,1,0,84,0,1
173379,-100,4,1,0,87,0,1
173520,-100,4,1,0,90,0,1
174658,-100,4,2,0,100,0,0
174941,-100,4,2,1,100,0,1
182436,-100,4,2,0,100,0,1
183002,-100,4,1,0,100,0,1
183714,-100,4,2,0,100,0,0
183997,-100,4,2,1,100,0,1
191563,-100,4,1,0,80,0,1
191775,-100,4,1,0,83,0,1
191917,-100,4,1,0,86,0,1
192058,-100,4,1,0,89,0,1
192200,-100,4,1,0,91,0,1
192341,-100,4,1,0,93,0,1
192483,-100,4,1,0,95,0,1
192624,-100,4,1,0,97,0,1
192766,-100,4,1,0,98,0,1
192907,-100,4,1,0,99,0,1
193054,-100,4,2,0,100,0,0
209888,-100,4,1,0,63,0,0
211311,-100,4,2,0,5,0,0
214708,-100,4,2,0,30,0,0
215549,-100,4,1,0,15,0,0
215686,566.037735849057,4,1,0,15,1,0
215761,-100,4,2,0,5,0,0
217105,-100,4,2,0,31,0,0
217884,-100,4,1,0,15,0,0
218450,-100,4,2,0,30,0,0
218662,-100,4,1,0,15,0,0
219299,-100,4,2,0,29,0,0
219511,-100,4,2,0,36,0,0
220148,-100,4,1,0,16,0,0
220289,-100,4,2,0,16,0,0
220997,-100,4,1,0,16,0,0
221138,-100,4,2,0,16,0,0
222341,-100,4,1,0,16,0,0
222907,-100,4,2,0,16,0,0
223190,-100,4,1,0,16,0,0
223473,-100,4,2,0,16,0,0
224605,-100,4,1,0,16,0,0
225171,-100,4,2,0,16,0,0
225454,-100,4,1,0,16,0,0
226091,-100,4,2,0,16,0,0
226870,-100,4,1,0,16,0,0
227436,-100,4,2,0,16,0,0
227719,-100,4,1,0,16,0,0
228072,-100,4,2,0,16,0,0
229134,-100,4,1,0,16,0,0
229770,-100,4,2,0,16,0,0
229983,-100,4,1,0,16,0,0
230195,-100,4,2,0,16,0,0
231469,-100,4,1,0,16,0,0
231610,-100,4,2,0,16,0,0
232318,-100,4,1,0,16,0,0
232601,-100,4,2,0,33,0,0
233167,-100,4,2,0,21,0,0
233733,-100,4,1,0,21,0,0
243355,-100,4,1,0,41,0,0
246256,-100,4,1,0,26,0,0
247954,-100,4,1,0,39,0,0
250510,-100,4,2,0,40,0,0
250651,-100,4,2,0,50,0,0
250793,-100,4,2,0,60,0,0
251912,-100,4,2,1,100,0,1
267761,-100,4,2,1,100,0,0
270025,-100,4,2,1,100,0,1
270171,-76.9230769230769,4,2,1,83,0,1
285737,-76.9230769230769,4,1,0,36,0,1
286162,-76.9230769230769,4,1,0,45,0,1
286445,-76.9230769230769,4,1,0,52,0,1
286728,-76.9230769230769,4,1,0,60,0,1
287011,-76.9230769230769,4,1,0,68,0,1
287294,-76.9230769230769,4,1,0,76,0,1
287577,-76.9230769230769,4,1,1,83,0,1
287855,-76.9230769230769,4,2,1,100,0,0
288138,-76.9230769230769,4,2,1,100,0,1
296068,-76.9230769230769,4,1,1,54,0,1
296351,-76.9230769230769,4,1,1,60,0,1
296634,-76.9230769230769,4,1,1,71,0,1
296923,-76.9230769230769,4,2,1,93,0,0
297195,-76.9230769230769,4,2,1,100,0,1
306252,-76.9230769230769,4,2,1,100,0,0
324082,-76.9230769230769,4,2,1,100,0,0
324152,-76.9230769230769,4,2,1,65,0,0
337093,300,4,2,1,40,1,0
346663,-100,4,1,0,70,0,0
346851,-100,4,2,1,70,0,0
366193,-100,4,2,1,70,0,0
384870,-100,4,2,0,70,0,0
384943,-100,4,1,0,70,0,0
385138,-100,4,2,1,70,0,0
388663,-100,4,1,0,70,0,0
389001,-100,4,2,1,70,0,0
399493,-100,4,1,0,70,0,0
399651,-100,4,2,1,70,0,0
408343,-100,4,1,0,70,0,0
408943,-100,4,1,0,70,0,0
409093,-100,4,1,0,70,0,0
409168,-100,4,2,1,70,0,0
416593,-100,4,1,0,70,0,0
416670,-100,4,2,0,70,0,0
416743,-100,4,1,0,50,0,0
416893,-100,4,1,0,80,0,0
416968,-100,4,2,0,70,0,0
417043,-100,4,1,0,50,0,0
417193,-100,4,1,0,90,0,0
417270,-100,4,2,0,70,0,0
417493,-100,4,1,0,100,0,0
417568,-100,4,2,0,70,0,0
418693,-100,4,2,1,70,0,1
428226,-100,4,1,0,70,0,1
428451,-100,4,2,1,70,0,1
436634,-100,4,2,0,70,0,1
436784,-100,4,1,0,70,0,1
437830,-100,4,1,0,70,0,0
437893,-100,4,1,0,70,0,1
442693,-100,4,1,0,70,0,0
452001,-100,4,2,1,70,0,0
461293,-100,4,1,0,70,0,0
461976,-100,4,2,1,70,0,0
470293,-100,4,1,0,70,0,0
471576,-100,4,2,0,70,0,0
471726,-100,4,1,0,70,0,0
471876,-100,4,2,1,70,0,0
475693,-100,4,1,0,70,0,0
475926,-100,4,1,0,70,0,0
476526,-100,4,1,0,70,0,0
476676,-100,4,2,1,70,0,0
479893,-100,4,1,0,70,0,0
481176,-100,4,2,0,70,0,0
481326,-100,4,1,0,70,0,0
481476,-100,4,2,1,70,0,0
490693,-100,4,1,0,70,0,1
490851,-100,4,2,1,70,0,1
499693,-100,4,1,0,60,0,1
499993,-100,4,1,0,65,0,1
500143,-100,4,1,0,70,0,0
500293,-100,4,1,0,70,0,1
501276,-100,4,2,0,70,0,1
501426,-100,4,1,0,70,0,1
501876,-100,4,2,0,70,0,1
502326,-100,4,1,0,70,0,1
502776,-100,4,2,0,70,0,1
502926,-100,4,1,0,70,0,1
509293,-100,4,1,0,60,0,1
509593,-100,4,1,0,65,0,1
514693,-100,4,1,0,70,0,0
514709,-100,4,1,0,70,0,0
563151,-83.3333333333333,4,1,0,70,0,0
574251,-76.9230769230769,4,1,0,70,0,0
581893,-76.9230769230769,4,1,0,70,0,1
591193,-76.9230769230769,4,1,0,70,0,0
591493,-76.9230769230769,4,1,0,70,0,1
601093,-76.9230769230769,4,1,0,70,0,1
603726,-83.3333333333333,4,1,0,70,0,1
605893,-83.3333333333333,4,1,0,70,0,0
634993,-83.3333333333333,4,1,0,20,0,0
648736,500,4,2,1,100,1,0
710611,-100,4,1,0,63,0,0
710781,-100,4,1,0,65,0,0
710857,-100,4,1,0,70,0,0
710982,-100,4,1,0,76,0,0
711107,-100,4,1,0,79,0,0
711232,-100,4,1,0,85,0,0
711357,-100,4,1,0,91,0,0
711482,-100,4,1,0,94,0,0
711781,-100,4,1,0,100,0,0
712736,-76.9230769230769,4,1,0,100,0,1
712798,-76.9230769230769,4,2,1,100,0,1
720498,-76.9230769230769,4,1,0,100,0,0
720736,-76.9230769230769,4,1,0,100,0,1
721986,-76.9230769230769,4,2,1,100,0,1
727986,-76.9230769230769,4,1,0,80,0,1
728111,-76.9230769230769,4,1,0,83,0,1
728236,-76.9230769230769,4,1,0,86,0,1
728361,-76.9230769230769,4,1,0,89,0,1
728486,-76.9230769230769,4,1,0,92,0,1
728623,-76.9230769230769,4,1,0,95,0,0
728736,-76.9230769230769,4,1,0,98,0,1
744736,-100,4,1,0,100,0,0
751234,-100,4,2,1,100,0,0
752611,-100,4,1,0,100,0,0
752861,-100,4,2,1,100,0,0
759611,-100,4,1,0,100,0,0
759861,-100,4,2,0,100,0,0
760173,-100,4,1,0,100,0,0
760361,-100,4,2,0,100,0,0
760673,-100,4,1,0,100,0,0
760861,-100,4,2,1,100,0,0
784548,-100,4,2,0,100,0,0
785111,-100,4,1,0,100,0,0
785361,-83.3333333333333,4,1,0,100,0,0
785548,-83.3333333333333,4,2,0,100,0,0
786111,-83.3333333333333,4,1,0,100,0,0
786361,-71.4285714285714,4,1,0,100,0,0
786548,-71.4285714285714,4,2,0,100,0,0
787111,-62.5,4,1,0,100,0,0
787548,-62.5,4,2,0,100,0,0
788111,-55.5555555555556,4,1,0,100,0,0
788548,-55.5555555555556,4,2,0,100,0,0
789111,-55.5555555555556,4,1,0,100,0,0
789361,-50,4,1,0,100,0,0
789548,-50,4,2,0,100,0,0
790111,-76.9230769230769,4,1,0,100,0,0
790736,-76.9230769230769,4,1,0,80,0,0
790986,-76.9230769230769,4,1,0,85,0,0
791236,-76.9230769230769,4,1,0,90,0,0
791486,-76.9230769230769,4,1,0,95,0,0
791736,-76.9230769230769,4,1,0,100,0,0
792736,-76.9230769230769,4,1,0,100,0,1
800486,-76.9230769230769,4,1,0,100,0,0
800736,-76.9230769230769,4,1,0,100,0,1
808611,-76.9230769230769,4,1,0,100,0,0
808736,-76.9230769230769,4,1,0,100,0,1
824611,-76.9230769230769,4,1,0,100,0,0
824736,-76.9230769230769,4,1,0,100,0,1
824861,-76.9230769230769,4,1,0,100,0,0
852361,-76.9230769230769,4,2,0,100,0,0
858736,-76.9230769230769,4,1,0,100,0,0
860736,-66.6666666666667,4,1,0,100,0,1
868486,-66.6666666666667,4,1,0,100,0,0
868736,-66.6666666666667,4,1,0,100,0,1
872361,-66.6666666666667,4,1,0,100,0,1
873861,-66.6666666666667,4,1,0,100,0,1
884486,-66.6666666666667,4,1,0,100,0,0
884736,-66.6666666666667,4,1,0,100,0,1
886236,-66.6666666666667,4,1,0,100,0,0
912957,856.959223023638,4,2,0,21,1,0
941887,-117.647058823529,4,2,0,21,0,0
972298,-100,4,2,0,21,0,0
974654,-100,4,2,0,21,0,0
991894,-117.647058823529,4,2,0,21,0,0
992858,-100,4,2,0,21,0,0
1015131,-90.9090909090909,4,2,0,21,0,0
1015452,-90.9090909090909,4,2,0,5,0,0
1017701,-100,4,2,0,15,0,0
1022649,428.571428571429,4,2,1,78,1,0
1030031,-90.9090909090909,4,2,0,79,0,0
1031103,-100,4,2,1,79,0,0
1049960,-100,4,1,0,60,0,0
1050174,-100,4,2,0,100,0,0
1051674,-100,4,1,0,60,0,0
1051889,-100,4,2,0,100,0,0
1052103,-100,4,1,0,60,0,0
1052317,-100,4,2,0,100,0,0
1052531,-100,4,1,0,60,0,0
1052746,-100,4,2,0,100,0,0
1052960,-100,4,1,0,60,0,0
1053174,-100,4,2,0,100,0,0
1053389,-100,4,1,0,80,0,0
1053603,-100,4,2,0,100,0,0
1054246,-100,4,1,0,80,0,0
1054460,-100,4,2,1,81,0,0
1067103,-100,4,1,0,80,0,0
1067317,-100,4,2,1,100,0,0
1069674,-100,4,1,0,85,0,0
1069996,-100,4,2,1,85,0,0
1070531,-100,4,1,0,68,0,0
1070746,-100,4,2,0,100,0,0
1071389,-100,4,1,0,80,0,0
1071603,-100,4,2,0,100,0,0
1072246,-100,4,1,0,60,0,0
1072460,-100,4,2,0,100,0,0
1073103,-100,4,1,0,80,0,0
1073317,-100,4,2,0,100,0,0
1073960,-100,4,1,0,60,0,0
1074174,-100,4,2,0,100,0,0
1074389,-100,4,1,0,60,0,0
1074603,-100,4,2,0,100,0,0
1074817,-100,4,1,0,80,0,0
1075031,-100,4,2,0,100,0,0
1075674,-100,4,1,0,60,0,0
1076317,-100,4,2,0,100,0,0
1076531,-100,4,1,0,80,0,0
1076746,-100,4,2,0,100,0,0
1077389,-100,4,2,1,81,0,0
1081246,-90.9090909090909,4,2,1,82,0,0
1082317,-100,4,2,1,80,0,0
1083281,-100,4,2,1,80,0,0
1093460,-90.9090909090909,4,2,1,80,0,0
1094317,-100,4,2,1,80,0,0
1105674,-100,4,2,1,80,0,0
1118531,-100,4,1,0,80,0,0
1118746,-100,4,2,1,80,0,0
1122014,-100,4,1,0,80,0,0
1122174,-100,4,2,1,80,0,0
1128817,-133.333333333333,4,2,1,80,0,0
1135674,-100,4,2,0,22,0,0
1137505,444.444444444444,4,2,0,22,1,0
1139282,461.538461538462,4,2,0,16,1,0
1140205,571.428571428571,4,2,0,19,1,0
1141347,571.428571428571,4,2,0,19,1,0
1150313,454.545454545455,4,2,0,100,1,0
1153040,-100,4,2,1,100,0,0
1226981,-72.992700729927,4,2,1,100,0,0
1241222,-68.0272108843537,4,2,1,100,0,1
1284868,-105.042016806723,4,1,0,100,0,0
1291224,-80.7754442649435,4,1,0,100,0,0
1291299,-80.7754442649435,4,2,1,100,0,0
1291375,-80.7754442649435,4,1,0,100,0,0
1291451,-80.7754442649435,4,2,1,100,0,0
1291527,-80.7754442649435,4,1,0,100,0,0
1291602,-80.7754442649435,4,2,1,100,0,0
1291678,-74.6268656716418,4,1,0,100,0,0
1292133,-72.7272727272727,4,2,1,100,0,0
1328494,-72.992700729927,4,2,1,100,0,1
1342147,-72.992700729927,4,2,1,100,0,1
1342737,-72.992700729927,4,2,1,100,0,0
1343040,-72.992700729927,4,2,1,100,0,1
1345025,-63.2911392405063,4,2,1,100,0,1
1345935,-72.992700729927,4,2,1,100,0,1
1357585,-72.992700729927,4,2,1,100,0,0
1372139,-72.992700729927,4,2,1,100,0,0
1408427,-86.2068965517241,4,2,1,100,0,0
1409571,-87.5656742556918,4,2,1,100,0,0
1412071,-87.5656742556918,4,1,0,100,0,0
1412222,-87.5656742556918,4,2,1,100,0,0
1415767,-72.992700729927,4,2,1,100,0,1
1430009,-72.992700729927,4,2,1,100,0,0
1430312,-72.992700729927,4,2,1,100,0,1
1430632,-63.2911392405063,4,2,1,100,0,1
1444706,-63.2911392405063,4,2,1,100,0,0
1444858,-63.2911392405063,4,2,1,100,0,1
1473949,-63.2911392405063,4,2,1,100,0,0
1491562,389.61038961039,4,1,0,80,1,0
1506367,-200,4,1,0,80,0,0
1507146,-100,4,1,0,80,0,0
1550782,-100,4,1,0,80,0,1
1575717,-100,4,1,0,80,0,0
1584873,-100,4,2,0,70,0,0
1587511,-100,4,1,0,80,0,0
1589938,-200,4,1,0,80,0,0
1590523,-100,4,1,0,80,0,0
1619354,-100,4,1,0,80,0,1
1644289,-100,4,1,0,80,0,0
1662990,-100,4,2,0,40,0,0
1678575,-100,4,2,0,70,0,0
1688315,-100,4,1,0,40,0,0
1688510,-100,4,1,0,50,0,0
1688704,-100,4,1,0,60,0,0
1688899,-100,4,1,0,70,0,0
1689094,-100,4,1,0,80,0,0
1689289,-100,4,1,0,80,0,0
1689484,-100,4,1,0,80,0,0
1691042,-100,4,1,0,80,0,1
1714419,-100,4,2,0,40,0,0
1730551,512.820512820513,4,1,0,100,1,0
1747667,-181.818181818182,4,2,0,35,0,0
1763137,-120.481927710843,4,2,1,70,0,0
1795191,-120.481927710843,4,2,1,90,0,0
1796192,-90.9090909090909,4,2,1,100,0,1
1824909,-100,4,2,1,100,0,0
1830166,-119.760479041916,4,2,1,100,0,0
1874140,-90.9090909090909,4,2,1,100,0,1
1902858,-100,4,2,1,100,0,0
1917477,-120.481927710843,4,2,1,100,0,0
1950551,-120.481927710843,4,2,1,70,0,0
1951063,-120.481927710843,4,2,1,60,0,0
1952088,-90.9090909090909,4,2,1,100,0,1
1967986,-90.9090909090909,4,2,1,100,0,0
1968499,-90.9090909090909,4,2,1,100,0,1
1980807,-90.9090909090909,4,2,1,100,0,0
1994397,428.571428571429,3,2,0,30,1,0
1995484,-100,3,2,0,48,0,0
1995913,-100,3,2,0,30,0,0
2000627,-100,3,2,0,51,0,0
2001055,-100,3,2,0,30,0,0
2045825,-100,3,2,0,40,0,0
2070163,-100,3,1,0,60,0,0
2070323,-100,3,2,0,60,0,0
2071539,-100,3,1,0,50,0,0
2072825,-100,3,1,0,60,0,0
2073055,-100,3,2,0,60,0,0
2073913,-100,3,2,1,60,0,0
2130682,-100,3,2,1,60,0,1
2141198,-87.719298245614,3,2,1,60,0,1
2142484,-100,3,2,1,60,0,1
2153825,-100,3,2,1,60,0,0
2189734,-87.719298245614,3,2,1,60,0,0
2197448,-100,3,2,1,60,0,0
2245012,-100,3,1,0,60,0,0
2246397,-100,3,1,0,60,0,1
2246619,-100,3,2,1,60,0,1
2269111,-100,3,2,1,60,0,0
2269539,-100,3,2,1,60,0,1
2290111,-100,3,2,1,60,0,0
2308992,447.761194029851,4,2,0,29,1,0
2316044,-100,4,2,1,51,0,0
2336305,-100,4,1,0,41,0,0
2337318,-100,4,2,1,51,0,0
2350969,-100,4,1,0,41,0,0
2351865,-133.333333333333,4,2,1,60,0,0
2365521,-133.333333333333,4,1,0,20,0,0
2365745,-133.333333333333,4,1,0,30,0,0
2365969,-100,4,1,0,50,0,0
2366305,-100,4,1,2,60,0,1
2379408,-100,4,1,2,70,0,1
2381087,-100,4,1,2,60,0,1
2394962,-100,4,1,2,60,0,0
2402350,-100,4,2,1,55,0,0
2415223,-100,4,1,0,50,0,0
2416566,-100,4,2,1,50,0,0
2429775,-100,4,1,0,50,0,0
2430671,-133.333333333333,4,2,1,50,0,0
2444327,-133.333333333333,4,2,1,40,0,0
2444551,-133.333333333333,4,2,1,50,0,0
2445111,-100,4,1,2,60,0,1
2470186,-100,4,1,0,65,0,0
2488096,-100,4,1,0,65,0,1
2488214,-100,4,1,0,65,0,0
2502424,-100,4,1,0,65,0,1
2502542,-100,4,1,0,65,0,0
2526162,-100,4,1,0,40,0,0
2526721,-100,4,1,0,50,0,0
2527169,-100,4,1,0,60,0,0
2527499,-100,4,1,2,65,0,1
2541380,-100,4,1,2,65,0,0
2541827,-100,4,1,2,65,0,1
2553021,-100,4,1,2,65,0,1
2555596,-100,4,1,2,5,0,1
2556156,-100,4,1,2,56,0,0
2565180,447.761194029851,4,1,0,100,1,0
2579508,-100,4,2,0,100,0,0
2586112,-100,4,1,0,69,0,0
2643985,-100,4,1,0,69,0,1
2658314,-100,4,1,0,69,0,1
2671747,-100,4,1,0,69,0,1
2672642,-100,4,1,0,69,0,0
2701539,-90.9090909090909,4,1,0,69,0,0
2715643,-100,4,1,0,69,0,0
2729956,-100,4,1,0,69,0,1
2758612,-76.9230769230769,4,1,0,69,0,0
2761875,-66.6666666666667,4,1,0,69,0,0
2801605,-133.333333333333,4,1,0,60,0,0
2815926,-100,4,1,0,60,0,0
2844582,-100,4,1,0,60,0,1
2855329,-100,4,1,0,60,0,0
2858911,-100,4,1,0,60,0,1
2873239,-100,4,1,0,60,0,0
2889304,-100,4,2,0,5,0,0
2895844,370.37037037037,4,2,0,100,1,0
2901399,-166.666666666667,4,2,0,50,0,0
2924269,-200,4,2,0,50,0,0
2940108,-200,4,2,1,50,0,0
2952145,-100,4,2,1,75,0,0
2960479,-133.333333333333,4,2,1,75,0,0
2962331,-100,4,2,1,75,0,0
2976220,-100,4,2,1,75,0,0
3016775,-133.333333333333,4,2,1,75,0,0
3018627,-100,4,2,1,75,0,0
3057232,-151.515151515152,4,1,0,60,0,0
3058719,-100,4,2,0,75,0,0
3059182,-100,4,2,1,75,0,0
3082562,-100,4,2,0,10,0,0
3086775,-100,4,2,0,75,0,0
3103066,-151.515151515152,4,1,0,60,0,0
3105571,-151.515151515152,4,2,0,75,0,0
3106126,-151.515151515152,4,1,0,60,0,0
3108066,-151.515151515152,4,2,0,75,0,0
3108437,-151.515151515152,4,1,0,60,0,0
3108626,-151.515151515152,4,2,0,75,0,0
3109177,-151.515151515152,4,1,0,60,0,0
3111029,-151.515151515152,4,2,0,75,0,0
3111400,-151.515151515152,4,1,0,60,0,0
3111589,-151.515151515152,4,2,0,75,0,0
3112140,-151.515151515152,4,1,0,60,0,0
3117978,-100,4,2,1,75,0,0
3126214,-100,4,2,1,75,0,0
3165474,-100,4,2,1,75,0,1
3176960,-100,4,2,1,75,0,0
3177325,-100,4,2,1,75,0,1
3177695,-100,4,2,1,75,0,0

[Colours]
Combo1 : 12,50,233
Combo2 : 253,225,28
Combo3 : 185,17,17
Combo4 : 30,136,35
SliderBorder : 0,0,0

[HitObjects]
40,44,671736,6,0,B|40:164,1,100,8|8
120,184,672236,2,0,B|120:76,1,100,8|0
200,126,672736,2,0,B|217:74|276:53|341:72|356:135,1,200,4|8
436,72,673486,1,0
484,148,673736,1,8
412,204,673986,2,0,B|408:244|424:280|464:296|464:296,1,100,0|8
404,368,674486,5,0
325,319,674736,2,0,B|299:294|264:292|232:320|232:320|204:348|157:346|140:313,1,200,8|8
64,352,675486,2,0,B|16:316|12:208|68:160,1,200
122,106,676236,2,0,B|174:90|190:38,1,100,8|0
267,84,676736,2,0,B|243:131|281:187|370:171|373:107|349:70,1,200,8|8
428,28,677486,5,0
488,96,677736,1,8
424,160,677986,1,0
484,225,678236,2,0,B|470:274|470:274|486:322,1,100,8|0
412,368,678736,2,0,B|308:368,1,100,8|0
252,300,679236,1,8
184,360,679486,5,0
108,312,679736,2,0,B|48:328|4:284|4:204|68:188|68:188,1,200,8|8
148,148,680486,2,0,B|194:117|188:60,1,100,0|8
268,20,680986,1,0
332,80,681236,2,0,B|448:48,1,100,8|0
484,124,681736,2,0,B|388:152,1,100,8|0
376,244,682236,6,0,B|492:212,1,100,8|0
496,304,682736,1,8
328,373,683236,2,0,B|313:319|252:296|191:320|176:383,1,200,8|8
88,328,683986,2,0,B|16:248|48:136|48:136,1,200
120,192,684736,2,0,B|124:75|216:16,1,200,8|8
280,80,685486,5,0
360,32,685736,2,0,B|480:32|480:32,1,100,8|0
488,120,686236,2,0,B|440:128|440:168|488:176,1,100,8|0
432,248,686736,2,0,B|480:256|480:296|432:304,1,100,8|0
360,360,687236,1,8
288,304,687486,5,0
216,360,687736,2,0,B|104:360|104:360,1,100,8|0
72,280,688236,2,0,B|184:280|184:280,1,100,8|0
136,200,688736,2,0,B|85:203|44:162|36:100|88:60,1,200,12|8
169,24,689486,1,0
256,56,689736,2,0,B|360:36,1,100,8|0
424,88,690236,6,0,B|444:188,1,100,8|0
368,232,690736,1,8
216,344,691236,2,0,B|223:318|255:306|287:319|295:351,1,100,8|0
144,232,692236,1,8
68,186,692486,2,0,B|88:88,1,100,0|8
256,200,693236,5,8
336,72,693736,1,8
256,24,693986,1,0
176,72,694236,1,8
177,236,694736,2,0,B|198:284|254:310|321:285|336:232,1,200,8|8
408,280,695486,1,0
408,280,695736,5,8
256,368,696236,1,8
104,280,696736,1,4
104,104,697236,1,8
256,16,697736,1,8
408,104,698236,5,8
408,104,698486,1,0
408,104,698736,1,8
338,275,699236,2,0,B|315:320|259:346|192:321|176:269,1,200,8|8
175,175,699986,2,0,B|198:130|254:104|321:129|337:181,1,200
257,228,700736,5,8
256,48,701236,1,8
176,320,701736,1,8
256,360,701986,1,0
336,320,702236,1,8
352,144,702736,2,0,B|287:143|287:143|255:127|255:127|223:143|223:143|151:143,1,200,8|8
300,32,703736,5,8
212,32,703986,1,0
60,121,704486,6,0,B|94:207|94:207|50:304,1,200,8|0
49,304,705236,1,8
124,344,705486,2,0,B|169:247|169:247|257:217,1,200,8|0
452,120,706236,1,8
452,120,706486,2,0,B|417:207|417:207|462:304,1,200,8|0
463,304,707236,1,8
387,343,707486,2,0,B|342:247|342:247|254:217,1,200,8|0
158,53,708236,1,8
158,53,708486,2,0,B|223:52|223:52|255:36|255:36|287:52|287:52|359:52,1,200,8|0
352,138,709236,1,8
352,138,709486,2,0,B|287:139|287:139|255:155|255:155|223:139|223:139|151:139,1,200,8|0
256,285,710236,5,8
100,340,710486,1,8
204,340,710736,5,0
180,304,710861,1,0
180,260,710986,1,0
212,220,711111,1,0
256,208,711236,1,0
300,220,711361,1,0
332,260,711486,1,0
332,304,711611,1,0
308,340,711736,1,0
412,340,711986,37,0
452,164,712486,21,0
370,97,712736,2,0,B|340:54|262:14|173:45|137:104,1,259.999995350838,4|8
370,287,713736,2,0,B|340:330|262:370|173:339|137:280,1,259.999995350838,0|8
194,214,714486,2,0,B|258:263|325:207,1,129.999997675419,0|8
256,144,714986,1,8
96,288,715486,6,0,B|32:240|16:192|16:192|32:128|112:80,1,259.999995350838,8|8
256,192,716236,1,8
416,288,716486,2,0,B|480:240|496:192|496:192|480:128|400:80,1,259.999995350838,8|0
200,76,717236,6,0,B|214:55|253:35|298:50|316:80,1,129.999997675419,8|0
256,336,717736,1,8
160,180,717986,2,0,B|174:243|252:283|341:252|352:168,2,259.999995350838,8|8|8
320,344,719236,6,0,B|184:344,1,129.999997675419,8|0
440,168,719736,2,0,B|360:36,1,129.999997675419,8|0
72,168,720236,2,0,B|152:36,1,129.999997675419,8|0
256,216,720736,2,0,B|256:296|256:296|360:292|368:200|340:136|304:100|196:92|156:152|149:244|204:280,1,519.999990701676,4|0
348,360,722236,5,8
256,384,722486,1,0
172,360,722736,1,8
256,208,723236,1,8
299,22,723736,1,8
214,25,723986,2,0,B|173:80|209:160|333:145|330:56|296:19,1,259.999995350838,8|8
404,172,724986,5,8
344,240,725236,1,8
256,260,725486,1,0
168,236,725736,1,8
108,172,725986,1,0
140,340,726486,2,0,B|170:383|248:423|337:392|373:333,1,259.999995350838,8|0
316,268,727236,2,0,B|252:317|185:261,1,129.999997675419,8|0
256,176,727736,5,8
160,128,727986,1,0
192,96,728111,1,0
212,48,728236,1,0
256,20,728361,1,0
300,48,728486,1,0
320,96,728611,1,0
352,128,728736,1,4
400,224,728986,6,0,B|400:288|400:288|464:352,1,129.999997675419
352,368,729486,1,0
279,292,729736,2,0,B|297:263|279:224|217:231|219:275|235:294,1,129.999997675419
160,368,730236,1,0
61,333,730486,2,0,B|107:286|107:286|107:222,1,129.999997675419
195,167,730986,2,0,B|256:143|256:143|316:167,1,129.999997675419
379,84,731486,2,0,B|256:35|256:35|135:84,1,259.999995350838
207,173,732236,5,0
305,174,732486,2,0,B|373:206|373:323|285:353|256:323|256:323|212:279|226:235|285:235|299:279|256:323|256:323|212:353|138:309|138:206|214:170,1,649.999988377094
162,79,733986,1,0
350,79,734486,1,0
365,286,734986,2,0,B|335:243|257:203|168:234|132:293,1,259.999995350838
195,370,735736,6,0,B|259:419|326:363,2,129.999997675419
137,282,736486,1,0
79,182,736736,2,0,B|202:174|221:20|153:-13|84:20|84:89|187:123|256:20|256:20|309:109|412:102|451:11|334:-40|296:20|329:166|352:180|459:186,1,779.999986052513,4|0
344,248,738486,5,0
256,192,738736,1,0
168,248,738986,1,0
355,355,739486,2,0,B|280:360|256:287|256:287|232:360|155:355,1,259.999995350838
80,288,740236,1,0
58,186,740486,6,0,B|28:128|76:66|76:66|158:49|196:100,1,259.999995350838
256,184,741236,2,0,B|256:216|256:216|240:232|240:232|272:240|272:240|256:256|256:256|256:280,2,129.999997675419
316,99,741986,2,0,B|354:49|436:66|436:66|484:128|454:186,1,259.999995350838
315,349,742986,6,0,B|251:398|184:342,1,129.999997675419
205,246,743486,1,0
307,246,743736,1,0
368,160,743986,5,0
324,156,744111,1,0
288,132,744236,1,0
256,100,744361,1,0
224,132,744486,1,0
188,156,744611,1,0
144,160,744736,1,4
256,12,751736,5,8
181,62,751986,1,0
209,150,752236,1,8
301,150,752486,1,0
329,62,752736,1,4
328,243,753236,2,0,B|313:297|252:320|191:296|176:233,1,200,8|8
344,356,754236,5,8
256,384,754486,1,0
168,356,754736,1,8
126,200,755236,1,8
183,128,755486,2,0,B|233:132|253:72|253:72|273:132|336:128,1,200
385,200,756236,1,8
296,240,756486,2,0,B|288:216|259:203|225:213|217:244,1,100,0|8
256,372,757236,5,8
416,228,757736,1,8
356,56,758236,1,8
156,56,758736,1,8
84,228,759236,1,8
141,298,759486,5,0
200,225,759736,1,4
183,187,759861,1,0
188,145,759986,1,0
213,111,760111,1,0
256,94,760236,1,0
298,111,760361,1,0
323,145,760486,1,0
328,187,760611,1,0
311,225,760736,1,0
370,298,760986,5,0
308,368,761236,2,0,B|196:368|196:368,1,100,8|0
176,280,761736,2,0,B|200:272|213:243|203:209|172:201,1,100,8|0
256,152,762236,1,8
336,204,762486,2,0,B|310:211|300:245|313:274|337:282,1,100,0|8
344,60,763236,2,0,B|256:12|256:12|168:60,1,200,8|8
169,139,763986,2,0,B|256:186|256:186|344:138,1,200
256,100,764736,5,8
256,260,765236,1,8
120,344,765736,1,8
256,260,766236,1,8
392,344,766736,1,8
446,187,767236,5,8
385,127,767486,1,0
368,40,767736,1,8
296,100,767986,2,0,B|289:126|255:136|226:123|218:99,1,100,0|8
143,40,768486,1,0
126,127,768736,1,12
65,192,768986,1,0
126,256,769236,5,8
144,343,769486,1,0
218,284,769736,2,0,B|226:261|255:248|289:258|296:284,1,100,8|0
368,343,770236,1,8
385,256,770486,1,0
446,192,770736,1,8
376,38,771236,5,8
300,84,771486,2,0,B|324:131|286:187|197:171|194:107|218:70,1,200
135,38,772236,1,8
100,120,772486,5,0
40,52,772736,1,8
57,216,773236,1,8
181,324,773736,2,0,B|196:375|260:399|323:374|338:309,1,200,8|8
454,216,774736,1,8
472,52,775236,5,8
412,120,775486,1,0
376,38,775736,1,8
300,200,776236,2,0,B|324:153|286:97|197:113|194:177|218:214,1,200,8|8
328,320,777236,2,0,B|278:316|258:376|258:376|238:316|175:320,1,200,8|8
100,120,778236,5,8
40,52,778486,1,0
135,38,778736,1,8
337,193,779236,2,0,B|314:148|258:122|191:147|175:199,1,200,8|8
177,284,779986,2,0,B|193:332|254:358|327:334|336:280,1,200
256,240,780736,5,8
340,56,781236,1,8
172,56,781736,1,8
256,104,781986,1,0
340,56,782236,1,8
352,228,782736,2,0,B|287:229|287:229|255:245|255:245|223:229|223:229|151:229,1,200,8|8
360,352,783736,5,8
256,384,783986,1,8
152,352,784236,1,8
173,256,784486,2,0,B|185:285|256:336|325:292|350:244,1,200,8|0
256,196,785236,1,0
309,100,785486,2,0,B|336:52|291:-27|183:-4|172:77|210:125,1,240.000005722046
112,168,786236,1,0
128,272,786486,6,0,B|168:232|213:263|213:263|256:289|303:260|303:260|356:231|392:283|392:283,1,279.99999332428
400,367,787236,1,0
400,367,787486,2,0,B|354:412|303:377|303:377|254:347|200:380|200:380|140:413|99:354|99:354,1,320
92,204,788236,5,0
92,204,788486,2,0,B|135:142|257:127|384:123|441:224|441:224,1,359.999982833863
442,299,789236,1,0
442,299,789486,2,0,B|390:365|256:382|119:384|55:280|55:280,1,400
106,180,790236,5,0
32,87,790486,1,0
160,64,790736,1,0
200,100,790861,1,0
216,156,790986,1,0
208,212,791111,1,0
256,244,791236,1,0
304,212,791361,1,0
296,156,791486,1,0
312,100,791611,1,0
356,64,791736,1,0
484,96,791986,5,0
412,196,792236,1,0
412,196,792361,1,0
412,196,792486,1,0
370,318,792736,2,0,B|340:361|262:401|173:370|137:311,1,259.999995350838,4|0
316,168,793736,6,0,B|345:220|295:307|176:281|164:192|206:139,1,259.999995350838
160,68,794486,1,0
256,8,794736,1,0
352,68,794986,1,0
360,240,795486,2,0,B|402:240|402:240|442:240|458:272|458:296|458:296|458:320|442:352|402:352|402:352|354:352|354:352,1,259.999995350838
256,320,796236,1,0
152,352,796486,2,0,B|158:352|110:352|110:352|70:352|54:320|54:296|54:296|54:272|70:240|110:240|110:240|152:240,1,259.999995350838
200,144,797236,6,0,B|256:176|256:176|312:144,1,129.999997675419
312,48,797736,2,0,B|255:15|255:15|199:47,1,129.999997675419
368,232,798486,2,0,B|254:297|254:297|142:232,1,259.999995350838
88,320,799236,6,0,B|200:384,1,129.999997675419
311,384,799736,2,0,B|424:320,1,129.999997675419
475,229,800236,1,0
437,131,800486,1,0
334,121,800736,2,0,B|354:55|308:3|254:-3|182:5|140:90|200:154|254:187|254:187|312:220|421:280|335:420|211:416|164:335|177:272,1,779.999986052513,4|0
72,290,802486,5,0
13,204,802736,1,0
143,53,803236,2,0,B|173:10|251:-30|340:1|376:60,1,259.999995350838
370,149,803986,2,0,B|340:192|262:232|173:201|137:142,1,259.999995350838
192,360,804986,6,0,B|336:360,1,129.999997675419
324,268,805486,2,0,B|180:268,1,129.999997675419
128,177,805986,2,0,B|408:177,1,259.999995350838
206,47,806986,6,0,B|216:16|254:0|298:13|307:47,1,129.999997675419
304,152,807486,1,0
256,168,807611,1,0
208,152,807736,1,0
128,216,807986,1,0
160,256,808111,1,0
208,280,808236,1,0
256,288,808361,1,0
304,280,808486,1,0
352,256,808611,1,0
384,216,808736,1,4
464,128,808986,6,0,B|496:256,1,129.999997675419
320,352,809486,2,0,B|192:384,1,129.999997675419
16,254,809986,2,0,B|48:128,1,129.999997675419
197,23,810486,6,0,B|168:76|217:160|334:136|346:48|305:-4,1,259.999995350838
416,64,811236,1,0
370,149,811486,2,0,B|340:192|262:232|173:201|137:142,1,259.999995350838
96,64,812236,1,0
48,160,812486,2,0,B|96:272|224:320|288:320|416:272|464:160,1,519.999990701676
512,256,813736,1,0
512,256,813986,5,0
256,368,814486,1,0
0,256,814986,1,0
0,256,815236,1,0
72,176,815486,5,0
104,216,815611,1,0
110,268,815736,1,0
208,312,815986,1,0
256,296,816111,1,0
304,312,816236,1,0
402,268,816486,1,0
408,216,816611,1,0
440,176,816736,1,4
360,120,816986,6,0,B|391:110|407:72|394:28|360:19,1,129.999997675419
256,0,817486,2,0,B|256:128,1,129.999997675419
152,120,817986,2,0,B|121:110|105:72|118:28|152:19,2,129.999997675419
215,203,818736,1,0
300,206,818986,2,0,B|341:261|305:341|181:326|184:237|218:200,1,259.999995350838
352,352,819986,1,0
256,384,820236,1,0
160,352,820486,1,0
92,159,820986,5,0
149,69,821236,1,0
256,36,821486,1,0
362,69,821736,1,0
419,159,821986,1,0
349,362,822486,5,0
307,353,822611,1,0
273,328,822736,1,0
238,302,822861,1,0
213,260,822986,1,0
196,226,823111,1,0
187,183,823236,1,0
187,140,823361,1,0
213,106,823486,1,0
256,89,823611,1,0
298,106,823736,1,0
324,140,823861,1,0
324,183,823986,1,0
315,226,824111,1,0
298,260,824236,1,0
273,302,824361,1,0
238,328,824486,1,0
204,353,824611,1,0
162,362,824736,1,4
40,240,824986,6,0,B|71:230|87:192|74:148|40:139,1,129.999997675419
205,34,825486,2,0,B|215:65|253:81|297:68|306:34,1,129.999997675419
472,144,825986,2,0,B|441:154|425:192|438:236|472:245,1,129.999997675419
307,350,826486,2,0,B|297:319|259:303|215:316|206:350,1,129.999997675419
128,56,827236,5,0
384,56,827736,1,0
148,348,828236,1,0
256,296,828486,1,0
364,348,828736,1,0
24,104,829236,2,0,B|93:112|135:188|104:277|12:281,1,259.999995350838
148,36,830236,5,0
256,88,830486,1,0
364,36,830736,1,0
488,280,831236,2,0,B|419:272|377:196|408:107|500:103,1,259.999995350838
306,327,832236,2,0,B|296:358|258:374|214:361|205:327,1,129.999997675419
256,192,832736,5,4
64,48,833236,1,0
184,280,833736,5,0
152,152,833986,1,0
256,80,834236,1,0
360,152,834486,1,0
328,280,834736,1,4
448,48,835236,5,0
256,192,835736,1,0
64,336,836236,5,0
152,240,836486,2,0,B|121:230|105:192|118:148|152:139,1,129.999997675419
360,240,837236,2,0,B|391:230|407:192|394:148|360:139,1,129.999997675419
440,336,838236,1,0
358,236,838486,2,0,B|305:220|265:252|257:292|257:292|249:252|205:218|151:239,1,259.999995350838
72,336,839236,1,0
24,216,839486,5,0
72,96,839736,1,0
200,32,839986,1,0
184,80,840111,1,0
208,128,840236,1,0
256,144,840361,1,0
304,128,840486,1,0
328,80,840611,1,0
312,32,840736,1,4
440,96,840986,1,0
488,216,841236,1,0
390,300,841486,5,0
341,342,841611,1,0
328,280,841736,1,0
184,280,841986,1,0
171,342,842111,1,0
122,300,842236,1,0
87,178,842486,5,0
195,106,842736,2,0,B|207:67|256:59|256:59|288:43|272:11|240:11|224:43|256:59|256:59|302:67|321:111,1,259.999995350838
424,176,843486,1,0
424,176,843611,1,0
424,176,843736,1,0
376,296,843986,1,0
256,352,844236,1,0
136,296,844486,1,0
136,296,844611,1,0
136,296,844736,1,4
88,176,844986,1,0
204,101,845236,2,0,B|214:70|252:54|296:67|305:101,1,129.999997675419
384,352,845986,5,0
360,304,846111,1,0
304,288,846236,1,0
256,320,846361,1,0
208,288,846486,1,0
152,304,846611,1,0
128,352,846736,1,4
208,192,846986,5,0
256,208,847111,1,0
304,192,847236,1,0
400,128,847486,1,0
416,80,847611,1,0
384,32,847736,1,0
328,24,847861,1,0
288,56,847986,1,0
256,88,848111,1,0
224,56,848236,1,0
184,24,848361,1,0
128,32,848486,1,0
96,80,848611,1,0
112,128,848736,1,0
152,248,848986,5,0
152,248,849111,1,0
152,248,849236,1,0
144,376,849486,1,0
144,376,849611,1,0
144,376,849736,1,0
256,320,849986,1,0
256,320,850111,1,0
256,320,850236,1,0
368,376,850486,1,0
368,376,850611,1,0
368,376,850736,1,0
360,248,850986,1,0
360,248,851111,1,0
360,248,851236,1,0
256,192,851486,5,0
256,192,851611,1,0
256,192,851736,1,4
256,320,851986,1,4
95,186,852486,6,0,B|159:153|207:57|191:25|127:-7|95:25|63:89|223:153|255:81|255:81|287:25|255:-7|223:25|255:81|255:81|285:136|415:121|383:89|479:-39|301:-25|223:89|431:196|431:196,1,909.999983727932,4|2
312,280,854486,2,0,B|298:259|259:239|214:254|196:284,1,129.999997675419,0|2
256,381,854986,1,0
370,173,855486,2,0,B|340:130|262:90|173:121|137:180,1,259.999995350838,2|0
208,28,856236,1,2
304,28,856486,1,0
256,192,856611,12,0,858236
256,192,859486,12,4,860736
191,69,860986,6,0,B|204:43|254:19|302:36|324:74,1,149.999995529652,0|0
448,172,861486,2,0,B|384:212|384:212|368:304,1,149.999995529652
256,376,861986,1,0
140,285,862236,2,0,B|128:212|128:212|64:172,1,149.999995529652
169,47,862736,2,0,B|216:69|216:133|216:133|256:153|256:153|296:133|296:133|292:69|347:45,1,299.999991059304
301,358,863736,1,0
211,358,863986,2,0,B|157:296|201:201|345:218|341:321|296:365,1,299.999991059304
73,188,864986,5,0
138,89,865236,1,0
256,48,865486,1,0
373,89,865736,1,0
438,188,865986,1,0
178,345,866486,2,0,B|212:367|256:331|256:331|284:311|284:279|256:259|228:279|228:311|256:331|256:331|296:367|336:343,1,299.999991059304
321,225,867236,2,0,B|308:199|258:175|210:192|188:230,1,149.999995529652
96,148,867736,5,0
128,108,867861,1,0
164,80,867986,1,0
212,64,868111,1,0
256,56,868236,1,0
300,64,868361,1,0
348,80,868486,1,0
384,108,868611,1,0
416,148,868736,1,4
256,224,868986,5,0
208,364,869236,1,0
328,276,869486,1,0
184,276,869736,1,0
304,364,869986,1,0
256,224,870236,5,0
128,112,870486,2,0,B|160:61|249:17|350:49|391:118,1,299.999991059304
256,200,871236,1,0
126,291,871486,2,0,B|158:341|247:386|348:354|389:284,1,299.999991059304
256,200,872236,1,0
113,156,872486,6,0,B|35:111|52:28|108:-8|156:-7|216:29|209:95|209:95|224:62|256:174|288:62|304:94|304:94|292:32|356:-16|412:-6|465:38|473:120|387:160,1,749.999977648259,0|0
372,298,873986,2,0,B|311:279|266:316|256:361|256:361|247:316|197:277|136:301,1,299.999991059304
256,20,874986,5,0
128,116,875236,1,0
184,260,875486,1,0
328,260,875736,1,0
384,116,875986,1,0
256,156,876236,5,0
256,156,876361,1,0
256,156,876486,1,0
256,156,876611,1,0
256,156,876736,1,4
256,308,876986,5,0
400,356,877236,1,0
488,236,877486,1,0
400,116,877736,1,0
256,156,877986,1,0
256,308,878236,1,0
112,364,878486,1,0
24,236,878736,1,0
112,116,878986,1,0
408,64,879486,6,0,B|459:96|503:185|471:286|402:327,1,299.999991059304
256,192,880236,1,0
104,64,880486,2,0,B|53:96|9:185|41:286|110:327,1,299.999991059304
322,237,881236,2,0,B|309:263|259:287|211:270|189:232,1,149.999995529652
320,147,881736,2,0,B|307:121|257:97|209:114|187:152,1,149.999995529652
388,304,882486,6,0,B|356:355|267:399|166:367|125:298,1,299.999991059304
256,192,883236,1,0
184,60,883486,1,0
256,32,883611,1,0
328,60,883736,1,0
396,196,883986,1,0
341,251,884111,1,0
326,324,884236,1,0
256,360,884361,1,0
185,324,884486,1,0
170,251,884611,1,0
115,196,884736,1,4
256,192,884861,12,0,886236
