osu file format v6

[General]
AudioFilename: 01 - The Howling.mp3
AudioLeadIn: 0
PreviewTime: 85405
Countdown: 0
SampleSet: Normal
StackLeniency: 0.7
Mode: 0
LetterboxInBreaks: 1

[Editor]
Bookmarks: 27501,163147
DistanceSpacing: 0.800000011920929
BeatDivisor: 4
GridSize: 8

[Metadata]
Title:The Howling
Artist:Within Temptation
Creator:Armin
Version:Hard
Source:The Heart of Everything
Tags:Symphonic rock metal Sharon den Adel

[Difficulty]
HPDrainRate:6
CircleSize:3
OverallDifficulty:7
SliderMultiplier:2
SliderTickRate:1

[Events]
//Background and Video events
0,0,"within1_1024.jpg"
//Break Periods
2,54798,57408
2,107056,112085
2,124314,127085
2,176734,189182
2,213508,227731
//Storyboard Layer 0 (Background)
//Storyboard Layer 1 (Fail)
//Storyboard Layer 2 (Pass)
//Storyboard Layer 3 (Foreground)
//Storyboard Sound Samples
//Background Colour Transformations
3,100,163,162,255

[TimingPoints]
27502,322.58064516129,3,1,0,71,1,0
243147,-200,3,2,0,71,0,0
274195,-100,3,1,0,71,0,0
320566,-100,3,1,0,0,0,0

[HitObjects]
40,192,43308,5,2
160,296,43631,2,0,B|264:360|360:288,1,200,2|0
472,192,44276,1,0
472,192,44437,2,0,B|368:128|272:200,1,200,2|0
232,128,44921,2,0,B|128:192|32:120,1,200,2|0
104,72,45405,2,0,B|168:176|96:272,1,200,2|0
72,328,45889,1,2
216,256,46211,1,2
360,328,46534,1,2
496,256,46856,5,6
496,256,47018,1,6
456,104,47340,2,0,B|368:16|352:144|248:64,1,200,4|0
216,136,47824,1,0
191,49,47985,2,0,B|96:88|120:200|160:248|264:200,1,200,4|0
40,296,48631,5,4
112,336,48792,2,0,B|200:248|200:392|320:304,1,200,4|0
248,248,49276,1,0
384,168,49598,1,4
424,240,49760,1,0
344,96,50082,1,4
184,96,50405,1,0
184,256,50727,6,0,B|153:341|38:337|31:245|31:245,1,200,2|0
32,96,51372,1,2
184,64,51695,2,0,B|272:-24|288:104|392:24,1,200,2|0
472,160,52340,1,0
472,320,52663,2,0,B|352:296|360:152,1,200,2|0
279,176,53147,2,0,B|287:296|167:320,1,200,2|0
88,320,53631,1,2
0,184,53953,1,0
88,48,54276,1,2
176,184,54598,1,4
408,48,58308,5,2
456,112,58469,1,0
456,272,58792,1,2
408,336,58953,1,0
344,192,59276,1,2
264,192,59437,2,0,B|176:104|160:232|56:152,1,200,2|0
176,288,60082,5,0
16,288,60405,1,2
24,128,60727,1,2
88,80,60889,1,0
248,80,61211,1,2
312,128,61372,2,0,B|416:192|512:120,1,200,2|0
480,288,62018,1,2
320,288,62340,1,4
256,192,62501,12,4,65243
256,56,66050,5,4
264,136,66211,2,0,B|368:200|464:128,1,200,2|0
384,88,66695,2,0,B|448:192|376:288,1,200,2|0
320,320,67179,1,2
160,312,67501,2,0,B|194:144|-3:285|38:60,1,300,2|0
104,32,68147,5,2
152,88,68308,2,0,B|240:0|256:128|360:48,1,200,2|2
464,160,68953,1,2
464,240,69114,1,0
352,352,69437,1,0
232,240,69760,1,2
352,136,70082,1,4
256,192,70243,12,0,72018
408,120,72340,5,2
464,176,72501,1,0
312,120,72824,1,2
256,176,72985,1,0
352,304,73308,2,0,B|248:368|152:296,1,200,2|0
48,192,73953,1,6
256,72,74437,1,4
472,216,74921,6,0,B|368:272|360:160|256:232,1,200,2|0
160,320,75566,2,0,B|264:376|272:264|376:336,1,200,6|0
208,248,76211,1,0
144,200,76372,1,4
32,88,76695,5,2
88,144,76856,1,4
232,80,77179,1,2
344,192,77501,1,0
464,80,77824,1,2
344,192,78147,5,4
304,264,78308,1,0
360,320,78469,1,0
432,288,78631,1,0
424,208,78792,1,2
168,192,79114,5,4
208,264,79275,1,0
152,320,79436,1,0
80,288,79598,1,0
88,208,79759,1,2
256,120,80082,1,2
256,40,80243,1,0
256,264,80566,1,2
256,344,80727,1,0
416,184,81050,5,6
256,40,81372,1,2
96,184,81695,1,6
256,344,82018,1,2
296,272,82179,2,0,B|400:208|496:280,1,200,2|0
408,328,82663,2,0,B|472:224|400:128,1,200,2|0
168,176,83469,5,2
216,112,83631,2,0,B|128:56|104:168|0:96,1,200,2|0
72,40,84114,2,0,B|8:144|80:240,1,200,2|0
96,304,84598,1,0
224,200,84921,1,0
344,304,85243,1,0
464,200,85566,5,6
256,40,85889,1,2
256,40,86050,1,2
48,200,86372,1,2
48,200,86534,1,2
256,344,86856,1,2
464,200,87179,1,2
256,40,87501,1,4
256,192,87663,12,2,88469
400,80,88792,5,0
112,80,89115,1,2
256,320,89437,2,2,B|144:216|368:168|224:48,1,300,6|2
112,160,90243,1,6
72,232,90405,1,0
191,320,90727,2,0,B|313:327|364:219,1,200,2|0
464,112,91372,1,4
408,48,91534,2,0,B|320:-8|296:104|192:32,1,200,2|0
80,128,92179,5,0
136,192,92340,2,0,B|224:136|248:248|352:176,1,200,2|0
424,312,92985,1,0
264,304,93308,2,0,B|160:240|64:312,1,200,6|0
152,360,93792,2,0,B|88:256|160:160,1,200,2|0
192,104,94276,1,6
320,192,94598,1,0
272,120,94760,2,0,B|360:64|376:184|488:104,1,200,2|0
416,48,95243,5,6
256,336,95727,1,4
96,48,96211,1,4
176,184,96534,5,2
336,184,96856,1,2
488,184,97179,2,0,B|483:146|427:18|232:24,1,300,2|0
32,184,97985,1,2
32,184,98147,2,0,B|37:146|93:18|288:24,1,300,2|0
208,272,99114,6,0,B|296:216|320:328|424:256,1,200,2|0
312,344,99597,2,0,B|376:240|304:144,1,200,2|0
384,120,100082,1,2
448,264,100405,1,0
384,120,100727,1,2
240,48,101050,1,0
96,120,101372,5,2
56,192,101534,1,0
96,264,101695,2,0,B|200:328|296:256,1,200,2|0
400,376,102340,1,2
488,240,102663,1,0
400,104,102985,1,2
256,24,103308,1,0
112,104,103631,1,2
24,240,103953,1,6
256,192,104114,12,4,106856
256,328,112985,5,2
175,191,113308,2,0,B|53:179|20:64,1,200,2|0
184,80,113953,1,0
183,79,114114,2,0,B|305:91|338:206,1,200,2|0
333,192,114598,2,0,B|345:71|460:37,1,200,2|0
333,192,115082,2,0,B|352:313|248:373,1,200,2|0
184,336,115566,1,2
48,256,115888,1,2
80,96,116211,1,2
240,72,116533,5,6
240,72,116695,2,0,B|328:160|328:16|448:104,1,200,4|0
424,248,117340,1,4
424,248,117501,1,0
424,248,117663,2,0,B|336:336|336:192|216:280,1,200,4|0
80,336,118308,1,4
80,336,118469,2,0,B|16:232|88:136,1,200,0|0
136,208,118953,2,0,B|200:104|128:8,1,200,4|0
136,20,119437,1,0
272,104,119759,1,4
408,16,120082,1,0
416,256,120404,6,0,B|385:341|270:337|263:245|263:245,1,200,2|0
116,256,121050,2,0,B|147:341|262:337|269:245|269:245,1,200,2|0
144,152,121695,1,0
240,24,122017,1,0
400,48,122340,2,0,B|280:72|288:216,1,200,2|0
352,232,122824,2,0,B|472:208|464:64,1,200,2|0
400,48,123308,1,2
256,120,123630,1,0
112,48,123953,1,2
112,48,124114,1,4
104,336,127985,5,2
56,272,128146,1,0
56,112,128469,1,2
104,48,128630,1,0
168,192,128953,1,2
248,192,129114,2,0,B|336:280|352:152|456:232,1,200,2|0
336,96,129759,1,0
496,96,130082,5,2
488,256,130404,1,2
424,304,130566,1,0
264,304,130888,1,2
200,256,131049,2,0,B|96:192|0:264,1,200,2|0
16,96,131695,1,2
200,96,132018,1,4
256,192,132178,12,4,134920
256,328,135727,5,4
248,248,135888,2,0,B|144:184|48:256,1,200,2|0
128,296,136372,2,0,B|64:192|136:96,1,200,2|0
192,64,136856,1,2
304,184,137179,1,0
408,64,137501,1,0
304,184,137824,5,2
352,256,137985,2,0,B|264:344|248:216|144:296,1,200,2|2
16,192,138630,1,2
16,192,138791,1,0
256,32,139114,1,0
496,192,139437,1,2
256,352,139759,1,4
256,192,139921,12,4,141696
112,56,142018,5,2
112,56,142179,1,0
384,56,142501,1,2
384,56,142662,1,0
256,152,142985,1,2
256,312,143308,1,2
96,312,143631,2,0,B|-8:168|104:16|104:16,1,300,6|0
160,176,144437,5,6
160,176,144598,2,0,B|264:232|272:120|376:192,1,200,4|4
416,32,145243,1,4
472,184,145566,1,6
472,184,145727,1,0
416,336,146050,1,6
256,336,146372,5,6
256,336,146534,2,0,B|320:232|248:136,1,200,4|0
128,248,147179,1,2
56,104,147501,1,6
216,104,147824,1,4
216,104,147985,2,0,B|304:168|312:48|432:136,1,200,4|4
352,184,148469,1,6
472,288,148792,1,0
472,288,148953,2,0,B|368:352|272:280,1,200,6|0
200,288,149437,1,6
72,184,149760,5,0
72,184,149921,2,0,B|176:120|272:192,1,200,6|0
260,184,150405,1,0
416,184,150727,1,2
344,40,151050,1,0
183,40,151372,2,0,B|65:72|53:191,1,200,2|0
55,176,151856,2,0,B|65:281|183:313,1,200,2|0
181,313,152340,1,2
181,313,152663,1,0
448,192,153147,5,0
432,112,153308,2,0,B|360:16|224:40,1,200,2|0
257,35,153792,2,0,B|154:24|75:117,1,200,2|0
64,192,154276,1,2
256,296,154598,1,0
448,192,154921,1,6
256,192,155243,12,6,157179
56,104,157501,5,2
56,104,157663,1,2
160,224,157985,1,2
160,224,158147,2,0,B|264:296|384:200,1,200,2|0
248,104,158792,1,2
416,88,159114,2,0,B|520:144|520:320|352:352,1,300,6|4
304,208,159921,5,6
304,208,160082,2,0,B|216:152|192:264|88:192,1,200,2|4
88,48,160727,1,6
24,192,161050,1,2
24,192,161211,1,2
88,336,161534,1,6
248,336,161856,5,2
248,336,162018,2,0,B|352:272|448:344,1,200,2|2
336,208,162663,1,2
424,72,162985,1,2
256,72,163308,1,2
256,72,163469,2,0,B|168:16|144:128|40:56,1,200,2|0
128,8,163953,2,0,B|64:112|136:208,1,200,2|0
72,256,164437,1,2
192,360,164760,1,0
192,360,164921,2,0,B|280:304|304:416|408:344,1,200,2|0
384,360,165405,1,2
256,40,165889,1,6
400,112,166211,5,0
248,184,166534,1,2
104,112,166856,2,0,B|16:152|0:240|24:320|104:352,1,300,2|0
416,352,167663,1,2
416,352,167824,2,0,B|504:312|520:224|496:144|416:112,1,300
192,56,168792,6,0,B|64:64|48:176,1,200,2|0
48,168,169276,2,0,B|64:274|192:282,1,200,2|0
191,282,169760,1,2
336,352,170083,1,0
448,240,170405,1,2
392,88,170728,1,0
232,88,171050,5,2
152,64,171212,1,0
88,112,171372,2,0,B|0:216|104:312|104:312|104:312,1,200,2|0
232,360,172018,1,2
392,336,172341,1,0
464,192,172663,1,2
368,64,172986,1,0
208,32,173309,1,2
80,128,173631,1,6
256,192,173792,12,4,176534
256,192,190082,12,4,197824
256,192,198147,5,2
248,88,198308,2,2,B|128:104|112:216,1,200
247,88,198792,2,2,B|367:104|382:212,1,200,2|2
248,338,199276,2,2,B|128:322|112:210,1,200
247,337,199760,2,2,B|367:322|382:213,1,200,2|2
280,200,200243,6,0,B|264:96|384:136|392:48,1,200,2|0
216,200,200727,2,0,B|232:96|112:136|104:48,1,200,2|0
280,200,201211,2,0,B|264:304|384:264|392:352,1,200,2|0
216,200,201695,2,0,B|232:304|112:264|104:352,1,200,2|0
40,272,202179,6,0,B|0:152|96:72|96:72,1,200,2|0
168,32,202663,2,0,B|272:-16|384:40,1,200,2|0
439,88,203147,2,0,B|425:74|521:154|481:274,1,200,2|0
400,328,203631,2,0,B|312:272|296:392|184:312,1,200,2|0
264,240,204114,2,0,B|176:184|160:304|48:224,1,200,2|0
104,48,204598,6,0,B|192:104|208:-16|320:64,1,200,2|0
240,136,205081,2,0,B|328:192|344:72|456:152,1,200,2|0
448,304,205566,6,0,B|336:360|248:304,1,200,6|0
65,304,206050,2,0,B|177:360|265:304,1,200,2|0
256,200,206534,2,0,B|152:112|152:256|56:160,1,200,2|0
256,200,207018,2,0,B|360:112|360:256|456:160,1,200,2|0
448,80,207501,2,0,B|336:24|248:80,1,200,2|0
65,80,207985,2,0,B|177:24|265:80,1,200,2|0
160,152,208469,6,2,B|88:264|224:240|136:352,1,200
248,336,208953,2,2,B|320:224|184:248|272:136,1,200
360,152,209437,2,2,B|288:264|424:240|336:352,1,200,6|2
347,336,209921,1,2
256,40,210243,5,2
256,40,210405,2,0,B|160:112|64:32,1,200,2|0
256,40,210889,2,0,B|352:112|448:32,1,200,2|0
263,191,211372,2,0,B|352:264|392:152|472:208,1,200,2|0
263,191,211856,2,0,B|175:264|135:152|55:208,1,200,2|0
256,344,212340,2,0,B|160:416|64:336,1,200,2|0
256,344,212824,2,0,B|352:416|448:336,1,200,2|0
439,342,213308,1,2
368,40,228631,5,2
432,96,228792,2,0,B|504:192|416:304,1,200
368,328,229276,1,0
304,192,229599,1,2
304,192,229760,2,0,B|216:104|200:232|96:152,1,200,2|0
96,328,230405,5,0
8,192,230728,1,2
104,64,231050,1,2
176,96,231212,1,0
336,96,231534,1,2
408,64,231695,1,0
256,128,232018,1,0
256,288,232341,1,2
256,128,232663,1,6
256,192,232824,12,4,235566
256,328,236373,5,4
264,248,236534,2,0,B|368:184|464:256,1,200,2|0
384,296,237018,2,0,B|448:192|376:96,1,200,2|0
320,64,237502,1,2
160,72,237824,2,0,B|194:240|-3:99|38:324,1,300,2|0
104,352,238470,5,2
152,288,238631,2,0,B|240:376|256:248|360:328,1,200,2|2
464,224,239276,1,2
464,144,239437,1,0
352,32,239760,1,0
232,144,240083,1,2
120,32,240405,1,4
256,192,240566,12,0,242340
67,64,243308,6,2,B|136:80|144:168,1,100
56,152,243953,1,0
16,224,244276,1,2
72,280,244598,2,2,B|88:344|172:328,1,100
144,248,245243,1,0
216,208,245566,1,2
296,232,245889,2,2,B|318:172|398:180,1,100,2|2
368,264,246534,1,0
424,312,246856,1,2
488,264,247179,6,0,B|464:216|520:216|488:160,1,100,2|0
408,152,247824,1,0
456,88,248147,1,2
384,56,248469,2,0,B|336:8|272:40,1,100,2|0
320,112,249114,1,0
256,160,249437,1,2
192,208,249760,2,0,B|136:248|72:192,1,100,2|0
144,144,250405,1,0
64,136,250727,5,2
16,200,251050,1,2
56,272,251372,2,0,B|32:336|96:368,1,100,2|0
136,296,252018,1,2
208,256,252340,1,0
280,288,252663,2,0,B|288:344|376:344|376:344,1,100,2|0
360,256,253308,1,0
432,216,253631,1,2
408,136,253953,2,0,B|424:80|352:40,1,100,2|0
328,128,254598,1,0
272,72,254921,5,2
200,104,255243,1,2
168,176,255566,2,0,B|136:240|64:224,1,100,2|0
88,144,256211,1,2
8,168,256534,1,0
8,248,256856,1,2
80,280,257179,2,0,B|136:248|192:312,1,100,2|0
112,352,257824,1,2
192,368,258147,1,0
248,312,258469,6,0,B|280:256|352:272,1,100,2|0
320,352,259114,1,2
400,344,259437,1,0
432,272,259760,1,2
400,200,260082,2,0,B|376:144|288:128,1,100,2|0
312,224,260727,1,2
248,176,261050,1,0
232,256,261372,2,0,B|216:320|144:312,1,100,2|0
152,232,262018,1,2
72,208,262340,1,0
80,128,262663,6,0,B|56:56|136:24,1,100,2|0
160,104,263308,1,2
216,48,263631,1,0
288,72,263953,2,0,B|288:144|368:136,1,100,2|0
368,56,264598,1,2
440,88,264921,1,0
448,168,265243,1,2
384,216,265566,1,2
312,184,265889,2,0,B|240:200|248:288,1,100,2|0
328,264,266534,5,0
288,328,266856,1,2
208,328,267179,1,0
160,264,267501,2,0,B|160:200|72:184,1,100,2|0
80,272,268147,1,2
24,216,268469,1,0
48,136,268792,1,2
127,120,269114,2,0,B|112:48|208:24,1,100,2|0
208,112,269760,1,2
248,176,270082,1,0
320,136,270405,6,0,B|344:208|424:192,1,100,2|0
400,112,271050,1,2
472,152,271372,1,2
256,192,271534,12,6,274276
352,80,274598,6,0,B|248:16|152:88,1,200,2|0
48,192,275243,1,6
256,312,275727,1,4
472,168,276211,6,0,B|368:112|360:224|256:152,1,200,2|0
160,64,276856,2,0,B|264:8|272:120|376:48,1,200,6|0
96,240,277501,1,2
144,304,277662,1,4
304,304,277985,5,2
352,240,278146,1,4
232,136,278469,1,2
104,40,278791,1,0
232,136,279114,1,6
361,41,279437,5,4
360,40,279598,2,0,B|473:89|473:233,1,200,2|0
470,194,280082,2,0,B|465:301|353:357,1,200,2|0
287,328,280566,2,0,B|232:240|161:330|99:219,1,200,2|0
56,296,281050,5,6
256,40,281534,1,4
456,296,282017,1,6
336,192,282340,5,6
256,328,282662,1,2
160,192,282985,1,6
256,56,283308,1,2
304,120,283469,2,0,B|408:184|504:112,1,200,2|0
408,56,283953,2,0,B|472:160|400:256,1,200,2|0
168,208,284759,5,2
216,272,284921,2,0,B|128:328|104:216|0:288,1,200,2|0
72,344,285404,2,0,B|8:240|80:144,1,200,2|0
96,80,285888,1,0
224,184,286211,1,0
344,80,286533,1,0
464,184,286856,5,6
256,344,287179,1,2
256,344,287340,1,2
48,184,287662,1,2
48,184,287824,1,2
256,40,288146,1,2
464,184,288469,1,2
256,344,288791,1,6
256,192,288953,12,2,289759
256,192,290082,5,2
160,64,290405,2,0,B|264:8|384:80,1,200,2|4
256,288,291211,1,2
128,192,291533,1,6
64,136,291695,1,0
192,40,292018,1,0
296,160,292340,1,2
400,40,292662,1,6
400,40,292824,2,0,B|498:105|491:245,1,200
368,312,293469,5,2
304,264,293630,2,0,B|216:320|192:208|88:280,1,200,2|0
56,112,294275,1,2
216,88,294598,2,0,B|304:32|320:152|432:72,1,200,2|0
360,16,295082,2,0,B|424:120|352:216,1,200,2|0
360,204,295566,1,6
480,304,295888,5,0
480,304,296050,2,0,B|392:360|376:240|264:320,1,200,2|0
256,232,296533,1,6
88,56,297017,1,4
424,56,297501,1,4
256,232,297824,5,2
488,200,298146,1,2
488,200,298469,2,0,B|483:238|427:366|232:360,1,300,2|0
32,200,299275,1,2
32,200,299437,2,0,B|37:238|93:366|288:360,1,300,2|0
208,112,300404,6,0,B|296:168|320:56|424:128,1,200,2|0
312,40,300889,2,0,B|376:144|304:240,1,200,2|0
392,248,301372,1,2
120,136,301695,1,0
392,136,302017,1,2
120,248,302340,1,0
256,336,302662,5,2
256,336,302824,1,0
256,336,302985,2,0,B|216:248|320:240|240:120,1,200,2|0
328,32,303630,1,2
184,32,303953,1,0
424,144,304275,1,2
88,144,304598,1,2
328,280,304921,1,6
184,280,305243,1,2
256,192,305404,12,6,309114
448,64,309437,5,4
288,64,309760,1,6
384,192,310082,1,6
384,192,310243,2,0,B|359:311|241:332,1,200,2|0
136,224,310889,1,0
136,224,311050,2,0,B|136:48|352:40,1,300,2|0
464,136,311856,5,2
464,136,312018,1,0
464,136,312179,1,0
256,312,312501,1,2
48,136,312824,1,0
48,136,312985,2,2,B|160:64|272:168,1,200
368,56,313631,1,0
448,192,313953,2,0,B|384:352|176:296,1,300,2|0
256,192,314598,12,6,316856
104,64,317179,5,2
408,64,317501,1,2
256,320,317824,2,0,B|112:320|88:200,1,200,2|0
256,320,318308,2,0,B|400:320|424:200,1,200,2|0
256,64,318792,6,0,B|168:104|160:0|40:80,1,200,2|0
256,64,319276,2,0,B|344:104|352:0|472:80,1,200,2|0
392,136,319760,1,2
256,312,320082,1,0
120,136,320405,1,2
256,192,320727,12,0,323953
