osu file format v12

[General]
AudioFilename: Within Temptation - Stand My Ground.mp3
AudioLeadIn: 0
PreviewTime: 116580
Countdown: 0
SampleSet: Soft
StackLeniency: 0.7
Mode: 0
LetterboxInBreaks: 0
WidescreenStoryboard: 0

[Editor]
DistanceSpacing: 1.1
BeatDivisor: 8
GridSize: 4
TimelineZoom: 1

[Metadata]
Title:Stand My Ground
TitleUnicode:Stand My Ground
Artist:Within Temptation
ArtistUnicode:Within Temptation
Creator:AlexaBM
Version:Normal
Source:
Tags:Blood and Chocolate The Silent Force The Heart of Everything Symphonic gothic metal Alarido
BeatmapID:331488
BeatmapSetID:131682

[Difficulty]
HPDrainRate:4
CircleSize:3
OverallDifficulty:4
ApproachRate:4
SliderMultiplier:1.4
SliderTickRate:2

[Events]
//Background and Video events
0,0,"bg.jpg",0,0
//Break Periods
2,84223,93612
2,138768,142703
//Storyboard Layer 0 (Background)
//Storyboard Layer 1 (Fail)
//Storyboard Layer 2 (Pass)
//Storyboard Layer 3 (Foreground)
//Storyboard Sound Samples
//Background Colour Transformations
3,100,163,162,255

[TimingPoints]
26751,681.818181818182,4,1,1,100,1,0
26751,-125,4,2,1,55,0,0
48569,-100,4,1,1,67,0,0
59478,-95.2380952380952,4,1,1,73,0,1
69705,-95.2380952380952,4,1,1,73,0,0
70387,-95.2380952380952,4,1,1,73,0,1
80955,-95.2380952380952,4,3,1,73,0,1
81296,-100,4,1,1,67,0,0
115387,-100,4,3,0,67,0,0
116750,-95.2380952380952,4,1,1,73,0,1
126978,-95.2380952380952,4,1,1,73,0,0
127660,-95.2380952380952,4,1,1,73,0,1
138569,-100,4,1,1,67,0,0
144023,-125,4,2,1,55,0,0
163114,-100,4,2,1,15,0,0
168569,-100,4,2,1,55,0,0
171296,-95.2380952380952,4,1,1,73,0,1
181523,-95.2380952380952,4,1,1,73,0,0
182205,-95.2380952380952,4,1,1,73,0,1
192773,-95.2380952380952,4,1,1,73,0,0
193114,-95.2380952380952,4,1,1,73,0,1
203341,-95.2380952380952,4,1,1,73,0,0
204023,-95.2380952380952,4,1,1,73,0,1
214932,-95.2380952380952,4,1,1,73,0,0
215103,-100,4,2,1,15,0,0

[Colours]
Combo1 : 124,46,69
Combo2 : 255,152,102
Combo3 : 241,134,46
Combo4 : 175,97,97
Combo5 : 255,62,62

[HitObjects]
116,188,26750,6,0,L|176:240,1,70,2|0,0:0|0:0,0:0:0:0:
224,252,27432,2,0,B|280:232|328:272|328:272|380:240|440:268,1,224
484,156,29478,2,0,L|436:104,1,56,2|0,0:0|0:0,0:0:0:0:
404,68,30160,2,0,P|288:48|248:144,1,224
300,240,32205,6,0,L|372:348,2,112,2|0|0,0:0|0:0|0:0,0:0:0:0:
244,132,34250,1,0,0:0:0:0:
216,76,34591,1,0,0:0:0:0:
168,40,34932,2,0,P|100:32|4:76,2,168,2|0|0,0:0|0:0|0:0,0:0:0:0:
268,112,37660,5,2,0:0:0:0:
323,221,38341,1,0,0:0:0:0:
214,277,39023,1,0,0:0:0:0:
157,167,39705,1,0,0:0:0:0:
214,277,40387,2,0,P|148:288|96:276,2,112,2|0|0,0:0|0:0|0:0,0:0:0:0:
332,240,42432,1,0,0:0:0:0:
384,208,42773,1,0,0:0:0:0:
400,148,43114,6,0,L|328:60,1,112,2|0,0:0|0:0,0:0:0:0:
208,52,44478,2,0,P|120:60|80:52,1,112
64,176,45841,2,0,L|48:264,2,84,2|0|2,0:0|0:0|0:0,0:0:0:0:
248,168,47887,2,0,L|328:160,1,56
380,156,48569,6,0,P|451:146|523:190,1,140,4|8,0:0|0:0,0:0:0:0:
420,304,49932,2,0,P|348:313|276:269,1,140,0|8,0:0|0:0,0:0:0:0:
220,248,50955,1,0,0:0:0:0:
164,196,51296,6,0,P|108:148|108:128,1,70
126,81,51978,2,0,P|182:129|182:149,1,70,8|0,0:0|0:0,0:0:0:0:
240,168,52660,1,0,0:0:0:0:
312,304,53341,2,0,L|396:288,1,70,8|0,0:0|0:0,0:0:0:0:
432,348,54023,6,0,L|408:196,1,140,0|8,0:0|0:0,0:0:0:0:
388,136,55046,1,0,0:0:0:0:
380,60,55387,2,0,P|432:36|492:24,2,105
256,192,56750,12,4,59478,0:0:0:0:
112,128,60160,5,8,0:0:0:0:
172,184,60500,1,0,0:0:0:0:
244,220,60841,2,0,P|308:232|404:228,2,146.999995513916,0|8|0,0:0|0:0|0:0,0:0:0:0:
88,180,62887,2,8,P|112:116|188:76,1,146.999995513916,8|0,0:0|0:0,0:0:0:0:
256,100,63910,1,0,0:0:0:0:
256,100,64250,6,0,L|312:248,1,146.999995513916,8|0,0:0|0:0,0:0:0:0:
400,368,65614,1,8,0:0:0:0:
452,216,66296,2,0,P|488:248|536:264,2,73.4999977569581,0|0|8,0:0|0:0|0:0,0:0:0:0:
444,136,67319,1,0,0:0:0:0:
364,132,67660,6,0,P|288:144|200:124,1,146.999995513916,0|8,0:0|0:0,0:0:0:0:
148,92,68682,1,0,0:0:0:0:
72,60,69023,2,4,L|48:208,2,146.999995513916
232,108,71069,6,0,L|236:208,1,73.4999977569581,8|0,0:0|0:0,0:0:0:0:
248,260,71750,2,0,P|300:268|372:232,1,110.249996635437
356,208,72432,2,0,P|352:124|368:88,1,110.249996635437,8|0,0:0|0:0,0:0:0:0:
372,60,73114,2,0,P|448:76|512:48,1,146.999995513916,0|8,0:0|0:0,0:0:0:0:
480,208,74478,2,0,P|468:268|472:308,1,73.4999977569581
476,360,75160,1,8,0:0:0:0:
400,328,75500,1,0,0:0:0:0:
320,308,75841,6,0,L|156:296,1,146.999995513916,0|8,0:0|0:0,0:0:0:0:
68,176,77205,2,0,L|214:186,1,146.999995513916,0|8,0:0|0:0,0:0:0:0:
296,196,78228,1,0,0:0:0:0:
372,220,78569,2,0,L|420:380,2,146.999995513916,0|8|4,0:0|0:0|0:0,0:0:0:0:
272,92,80614,6,0,B|244:136|192:144|192:144|200:180|168:212,1,146.999995513916,8|4,0:0|0:0,0:0:0:0:
256,192,81466,12,4,84023,0:0:0:0:
84,220,94932,6,0,P|152:192|176:192,1,70,4|0,0:0|0:0,0:0:0:0:
188,260,95614,2,0,P|221:250|251:232,1,70,8|0,0:0|0:0,0:0:0:0:
264,156,96296,2,0,P|301:172|320:199,2,70,0|0|8,0:0|0:0|0:0,0:0:0:0:
200,112,97319,1,0,0:0:0:0:
152,52,97660,6,0,B|112:80|116:108|136:140|76:176,1,140,0|8,0:0|0:0,0:0:0:0:
24,216,98682,1,0,0:0:0:0:
8,292,99023,2,0,P|76:316|152:308,1,140,0|8,0:0|0:0,0:0:0:0:
220,296,100046,1,0,0:0:0:0:
288,256,100387,6,0,P|360:180|360:136,1,140,0|8,0:0|0:0,0:0:0:0:
336,76,101410,1,0,0:0:0:0:
336,76,101750,2,0,P|296:108|280:140,2,70,0|0|8,0:0|0:0|0:0,0:0:0:0:
444,188,103114,6,0,P|472:252|436:332,1,140,0|8,0:0|0:0,0:0:0:0:
376,324,104137,1,0,0:0:0:0:
320,272,104478,2,0,P|268:280|240:304,1,70,0|8,0:0|0:0,0:0:0:0:
184,320,105160,2,0,P|149:318|118:302,1,70,0|8,0:0|0:0,0:0:0:0:
60,252,105841,6,0,P|68:164|60:104,1,140,4|8,0:0|0:0,0:0:0:0:
68,36,106864,1,0,0:0:0:0:
144,44,107205,2,0,L|296:80,1,140,0|8,0:0|0:0,0:0:0:0:
432,96,108569,6,0,L|448:172,1,70
376,200,109250,2,0,L|368:276,1,70,8|0,0:0|0:0,0:0:0:0:
348,344,109932,1,0,0:0:0:0:
196,352,110614,1,8,0:0:0:0:
132,308,110955,1,0,0:0:0:0:
80,248,111296,6,0,P|48:164|88:100,1,140,0|8,0:0|0:0,0:0:0:0:
112,60,112319,1,0,0:0:0:0:
184,28,112660,2,0,P|216:112|184:168,1,140,0|8,0:0|0:0,0:0:0:0:
136,200,113682,1,0,0:0:0:0:
256,192,114023,12,8,115387,0:0:0:0:
192,164,116750,6,0,P|256:136|340:188,1,146.999995513916,4|8,0:0|0:0,0:0:0:0:
326,245,117773,1,0,0:0:0:0:
344,324,118114,2,0,P|432:332|464:316,1,110.249996635437
488,308,118796,2,0,P|488:212|496:176,1,110.249996635437,8|0,0:0|0:0,0:0:0:0:
496,160,119478,5,0,0:0:0:0:
439,101,119819,1,0,0:0:0:0:
417,179,120160,2,0,P|376:216|276:204,1,146.999995513916,8|0,0:0|0:0,0:0:0:0:
232,156,121182,1,0,0:0:0:0:
204,80,121523,1,8,0:0:0:0:
64,164,122205,6,0,L|48:316,1,146.999995513916,0|8,0:0|0:0,0:0:0:0:
108,368,123228,1,0,0:0:0:0:
164,312,123569,2,0,L|252:276,2,73.4999977569581,0|0|8,0:0|0:0|0:0,0:0:0:0:
36,212,124932,6,0,P|56:108|96:48,1,146.999995513916,0|8,0:0|0:0,0:0:0:0:
152,44,125955,1,0,0:0:0:0:
220,88,126296,1,0,0:0:0:0:
345,193,126978,1,8,0:0:0:0:
194,251,127660,5,4,0:0:0:0:
68,356,128341,2,0,P|68:284|64:260,1,73.4999977569581,8|0,0:0|0:0,0:0:0:0:
28,212,129023,2,0,P|108:200|160:172,1,110.249996635437
160,156,129705,2,0,P|140:104|152:44,1,110.249996635437,8|0,0:0|0:0,0:0:0:0:
184,32,130386,2,0,P|252:48|324:40,1,110.249996635437
332,56,131069,1,8,0:0:0:0:
436,180,131751,2,0,B|444:252|444:252|484:284|480:336,1,146.999995513916,0|8,0:0|0:0,0:0:0:0:
324,356,133114,6,0,P|176:348|156:352,1,146.999995513916,4|8,0:0|0:0,0:0:0:0:
128,284,134137,2,0,L|84:216,1,73.4999977569581
64,188,134648,2,0,L|40:140,1,36.749998878479
56,76,135160,6,0,B|124:96|124:96|156:64|204:60,1,146.999995513916,8|0,0:0|0:0,0:0:0:0:
272,56,136182,1,0,0:0:0:0:
348,80,136523,1,8,0:0:0:0:
428,220,137205,2,0,P|344:236|284:272,2,146.999995513916,0|8|4,0:0|0:0|0:0,0:0:0:0:
100,76,144023,6,0,P|184:88|336:68,1,224,2|0,0:0|0:0,0:0:0:0:
384,60,145728,1,0,0:0:0:0:
440,36,146069,2,0,P|460:96|460:140,1,84,0|0,0:0|0:0,0:0:0:0:
452,144,146751,2,0,P|436:228|448:272,1,112,2|0,0:0|0:0,0:0:0:0:
340,320,148114,2,0,P|356:236|344:192,1,112,2|0,0:0|0:0,0:0:0:0:
356,88,149478,6,0,B|288:88|256:128|256:128|224:88|152:88,2,224,2|2|2,0:0|0:0|0:0,0:0:0:0:
484,36,152887,2,0,P|500:112|484:148,1,112,0|2,0:0|0:0,0:0:0:0:
404,212,154251,2,0,P|352:252|336:312,2,112,0|2|0,0:0|0:0|0:0,0:0:0:0:
408,88,156296,1,0,0:0:0:0:
290,49,156978,1,0,0:0:0:0:
316,170,157660,6,0,P|200:180|68:176,1,224,2|0,0:0|0:0,0:0:0:0:
24,280,159705,1,0,0:0:0:0:
132,336,160387,2,0,P|243:334|355:343,1,224,2|0,0:0|0:0,0:0:0:0:
480,352,162432,1,0,0:0:0:0:
256,192,163114,12,2,168569,0:0:0:0:
120,156,169251,5,0,0:0:0:0:
132,308,169932,2,0,P|220:272|256:216,2,140,2|2|4,0:0|0:0|0:0,0:0:0:0:
80,248,171637,5,0,0:0:0:0:
136,188,171978,2,0,B|139:127|191:104|191:104|193:48,1,146.999995513916,8|0,0:0|0:0,0:0:0:0:
256,12,173001,1,0,0:0:0:0:
316,64,173341,2,0,B|317:104|317:104|368:127|372:188,1,146.999995513916,8|0,0:0|0:0,0:0:0:0:
393,267,174364,1,0,0:0:0:0:
320,300,174705,2,0,P|228:284|160:252,1,146.999995513916,8|0,0:0|0:0,0:0:0:0:
128,199,175728,1,0,0:0:0:0:
60,244,176069,2,0,P|50:319|100:388,1,146.999995513916,8|0,0:0|0:0,0:0:0:0:
248,372,177432,6,0,B|308:340|328:368|348:392|412:356,2,146.999995513916,8|0|8,0:0|0:0|0:0,0:0:0:0:
128,348,179307,1,0,0:0:0:0:
128,348,179478,2,0,P|148:256|140:192,1,146.999995513916,0|8,0:0|0:0,0:0:0:0:
108,132,180501,1,0,0:0:0:0:
164,76,180841,2,0,P|232:92|296:80,1,110.249996635437
308,108,181523,2,0,P|304:164|328:236,1,110.249996635437,8|0,0:0|0:0,0:0:0:0:
340,252,182205,6,0,P|408:220|480:252,2,146.999995513916,4|8|0,0:0|0:0|0:0,0:0:0:0:
232,308,184080,1,0,0:0:0:0:
232,308,184251,2,0,P|164:241|161:214,1,110.249996635437,8|0,0:0|0:0,0:0:0:0:
162,191,184932,2,0,L|17:244,1,146.999995513916,0|8,0:0|0:0,0:0:0:0:
100,384,186296,2,0,P|164:356|184:304,1,110.249996635437
212,296,186978,2,0,P|292:296|336:264,1,110.249996635437,8|0,0:0|0:0,0:0:0:0:
348,260,187660,5,0,0:0:0:0:
408,204,188001,1,0,0:0:0:0:
436,128,188341,2,0,P|384:80|340:64,2,110.249996635437,8|0|0,0:0|0:0|0:0,0:0:0:0:
408,204,189705,1,8,0:0:0:0:
304,268,190216,1,0,0:0:0:0:
304,268,190387,6,0,P|228:240|204:236,1,73.4999977569581
164,204,191069,1,8,0:0:0:0:
256,192,191751,12,4,193114,0:0:0:0:
164,144,193796,5,8,0:0:0:0:
236,108,194137,1,0,0:0:0:0:
316,124,194478,2,0,P|392:180|432:192,1,110.249996635437
408,224,195160,2,0,P|376:264|344:348,1,110.249996635437,8|0,0:0|0:0,0:0:0:0:
324,348,195841,2,0,P|256:344|196:360,1,110.249996635437
176,356,196523,1,8,0:0:0:0:
116,304,196864,6,0,P|48:284|16:284,2,73.4999977569581
176,356,197887,2,0,P|220:272|216:204,1,146.999995513916,8|0,0:0|0:0,0:0:0:0:
196,144,198910,1,0,0:0:0:0:
256,88,199251,1,8,0:0:0:0:
328,124,199591,2,0,P|384:164|400:188,1,73.4999977569581
388,288,200444,1,0,0:0:0:0:
388,288,200614,6,0,P|276:292|228:280,1,146.999995513916,8|0,0:0|0:0,0:0:0:0:
188,228,201637,1,0,0:0:0:0:
124,176,201978,1,8,0:0:0:0:
108,256,202319,1,0,0:0:0:0:
168,312,202660,2,0,P|252:324|300:352,1,110.249996635437
312,328,203341,2,0,P|324:272|348:216,1,110.249996635437,8|0,0:0|0:0,0:0:0:0:
376,196,204023,5,4,0:0:0:0:
401,115,204364,1,0,0:0:0:0:
323,91,204705,1,8,0:0:0:0:
298,167,205046,1,0,0:0:0:0:
323,91,205387,6,0,P|247:99|215:151,1,110.249996635437
204,156,206069,2,0,P|172:220|128:244,1,110.249996635437,8|0,0:0|0:0,0:0:0:0:
100,244,206751,2,0,P|68:284|64:308,2,73.4999977569581,0|0|8,0:0|0:0|0:0,0:0:0:0:
180,252,207773,6,0,P|244:256|264:252,1,73.4999977569581
416,248,208796,1,8,0:0:0:0:
324,116,209478,6,0,P|248:108|220:116,1,73.4999977569581
172,100,210160,1,8,0:0:0:0:
28,172,210841,1,0,0:0:0:0:
80,232,211182,1,0,0:0:0:0:
156,260,211523,6,0,P|224:256|272:272,1,110.249996635437,8|0,0:0|0:0,0:0:0:0:
304,264,212205,2,0,P|328:204|360:180,1,73.4999977569581
392,140,212887,1,8,0:0:0:0:
456,288,213569,2,0,L|384:348,1,73.4999977569581
320,356,214251,6,0,B|270:338|224:364|224:364|209:330|164:325,1,146.999995513916,0|4,0:0|0:0,0:0:0:0:
256,192,215103,12,2,217660,0:0:0:0:
