osu file format v14

[General]
AudioFilename: 03. Jillian (I'd Give My Heart).mp3
AudioLeadIn: 0
PreviewTime: 101113
Countdown: 0
SampleSet: Normal
StackLeniency: 0.8
Mode: 0
LetterboxInBreaks: 0
WidescreenStoryboard: 0

[Editor]
Bookmarks: 55399,78256,101113,123970,146827,169684,192542,232542,258256
DistanceSpacing: 1.1
BeatDivisor: 4
GridSize: 4
TimelineZoom: 1.7

[Metadata]
Title:Jillian (I'd Give My Heart)
TitleUnicode:Jillian (I'd Give My Heart)
Artist:Within Temptation
ArtistUnicode:Within Temptation
Creator:ryuu
Version:Normal
Source:
Tags:the silent force symphonic gothic metal kyubey sieg
BeatmapID:655334
BeatmapSetID:273253

[Difficulty]
HPDrainRate:3
CircleSize:3.3
OverallDifficulty:3.5
ApproachRate:4
SliderMultiplier:1.7
SliderTickRate:1

[Events]
//Background and Video events
0,0,"ggbg.jpg",0,0
//Break Periods
2,55599,66113
2,121313,123364
2,192742,226579
2,231402,234079
//Storyboard Layer 0 (Background)
//Storyboard Layer 1 (Fail)
//Storyboard Layer 2 (Pass)
//Storyboard Layer 3 (Foreground)
//Storyboard Sound Samples

[TimingPoints]
29685,714.285714285714,4,1,1,20,1,0
31470,-100,4,1,1,25,0,0
31827,-100,4,1,1,30,0,0
32185,-100,4,1,1,35,0,0
32542,-100,4,1,1,40,0,0
52899,-100,4,1,1,10,0,0
67184,-100,4,2,1,40,0,0
95399,-100,4,1,1,40,0,0
101113,-100,4,1,1,55,0,1
112452,-100,4,1,1,55,0,0
112542,-100,4,1,1,55,0,1
121113,-100,4,1,1,55,0,0
123970,-100,4,2,1,40,0,0
163970,-100,4,1,1,40,0,0
169684,-100,4,1,1,55,0,1
181024,-100,4,1,1,55,0,0
181113,-100,4,1,1,55,0,1
189684,-100,4,1,1,55,0,0
190042,-100,4,1,1,10,0,0
232542,-100,4,1,1,30,0,0
235399,-100,4,1,1,40,0,0
236827,-100,4,1,1,50,0,0
238256,-100,4,1,1,55,0,1
238613,-100,4,1,1,55,0,0
241113,-100,4,1,1,55,0,1
249595,-100,4,1,1,55,0,0
249684,-100,4,1,1,55,0,1
255399,-100,4,1,1,55,0,0
258256,-100,4,1,1,55,0,1
269595,-100,4,1,1,55,0,0
269684,-100,4,1,1,55,0,1
278345,-100,4,2,1,10,0,0

[Colours]
Combo1 : 54,146,228
Combo2 : 214,206,107
Combo3 : 205,95,174

[HitObjects]
172,64,31113,6,0,L|176:164,1,85,8|8,0:3|0:3,0:0:0:0:
120,224,31827,2,0,L|124:312,1,85,8|8,0:3|0:3,0:0:0:0:
216,332,32542,6,0,P|295:316|404:328,1,170,12|8,0:3|0:0,0:0:0:0:
452,260,33613,1,0,0:0:0:0:
396,184,33970,1,0,0:0:0:0:
468,124,34327,2,0,L|472:40,1,85,0|8,0:0|0:0,0:0:0:0:
380,48,35042,2,0,P|340:64|272:56,1,85
204,60,35756,5,2,0:2:0:0:
116,32,36113,1,10,0:2:0:0:
68,112,36470,1,2,0:2:0:0:
132,180,36827,2,0,P|136:220|128:276,1,85,2|2,0:2|0:2,0:0:0:0:
224,276,37542,2,0,P|220:318|224:360,1,85,10|6,0:2|0:2,0:0:0:0:
316,356,38256,5,4,0:0:0:0:
396,312,38613,1,0,0:0:0:0:
484,340,38970,2,0,L|492:228,1,85,8|0,0:0|0:0,0:0:0:0:
464,164,39685,1,0,0:0:0:0:
376,192,40042,2,0,P|336:200|288:188,1,85,0|8,0:0|0:0,0:0:0:0:
236,116,40756,2,0,P|194:106|153:114,1,85
76,168,41470,5,0,0:0:0:0:
60,260,41827,1,8,0:0:0:0:
120,332,42185,1,0,0:0:0:0:
208,296,42542,2,0,L|312:292,1,85,8|0,0:3|0:0,0:0:0:0:
372,340,43256,2,0,L|476:344,1,85,8|8,0:3|0:0,0:0:0:0:
452,252,43970,6,0,P|436:168|456:76,1,170,4|8,0:0|0:0,0:0:0:0:
376,28,45042,1,0,0:0:0:0:
304,88,45399,1,0,0:0:0:0:
216,52,45756,2,0,L|132:56,2,85,0|8|0,0:0|0:0|0:0,0:0:0:0:
216,144,46827,5,0,0:0:0:0:
288,200,47185,2,0,L|372:196,1,85,2|10,0:2|0:2,0:0:0:0:
408,284,47899,2,0,L|324:288,1,85,2|2,0:2|0:2,0:0:0:0:
232,272,48613,2,0,P|196:264|144:272,2,85,2|10|2,0:2|0:2|0:2,0:0:0:0:
300,336,49685,6,0,P|288:264|320:156,1,170,4|0,0:0|0:0,0:0:0:0:
428,24,51113,2,0,P|335:36|248:12,1,170,4|4,0:0|0:0,0:0:0:0:
100,116,52542,1,4,0:0:0:0:
256,192,52899,12,0,55399,2:0:0:0:
44,120,67542,5,8,1:0:0:0:
120,64,67899,1,2,0:1:0:0:
204,108,68256,2,0,L|316:112,1,85,2|0,0:1|0:0,0:0:0:0:
368,60,68970,1,8,1:0:0:0:
440,120,69327,1,0,0:0:0:0:
396,200,69684,6,0,L|311:196,1,85,2|2,0:1|0:1,0:0:0:0:
304,292,70399,2,0,L|219:295,1,85,8|2,1:1|0:1,0:0:0:0:
128,316,71113,1,2,0:1:0:0:
76,240,71470,1,0,0:0:0:0:
136,168,71827,2,0,L|128:76,1,85,0|0,1:0|0:0,0:0:0:0:
212,44,72542,6,0,P|284:68|392:56,1,170,2|8,0:1|1:0,0:0:0:0:
468,36,73613,1,2,0:1:0:0:
456,128,73970,2,0,P|448:172|452:216,1,85,2|0,0:1|0:0,0:0:0:0:
360,236,74684,2,0,P|368:277|365:319,1,85,8|0,1:0|0:0,0:0:0:0:
272,344,75399,6,0,L|88:328,1,170,2|8,0:1|1:0,0:0:0:0:
48,252,76470,1,2,0:1:0:0:
132,208,76827,2,0,P|160:128|144:24,1,170,2|8,0:1|1:0,0:0:0:0:
244,32,77899,1,8,1:0:0:0:
292,112,78256,6,0,L|404:104,1,85,4|0,0:0|0:0,0:0:0:0:
436,180,78970,1,10,1:2:0:0:
360,236,79327,2,0,L|356:328,2,85
436,180,80399,2,0,L|444:72,1,85,10|0,1:2|0:0,0:0:0:0:
348,92,81113,6,0,P|356:48|348:-4,1,85
260,8,81827,1,10,1:2:0:0:
184,64,82184,1,0,0:0:0:0:
96,36,82542,2,0,L|4:24,2,85,0|0|10,0:0|0:0|1:2,0:0:0:0:
184,64,83613,1,10,1:2:0:0:
260,120,83970,6,0,P|340:100|460:132,1,170,6|10,0:1|1:2,0:0:0:0:
468,200,85042,1,2,0:1:0:0:
404,268,85399,2,0,P|360:276|312:264,1,85,2|2,0:1|0:1,0:0:0:0:
240,316,86113,2,0,P|196:308|148:320,1,85,10|2,1:2|0:1,0:0:0:0:
72,276,86827,6,0,L|56:92,1,170,2|10,0:1|1:2,0:0:0:0:
128,44,87899,1,2,0:1:0:0:
192,108,88256,2,0,L|360:96,2,127.5,4|0|12,0:1|1:0|1:1,0:0:0:0:
132,180,89684,6,0,P|148:224|132:292,1,85,4|0,0:0|0:0,0:0:0:0:
220,316,90399,2,0,L|332:308,1,85,10|0,1:2|0:0,0:0:0:0:
396,336,91113,2,0,L|508:328,2,85,0|0|10,0:0|0:0|1:2,0:0:0:0:
372,244,92184,1,0,0:0:0:0:
280,240,92542,6,0,P|192:256|104:236,1,170,0|10,0:0|1:2,0:0:0:0:
56,168,93613,1,0,0:0:0:0:
84,80,93970,2,0,P|171:63|260:84,1,170,0|10,0:0|1:2,0:0:0:0:
316,144,95042,1,10,1:2:0:0:
372,220,95399,6,0,L|368:312,1,85,2|0,0:2|0:0,0:0:0:0:
288,352,96113,1,2,0:2:0:0:
124,260,96827,2,0,L|128:168,1,85,2|0,0:2|0:0,0:0:0:0:
208,128,97541,1,2,0:2:0:0:
384,64,98256,6,0,P|372:104|380:156,1,85,8|0,0:3|0:0,0:0:0:0:
373,239,98970,2,0,P|333:227|281:235,1,85
200,210,99684,2,0,P|212:170|204:118,1,85,8|8,0:0|0:0,0:0:0:0:
211,34,100398,2,0,P|251:46|303:38,1,85,8|8,0:3|0:3,0:0:0:0:
384,64,101113,5,4,0:0:0:0:
424,148,101470,2,0,L|416:244,1,85,4|8,0:0|0:0,0:0:0:0:
368,312,102184,1,0,0:0:0:0:
280,284,102542,1,0,0:0:0:0:
200,332,102899,6,0,L|92:316,1,85,0|8,0:0|0:0,0:0:0:0:
68,240,103613,1,0,0:0:0:0:
104,152,103970,1,0,0:0:0:0:
80,60,104327,6,0,L|188:44,2,85,2|10|2,0:2|0:2|0:2,0:0:0:0:
104,152,105399,1,2,0:2:0:0:
184,200,105756,2,0,P|192:244|180:300,1,85,2|10,0:2|0:2,0:0:0:0:
264,336,106470,2,0,L|352:332,1,85,4|4,0:0|0:0,0:0:0:0:
432,292,107184,5,0,0:0:0:0:
480,212,107542,2,0,L|488:108,2,85,8|0|0,0:0|0:0|0:0,0:0:0:0:
388,208,108613,1,0,0:0:0:0:
320,272,108970,2,0,B|296:316|300:356|300:356|264:332|220:344,1,170,8|0,0:0|0:0,0:0:0:0:
128,360,110042,5,0,0:0:0:0:
60,292,110399,2,0,L|48:200,1,85,8|0,0:0|0:0,0:0:0:0:
124,148,111113,1,8,0:3:0:0:
91,59,111470,1,8,0:3:0:0:
179,26,111827,1,8,0:3:0:0:
212,115,112184,1,8,0:3:0:0:
124,148,112542,5,4,0:0:0:0:
120,240,112899,2,0,L|220:248,1,85,4|8,0:0|0:0,0:0:0:0:
284,200,113613,1,0,0:0:0:0:
344,272,113970,1,0,0:0:0:0:
432,244,114327,6,0,L|444:144,1,85,0|8,0:0|0:0,0:0:0:0:
500,88,115042,1,0,0:0:0:0:
432,24,115399,1,0,0:0:0:0:
372,96,115756,6,0,P|328:112|252:96,1,85,2|10,0:2|0:2,0:0:0:0:
208,68,116470,2,0,L|120:60,2,85,2|2|2,0:2|0:2|0:2,0:0:0:0:
216,160,117542,2,0,P|204:200|212:252,1,85
140,308,118256,6,0,P|220:288|308:316,1,170,4|0,0:0|0:0,0:0:0:0:
412,160,119684,2,0,B|372:129|366:88|366:88|323:112|270:82,1,170,8|4,0:0|0:0,0:0:0:0:
112,164,121113,1,4,0:0:0:0:
452,48,124684,6,0,L|444:160,1,85,8|2,1:0|0:1,0:0:0:0:
388,204,125399,2,0,P|347:193|305:201,1,85,2|0,0:1|0:0,0:0:0:0:
216,224,126113,1,8,1:0:0:0:
144,164,126470,1,0,0:0:0:0:
68,216,126827,6,0,L|72:304,1,85,2|2,0:1|0:1,0:0:0:0:
152,352,127542,1,8,1:1:0:0:
228,300,127899,1,2,0:1:0:0:
316,332,128256,2,0,P|396:312|500:332,1,170,2|0,0:1|1:0,0:0:0:0:
504,232,129327,1,0,0:0:0:0:
416,200,129684,6,0,L|408:16,2,170,2|8|2,0:1|1:0|0:1,0:0:0:0:
348,268,131470,1,0,0:0:0:0:
256,288,131827,1,8,1:0:0:0:
164,268,132184,1,0,0:0:0:0:
96,200,132542,6,0,L|104:16,2,170,2|8|2,0:1|1:0|0:1,0:0:0:0:
164,268,134327,1,0,0:0:0:0:
256,256,134684,2,0,L|259:340,1,85,8|0,1:0|0:0,0:0:0:0:
352,344,135399,6,0,L|452:328,2,85,6|2|8,0:1|0:1|1:0,0:0:0:0:
260,344,136470,1,2,0:1:0:0:
196,276,136827,2,0,P|112:284|12:264,1,170,2|8,0:1|1:0,0:0:0:0:
12,176,137899,1,0,0:0:0:0:
88,124,138256,6,0,L|84:36,1,85,2|2,0:1|0:1,0:0:0:0:
176,20,138970,2,0,L|180:108,1,85,8|2,1:1|0:1,0:0:0:0:
264,144,139684,2,0,P|316:148|376:128,1,85,2|0,0:1|0:0,0:0:0:0:
428,92,140399,1,0,1:0:0:0:
496,156,140756,1,0,0:0:0:0:
420,208,141113,6,0,B|403:257|416:312|416:312|365:293|332:308,1,170,2|8,0:1|1:0,0:0:0:0:
264,336,142184,1,2,0:1:0:0:
180,292,142542,2,0,L|68:284,2,85,2|0|8,0:1|0:0|1:0,0:0:0:0:
252,232,143613,1,0,0:0:0:0:
308,156,143970,6,0,P|400:164|488:136,1,170,2|8,0:1|1:0,0:0:0:0:
504,56,145042,1,2,0:1:0:0:
412,64,145399,2,0,P|320:64|236:24,1,170,2|8,0:1|1:0,0:0:0:0:
156,28,146470,1,8,1:0:0:0:
80,84,146827,6,0,L|88:168,1,85,4|0,0:0|0:0,0:0:0:0:
172,212,147542,2,0,L|168:296,1,85,10|0,1:2|0:0,0:0:0:0:
252,336,148256,2,0,L|352:328,2,85,0|0|10,0:0|0:0|1:2,0:0:0:0:
168,296,149327,1,0,0:0:0:0:
120,216,149684,6,0,P|76:220|20:200,2,85,0|0|10,0:0|0:0|1:2,0:0:0:0:
188,152,150756,1,0,0:0:0:0:
260,92,151113,2,0,L|372:104,1,85,0|0,0:0|0:0,0:0:0:0:
372,188,151827,2,0,L|460:184,1,85,10|10,1:2|1:2,0:0:0:0:
440,276,152542,6,0,L|240:284,1,170,6|10,1:0|1:2,0:0:0:0:
192,332,153613,1,2,0:1:0:0:
120,276,153970,2,0,P|136:200|108:92,1,170,2|10,0:1|1:2,0:0:0:0:
52,44,155042,1,2,0:1:0:0:
144,28,155399,6,0,L|240:24,1,85,2|2,0:1|0:1,0:0:0:0:
292,92,156113,2,0,L|388:88,1,85,10|2,1:2|0:1,0:0:0:0:
428,164,156827,2,0,P|412:224|420:304,2,127.5,4|0|12,0:1|1:0|1:1,0:0:0:0:
376,88,158256,6,0,L|284:92,1,85,4|0,0:0|0:0,0:0:0:0:
212,144,158970,1,10,1:2:0:0:
132,96,159327,1,0,0:0:0:0:
60,156,159684,2,0,L|68:248,1,85,0|0,0:0|0:0,0:0:0:0:
136,304,160399,1,10,1:2:0:0:
220,264,160756,1,0,0:0:0:0:
300,316,161113,6,0,L|408:320,2,85,0|0|10,0:0|0:0|1:2,0:0:0:0:
220,264,162184,1,0,0:0:0:0:
160,192,162542,2,0,P|152:152|156:104,2,85,0|0|10,0:0|0:0|1:2,0:0:0:0:
220,264,163613,1,10,1:2:0:0:
300,316,163970,6,0,L|392:308,1,85,2|0,0:2|0:0,0:0:0:0:
448,240,164684,1,2,0:2:0:0:
444,52,165399,2,0,L|352:60,1,85,2|0,0:2|0:0,0:0:0:0:
296,128,166113,1,2,0:2:0:0:
448,240,166827,6,0,L|444:324,1,85,8|0,0:3|0:0,0:0:0:0:
356,352,167542,2,0,L|359:267,1,85,0|0,0:0|0:0,0:0:0:0:
300,196,168256,2,0,P|260:184|192:200,1,85,8|8,0:0|0:0,0:0:0:0:
168,268,168970,2,0,P|208:280|276:264,1,85,8|8,0:3|0:3,0:0:0:0:
300,196,169684,5,4,0:0:0:0:
360,124,170042,2,0,L|352:32,1,85,4|8,0:0|0:0,0:0:0:0:
260,32,170756,1,0,0:0:0:0:
176,72,171113,1,0,0:0:0:0:
84,48,171470,6,0,L|76:140,1,85,0|8,0:0|0:0,0:0:0:0:
120,216,172184,1,0,0:0:0:0:
72,296,172542,1,0,0:0:0:0:
144,352,172899,6,0,L|228:343,2,85,2|10|2,0:2|0:2|0:2,0:0:0:0:
72,296,173970,1,2,0:2:0:0:
120,216,174327,2,0,P|108:176|116:128,1,85,2|10,0:2|0:2,0:0:0:0:
180,68,175042,1,4,0:0:0:0:
272,92,175399,5,4,0:0:0:0:
364,72,175756,1,0,0:0:0:0:
448,112,176113,2,0,L|452:200,2,85,8|0|0,0:0|0:0|0:0,0:0:0:0:
364,72,177184,1,0,0:0:0:0:
340,164,177542,2,0,P|252:179|168:160,1,170,8|0,0:0|0:0,0:0:0:0:
88,124,178613,5,0,0:0:0:0:
64,216,178970,2,0,L|72:324,1,85,8|0,0:0|0:0,0:0:0:0:
152,348,179684,1,8,0:3:0:0:
236,304,180042,1,8,0:3:0:0:
320,348,180399,1,8,0:3:0:0:
400,300,180756,1,8,0:3:0:0:
380,208,181113,5,4,0:0:0:0:
288,204,181470,2,0,L|280:112,1,85,4|8,0:0|0:0,0:0:0:0:
200,76,182184,2,0,L|192:168,1,85,0|0,0:0|0:0,0:0:0:0:
148,244,182899,6,0,P|100:248|36:216,2,85,0|8|0,0:0|0:0|0:0,0:0:0:0:
236,280,183970,1,0,0:0:0:0:
324,252,184327,1,2,0:2:0:0:
396,312,184684,2,0,L|504:296,2,85,10|2|2,0:2|0:2|0:2,0:0:0:0:
324,252,185756,1,2,0:2:0:0:
236,280,186113,2,0,P|196:272|132:280,1,85,12|0,0:0|0:0,0:0:0:0:
76,328,186827,6,0,P|92:244|72:152,1,170,4|0,0:0|0:0,0:0:0:0:
264,140,188256,2,0,L|448:128,1,170,8|4,0:0|0:0,0:0:0:0:
412,316,189684,1,4,0:0:0:0:
256,192,190042,12,0,192542,2:0:0:0:
256,192,227899,12,2,231202,2:0:0:0:
136,304,235399,6,0,L|124:132,1,170,8|8,0:0|0:0,0:0:0:0:
296,64,236827,2,0,P|342:70|380:60,1,85,8|8,0:3|0:3,0:0:0:0:
464,100,237542,2,0,P|436:140|436:204,1,85,8|8,0:3|0:3,0:0:0:0:
428,268,238256,1,12,0:3:0:0:
480,344,238613,1,12,0:3:0:0:
128,224,240042,6,0,L|116:132,1,85,8|8,0:3|0:3,0:0:0:0:
204,108,240756,1,8,0:0:0:0:
240,196,241113,6,0,L|228:288,1,85,4|4,0:0|0:0,0:0:0:0:
288,352,241827,1,8,0:0:0:0:
368,304,242184,1,0,0:0:0:0:
460,324,242542,2,0,P|472:288|468:236,2,85,8|0|0,0:3|0:0|0:0,0:0:0:0:
368,304,243613,1,12,0:3:0:0:
288,352,243970,5,12,0:3:0:0:
200,320,244327,2,0,L|108:316,1,85,0|8,0:0|0:0,0:0:0:0:
28,352,245042,1,0,0:0:0:0:
44,260,245399,6,0,P|68:176|60:92,1,170,8|8,0:3|0:0,0:0:0:0:
124,24,246470,1,0,0:0:0:0:
172,104,246827,2,0,L|368:96,1,170,8|8,0:3|0:0,0:0:0:0:
432,124,247899,1,0,0:0:0:0:
400,212,248256,6,0,L|308:208,1,85,8|8,0:3|0:3,0:0:0:0:
308,300,248970,1,8,0:3:0:0:
216,284,249327,1,8,0:3:0:0:
144,340,249684,6,0,P|100:328|52:336,1,85,12|12,0:3|0:3,0:0:0:0:
60,240,250399,1,8,0:0:0:0:
116,164,250756,2,0,L|112:80,2,85,0|8|0,0:0|0:3|0:0,0:0:0:0:
204,200,251827,5,8,0:0:0:0:
252,120,252184,1,0,0:0:0:0:
344,144,252542,2,0,B|396:152|428:136|428:136|424:192|448:232,1,170,8|8,0:3|0:0,0:0:0:0:
464,308,253613,1,0,0:0:0:0:
376,340,253970,6,0,P|328:332|264:344,1,85,8|8,0:3|0:3,0:0:0:0:
200,320,254684,2,0,P|152:328|88:316,1,85,8|8,0:3|0:3,0:0:0:0:
80,236,255399,6,0,L|72:60,1,170,4|0,0:0|0:0,0:0:0:0:
260,68,256827,2,0,P|328:72|396:56,2,127.5,4|12|12,0:0|0:0|0:0,0:0:0:0:
172,36,258256,5,12,0:3:0:0:
180,128,258613,2,0,L|192:228,1,85,12|8,0:3|0:0,0:0:0:0:
176,304,259327,1,0,0:0:0:0:
260,344,259684,1,0,0:0:0:0:
324,276,260042,6,0,P|368:280|408:272,1,85,0|8,0:0|0:0,0:0:0:0:
480,212,260756,1,0,0:0:0:0:
440,128,261113,1,0,0:0:0:0:
464,36,261470,6,0,L|380:28,2,85,2|10|2,0:2|0:2|0:2,0:0:0:0:
440,128,262542,1,2,0:2:0:0:
372,192,262899,2,0,L|376:288,1,85,2|10,0:2|0:2,0:0:0:0:
292,320,263613,2,0,L|288:235,1,85,12|12,0:3|0:3,0:0:0:0:
200,204,264327,5,0,0:0:0:0:
136,272,264684,2,0,P|96:268|52:280,2,85,8|0|0,0:0|0:0|0:0,0:0:0:0:
200,340,265756,1,0,0:0:0:0:
288,304,266113,2,0,B|341:296|380:320|380:320|408:284|464:284,1,170,8|0,0:0|0:0,0:0:0:0:
468,196,267184,5,0,0:0:0:0:
392,144,267542,2,0,L|308:132,1,85,8|0,0:0|0:0,0:0:0:0:
244,64,268256,1,8,0:3:0:0:
160,108,268613,1,8,0:3:0:0:
172,200,268970,1,8,0:3:0:0:
264,216,269327,1,8,0:3:0:0:
308,132,269684,6,0,P|352:136|400:124,1,85,12|12,0:3|0:3,0:0:0:0:
456,60,270399,1,8,0:0:0:0:
492,148,270756,1,0,0:0:0:0:
464,236,271113,1,0,0:0:0:0:
392,292,271470,6,0,L|304:284,2,85,0|8|0,0:0|0:0|0:0,0:0:0:0:
464,236,272542,1,0,0:0:0:0:
400,168,272899,2,0,L|408:76,2,85,2|10|2,0:2|0:2|0:2,0:0:0:0:
324,220,273970,1,2,0:2:0:0:
256,156,274327,2,0,P|216:164|171:159,1,85,2|12,0:2|0:0,0:0:0:0:
96,108,275042,1,0,0:0:0:0:
76,200,275399,6,0,B|92:248|82:305|82:305|120:296|148:304,1,170,4|0,0:0|0:0,0:0:0:0:
288,184,276827,2,0,B|272:136|282:79|282:79|244:88|216:80,1,170,8|12,0:0|0:3,0:0:0:0:
76,200,278256,1,4,0:0:0:0:
256,192,278434,12,0,279863,0:0:0:0:
