osu file format v14

[General]
AudioFilename: 03. Jillian (I'd Give My Heart).mp3
AudioLeadIn: 0
PreviewTime: 101113
Countdown: 0
SampleSet: Normal
StackLeniency: 0.8
Mode: 0
LetterboxInBreaks: 0
WidescreenStoryboard: 0

[Editor]
Bookmarks: 55399,78256,101113,123970,146827,169684,192542,232542,258256
DistanceSpacing: 1
BeatDivisor: 8
GridSize: 4
TimelineZoom: 1.7

[Metadata]
Title:Jillian (I'd Give My Heart)
TitleUnicode:Jillian (I'd Give My Heart)
Artist:Within Temptation
ArtistUnicode:Within Temptation
Creator:ryuu
Version:Kyubey's Hard
Source:
Tags:the silent force symphonic gothic metal kyubey sieg
BeatmapID:647361
BeatmapSetID:273253

[Difficulty]
HPDrainRate:5
CircleSize:4
OverallDifficulty:5.5
ApproachRate:7.5
SliderMultiplier:2.3
SliderTickRate:1

[Events]
//Background and Video events
0,0,"ggbg.jpg",0,0
//Break Periods
2,55599,64574
2,192742,227074
//Storyboard Layer 0 (Background)
//Storyboard Layer 1 (Fail)
//Storyboard Layer 2 (Pass)
//Storyboard Layer 3 (Foreground)
//Storyboard Sound Samples

[TimingPoints]
29685,714.285714285714,4,1,1,20,1,0
31470,-100,4,1,1,25,0,0
31649,-100,4,1,1,30,0,0
32185,-100,4,1,1,35,0,0
32542,-100,4,1,1,40,0,0
52631,-100,4,1,1,10,0,0
65399,-100,4,2,1,35,0,0
67184,-100,4,2,1,40,0,0
95399,-100,4,1,1,40,0,0
101113,-100,4,1,1,55,0,1
112452,-100,4,1,1,55,0,0
112542,-100,4,1,1,55,0,1
122184,-100,4,1,1,55,0,0
123970,-100,4,2,1,40,0,0
163970,-100,4,1,1,40,0,0
169684,-100,4,1,1,55,0,1
181024,-100,4,1,1,55,0,0
181113,-100,4,1,1,55,0,1
189774,-100,4,1,1,10,0,0
232542,-100,4,1,1,30,0,0
235399,-100,4,1,1,40,0,0
236827,-100,4,1,1,50,0,0
238256,-100,4,1,1,50,0,1
238613,-100,4,1,1,55,0,0
241113,-100,4,1,1,55,0,1
249595,-100,4,1,1,55,0,0
249684,-100,4,1,1,55,0,1
255399,-100,4,1,1,55,0,0
258256,-100,4,1,1,55,0,1
269595,-100,4,1,1,55,0,0
269684,-100,4,1,1,55,0,1
278345,-100,4,2,1,10,0,0

[Colours]
Combo1 : 54,146,228
Combo2 : 214,206,107
Combo3 : 205,95,174

[HitObjects]
376,228,30935,6,0,L|404:240,2,28.75,8|0|8,0:3|0:0|0:3,0:0:0:0:
296,196,31292,2,0,P|260:196|220:200,1,57.5,8|8,0:3|0:3,0:0:0:0:
160,232,31649,2,0,L|112:244,2,28.75,8|0|8,0:3|0:0|0:3,0:0:0:0:
238,197,32006,2,0,L|250:113,2,57.5,8|8|8,0:3|0:3|0:3,0:0:0:0:
232,284,32542,6,0,P|288:296|360:280,1,115,12|6,0:3|0:0,0:0:0:0:
480,228,33256,1,8,0:0:0:0:
352,148,33613,2,0,P|296:136|224:152,1,115,0|0,0:0|0:0,0:0:0:0:
180,284,34327,1,0,0:0:0:0:
36,240,34685,1,8,0:0:0:0:
84,100,35042,1,0,0:0:0:0:
228,144,35399,6,0,P|288:148|372:128,1,115,0|2,0:0|0:2,0:0:0:0:
460,48,36113,2,0,L|316:56,1,115,10|2,0:2|0:2,0:0:0:0:
274,33,36649,1,0,0:0:0:0:
208,68,36827,2,0,P|200:120|224:200,1,115,2|2,0:2|0:2,0:0:0:0:
292,308,37542,1,10,0:2:0:0:
360,176,37899,1,6,0:2:0:0:
136,320,38256,5,4,0:0:0:0:
292,308,38613,2,0,P|320:256|300:164,1,115,0|8,0:0|0:0,0:0:0:0:
232,80,39327,1,0,0:0:0:0:
168,216,39685,1,0,0:0:0:0:
168,216,40042,2,0,P|112:208|44:220,1,115,0|8,0:0|0:0,0:0:0:0:
108,356,40756,1,0,0:0:0:0:
248,300,41113,5,0,0:0:0:0:
388,356,41470,2,0,P|456:352|500:304,1,115,0|8,0:0|0:0,0:0:0:0:
360,256,42185,1,0,0:0:0:0:
320,320,42363,6,0,L|312:356,2,28.75,8|8|8,0:3|0:3|0:3,0:0:0:0:
360,256,42720,1,0,0:0:0:0:
336,184,42899,1,0,0:0:0:0:
372,112,43077,6,0,L|388:80,2,28.75,8|8|8,0:3|0:3|0:3,0:0:0:0:
336,184,43435,2,0,P|317:206|272:228,1,57.5
212,232,43792,1,8,0:0:0:0:
136,204,43970,5,4,0:0:0:0:
48,68,44327,2,0,L|184:52,1,115,4|8,0:0|0:0,0:0:0:0:
300,4,45042,1,0,0:0:0:0:
284,192,45756,2,0,L|169:205,1,115,0|8,0:0|0:0,0:0:0:0:
52,300,46470,2,0,P|85:318|128:324,1,57.5
180,332,46827,5,0,0:0:0:0:
328,300,47185,2,0,P|384:296|456:308,1,115,2|10,0:2|0:2,0:0:0:0:
296,204,47899,2,0,L|208:192,2,57.5,2|0|2,0:2|0:0|0:2,0:0:0:0:
446,203,48613,1,2,0:2:0:0:
476,56,48970,1,10,0:2:0:0:
272,104,49327,1,6,0:2:0:0:
184,56,49685,6,0,B|164:108|184:168|204:216|184:284,1,230,4|0,0:0|0:0,0:0:0:0:
332,340,50756,1,8,0:3:0:0:
408,312,50935,1,0,0:0:0:0:
484,284,51113,2,0,B|504:216|484:168|464:108|484:56,1,230,4|4,0:0|0:0,0:0:0:0:
256,192,52542,1,4,0:0:0:0:
256,192,52631,12,0,55399,2:0:0:0:
360,72,65399,6,0,P|304:160|384:292,1,230,0|8,0:0|0:1,0:0:0:0:
200,120,66827,5,6,0:1:0:0:
172,232,67184,2,0,P|188:268|208:292,1,57.5,2|0,0:1|0:0,0:0:0:0:
240,320,67542,1,8,1:0:0:0:
352,300,67899,2,0,P|384:292|432:296,1,57.5,2|0,0:1|0:0,0:0:0:0:
464,308,68256,1,2,0:1:0:0:
428,200,68613,1,0,0:0:0:0:
456,88,68970,1,8,1:0:0:0:
384,0,69327,1,0,0:0:0:0:
296,76,69684,6,0,P|288:132|304:204,1,115,2|2,0:1|0:1,0:0:0:0:
256,228,70220,1,0,0:0:0:0:
200,228,70399,1,8,1:1:0:0:
120,148,70756,1,2,0:1:0:0:
120,148,71113,1,2,0:1:0:0:
232,116,71470,1,0,0:0:0:0:
200,228,71827,1,0,1:0:0:0:
120,148,72184,1,0,0:0:0:0:
88,260,72542,6,0,P|124:320|192:344,1,115,2|0,0:1|0:0,0:0:0:0:
212,368,73077,2,0,L|320:348,1,57.5,0|8,0:0|1:0,0:0:0:0:
368,300,73613,1,2,0:1:0:0:
368,300,73970,1,2,0:1:0:0:
320,196,74327,2,0,P|312:128|328:64,1,115,0|8,0:0|1:0,0:0:0:0:
436,80,75042,1,0,0:0:0:0:
324,56,75399,6,0,P|272:56|200:48,1,115,2|2,0:1|0:1,0:0:0:0:
156,28,75934,1,0,0:0:0:0:
100,48,76113,2,0,B|84:104|84:104|100:180,1,115,8|2,1:0|0:1,0:0:0:0:
152,260,76827,1,2,0:1:0:0:
260,216,77184,2,0,P|290:211|328:220,1,57.5
364,248,77542,1,8,1:0:0:0:
244,328,77899,1,8,1:0:0:0:
188,344,78077,1,8,1:0:0:0:
132,364,78256,6,0,P|102:362|72:356,1,57.5,4|0,0:0|0:0,0:0:0:0:
44,276,78613,2,0,P|73:277|104:284,2,57.5,0|0|10,0:0|0:0|1:2,0:0:0:0:
212,204,79327,2,0,P|240:208|280:208,1,57.5,0|0,0:0|0:0,0:0:0:0:
352,188,79684,2,0,P|381:188|416:192,2,57.5,0|0|0,0:0|0:0|0:0,0:0:0:0:
208,116,80399,2,0,P|172:124|144:148,2,57.5,10|0|0,1:2|0:0|0:0,0:0:0:0:
308,256,81113,6,0,L|328:332,1,57.5,0|0,0:0|0:0,0:0:0:0:
400,272,81470,2,0,L|414:216,2,57.5,0|0|10,0:0|0:0|1:2,0:0:0:0:
320,120,82184,2,0,L|305:64,1,57.5,0|0,0:0|0:0,0:0:0:0:
220,60,82542,2,0,L|234:115,2,57.5,0|0|0,0:0|0:0|0:0,0:0:0:0:
56,60,83256,2,0,L|41:115,2,57.5,10|0|10,1:2|0:0|1:2,0:0:0:0:
124,220,83970,5,6,0:1:0:0:
276,304,84327,1,2,0:1:0:0:
416,200,84684,2,0,B|428:144|428:144|408:64,1,115,10|2,1:2|0:1,0:0:0:0:
480,256,85399,1,2,0:1:0:0:
416,88,85756,1,2,0:1:0:0:
312,228,86113,1,10,1:2:0:0:
408,184,86470,1,2,0:1:0:0:
240,152,86827,6,0,P|216:200|220:272,1,115,2|2,0:1|0:1,0:0:0:0:
316,120,87542,2,0,L|156:128,1,115,10|2,1:2|0:1,0:0:0:0:
216,260,88256,6,0,P|244:264|296:264,1,57.5,4|12,0:1|0:1,0:0:0:0:
348,224,88613,1,2,0:1:0:0:
348,312,88792,1,4,0:0:0:0:
432,264,88970,6,0,P|440:232|424:184,1,57.5,12|0,0:0|1:0,0:0:0:0:
348,224,89327,1,12,1:1:0:0:
348,312,89506,1,8,1:1:0:0:
272,356,89684,6,0,P|246:349|184:352,1,57.5,4|0,0:0|0:0,0:0:0:0:
132,328,90042,2,0,L|104:252,2,57.5,0|0|10,0:0|0:0|1:2,0:0:0:0:
252,204,90756,2,0,L|280:128,1,57.5,0|0,0:0|0:0,0:0:0:0:
336,92,91113,2,0,P|352:124|352:180,2,57.5,0|0|0,0:0|0:0|0:0,0:0:0:0:
168,80,91827,2,0,L|104:88,2,57.5,10|0|0,1:2|0:0|0:0,0:0:0:0:
100,240,92542,6,0,L|157:232,1,57.5,0|0,0:0|0:0,0:0:0:0:
236,200,92899,2,0,L|293:207,2,57.5,0|0|10,0:0|0:0|1:2,0:0:0:0:
440,244,93613,2,0,P|436:208|424:176,1,57.5,0|0,0:0|0:0,0:0:0:0:
360,236,93970,2,0,P|356:268|364:300,2,57.5
388,72,94684,2,0,P|367:51|328:36,1,57.5,10|0,1:2|0:0,0:0:0:0:
256,40,95042,1,10,1:2:0:0:
112,136,95399,5,2,0:2:0:0:
124,220,95577,1,0,0:0:0:0:
244,96,95934,6,0,L|232:168,1,57.5,0|2,0:0|0:2,0:0:0:0:
216,236,96292,1,0,0:0:0:0:
116,52,96649,6,0,L|128:124,1,57.5,0|2,0:0|0:2,0:0:0:0:
144,192,97007,1,0,0:0:0:0:
248,12,97363,6,0,L|236:84,1,57.5,0|2,0:0|0:2,0:0:0:0:
220,152,97721,1,0,0:0:0:0:
320,288,98077,5,8,0:3:0:0:
320,288,98167,1,8,0:3:0:0:
320,288,98256,1,8,0:3:0:0:
356,120,98613,1,0,0:0:0:0:
188,88,98970,1,0,0:0:0:0:
152,256,99327,1,0,0:0:0:0:
320,288,99684,1,8,0:0:0:0:
320,288,100042,1,8,0:0:0:0:
248,356,100220,6,0,L|216:376,2,28.75,8|8|8,0:3|0:3|0:3,0:0:0:0:
320,288,100577,2,0,P|325:252|320:216,1,57.5,8|8,0:3|0:3,0:3:0:0:
312,148,100934,1,8,0:3:0:0:
252,88,101113,5,4,0:0:0:0:
132,184,101470,2,0,P|132:240|168:312,1,115,4|8,0:0|0:0,0:0:0:0:
320,288,102184,1,0,0:0:0:0:
320,288,102899,2,0,P|268:272|204:212,1,115,0|8,0:0|0:0,0:0:0:0:
112,116,103613,1,0,0:0:0:0:
64,272,103970,5,0,0:0:0:0:
221,235,104327,1,2,0:2:0:0:
318,236,104684,1,10,0:2:0:0:
380,160,105042,1,2,0:2:0:0:
360,64,105399,1,2,0:2:0:0:
272,21,105756,1,2,0:2:0:0:
183,62,106113,1,10,0:2:0:0:
161,157,106470,1,4,0:0:0:0:
272,136,106827,5,4,0:0:0:0:
116,96,107184,2,0,B|60:84|60:84|-4:96,1,115,0|8,0:0|0:0,0:0:0:0:
104,220,107899,2,0,B|160:232|160:232|224:220,1,115
312,92,108613,1,0,0:0:0:0:
416,216,108970,2,0,P|428:272|408:344,1,115,8|0,0:0|0:0,0:0:0:0:
336,272,109684,5,0,0:0:0:0:
320,180,110042,1,0,0:0:0:0:
304,88,110399,1,8,0:0:0:0:
388,120,110756,1,0,0:0:0:0:
320,180,110934,6,0,L|288:208,2,28.75,8|8|8,0:3|0:3|0:3,0:0:0:0:
388,120,111292,1,8,0:3:0:0:
304,88,111470,1,8,0:3:0:0:
220,56,111649,6,0,L|192:16,2,28.75,8|8|8,0:3|0:3|0:3,0:0:0:0:
236,144,112006,2,0,P|232:173|216:208,1,57.5,8|8,0:3|0:3,0:0:0:0:
156,256,112363,1,8,0:3:0:0:
222,199,112542,6,0,P|282:195|342:207,1,115,4|4,0:0|0:0,0:0:0:0:
440,324,113256,1,8,0:0:0:0:
492,172,113613,1,0,0:0:0:0:
208,20,114327,2,0,P|196:76|212:136,1,115,0|8,0:0|0:0,0:0:0:0:
360,72,115042,1,0,0:0:0:0:
208,20,115399,5,0,0:0:0:0:
104,140,115756,1,2,0:2:0:0:
164,212,116113,1,10,0:2:0:0:
104,284,116470,1,2,0:2:0:0:
164,356,116827,1,2,0:2:0:0:
224,284,117184,1,2,0:2:0:0:
312,256,117542,1,8,0:0:0:0:
400,284,117899,1,0,0:0:0:0:
460,356,118256,6,0,B|516:288|464:208|464:208|416:196|388:164|384:112|404:92|404:92|424:128,1,345,4|0,0:0|0:0,0:0:0:0:
408,212,119684,2,0,B|340:236|244:204|244:204|316:248,1,230,8|4,0:0|0:0,0:0:0:0:
297,236,121113,1,4,0:0:0:0:
256,192,121202,12,6,123970,0:1:0:0:
376,216,124327,6,0,L|316:212,1,57.5,0|2,0:0|0:1,0:0:0:0:
272,244,124684,2,0,P|212:236|136:248,1,115,8|2,1:0|0:1,0:0:0:0:
56,296,125399,2,0,B|40:240|40:240|56:180,1,115,2|0,0:1|0:0,0:0:0:0:
148,116,126113,1,8,1:0:0:0:
32,100,126470,1,0,0:0:0:0:
140,200,126827,6,0,P|192:208|272:196,1,115,2|2,0:1|0:1,0:0:0:0:
300,168,127363,2,0,P|330:163|368:168,1,57.5,0|8,0:0|1:0,0:0:0:0:
332,280,127899,1,2,0:1:0:0:
300,168,128256,2,0,L|312:36,1,115,2|0,0:1|0:0,0:0:0:0:
384,140,128970,2,0,L|394:254,1,115,0|0,1:0|0:0,0:0:0:0:
344,356,129684,6,0,P|280:344|208:356,1,115,2|0,0:1|0:0,0:0:0:0:
192,308,130220,2,0,L|142:248,1,57.5,0|8,0:0|1:0,0:0:0:0:
164,380,130756,1,2,0:1:0:0:
264,284,131113,2,0,L|180:184,1,115,2|0,0:1|0:0,0:0:0:0:
88,144,131827,1,8,1:0:0:0:
192,96,132184,1,0,0:0:0:0:
80,64,132542,6,0,P|30:86|16:172,1,115,2|2,0:1|0:1,0:0:0:0:
46,182,133077,1,0,0:0:0:0:
88,144,133256,1,8,1:0:0:0:
192,96,133613,1,2,0:1:0:0:
304,80,133970,2,0,P|362:81|440:104,1,115,2|0,0:1|0:0,0:0:0:0:
400,136,134506,1,0,0:0:0:0:
388,184,134684,2,0,P|384:216|392:260,2,57.5,8|0|0,1:0|0:0|0:0,0:0:0:0:
468,352,135399,6,0,P|405:352|324:340,1,115,6|2,0:1|0:1,0:0:0:0:
296,328,135934,2,0,L|220:336,1,57.5,0|8,0:0|1:0,0:0:0:0:
128,368,136470,1,2,0:1:0:0:
64,272,136827,2,0,L|48:136,1,115,2|0,0:1|0:0,0:0:0:0:
96,52,137542,1,8,1:0:0:0:
96,52,137899,1,0,0:0:0:0:
172,140,138256,6,0,P|224:148|316:128,1,115,2|2,0:1|0:1,0:0:0:0:
320,92,138792,2,0,P|306:55|288:32,1,57.5,0|8,0:0|1:0,0:0:0:0:
232,172,139327,1,2,0:1:0:0:
308,260,139684,2,0,L|448:272,1,115,2|0,0:1|0:0,0:0:0:0:
340,352,140399,2,0,L|225:361,1,115,0|0,1:0|0:0,0:0:0:0:
220,248,141113,6,0,P|246:190|332:177,1,115,2|0,0:1|0:0,0:0:0:0:
348,164,141649,2,0,P|356:128|328:80,1,57.5,0|8,0:0|1:0,0:0:0:0:
248,60,142184,1,2,0:1:0:0:
171,149,142542,2,0,P|182:205|220:247,1,115,2|0,0:1|0:0,0:0:0:0:
312,316,143256,2,0,P|332:260|308:173,1,115,8|0,1:0|0:0,0:0:0:0:
172,328,143970,5,2,0:1:0:0:
60,209,144327,2,0,L|24:144,2,57.5,2|0|8,0:1|0:0|1:1,0:0:0:0:
218,174,145042,1,2,0:1:0:0:
152,240,145399,2,0,P|144:168|156:104,1,115,2|0,0:1|0:0,0:0:0:0:
168,72,145934,1,0,0:0:0:0:
152,16,146113,1,8,1:0:0:0:
44,140,146470,1,8,1:0:0:0:
56,212,146649,1,8,1:0:0:0:
72,284,146827,6,0,P|102:290|160:292,1,57.5,4|0,0:0|0:0,0:0:0:0:
212,268,147184,2,0,L|228:344,2,57.5,0|0|10,0:0|0:0|1:2,0:0:0:0:
212,96,147899,2,0,L|223:39,1,57.5,0|0,0:0|0:0,0:0:0:0:
292,96,148256,2,0,P|284:132|248:172,2,57.5,0|0|0,0:0|0:0|0:0,0:0:0:0:
440,40,148970,2,0,L|528:60,2,57.5,10|0|0,1:2|0:0|0:0,0:0:0:0:
424,212,149684,6,0,P|421:246|460:296,1,57.5,0|0,0:0|0:0,0:0:0:0:
384,340,150042,2,0,L|304:328,2,57.5,0|0|10,0:0|0:0|1:2,0:0:0:0:
232,260,150756,2,0,L|175:268,1,57.5,0|0,0:0|0:0,0:0:0:0:
88,276,151113,2,0,P|64:252|52:192,2,57.5,0|0|0,0:0|0:0|0:0,0:0:0:0:
68,132,151827,2,0,P|36:132|-4:148,2,57.5,10|0|10,1:2|0:0|1:2,0:0:0:0:
244,160,152542,6,0,L|380:144,1,115,6|0,1:0|0:0,0:0:0:0:
204,68,153256,1,10,1:2:0:0:
312,204,153613,1,2,0:1:0:0:
372,44,153970,2,0,P|320:24|228:24,1,115,2|2,0:1|0:1,0:0:0:0:
148,152,154684,1,10,1:2:0:0:
312,204,155042,1,2,0:1:0:0:
144,248,155399,6,0,P|96:268|64:336,1,115,2|2,0:1|0:1,0:0:0:0:
231,283,156113,2,0,P|238:231|196:169,1,115,10|2,1:2|0:1,0:0:0:0:
157,342,156827,2,0,P|179:362|224:376,1,57.5,4|12,0:1|0:1,0:0:0:0:
288,348,157184,1,2,0:1:0:0:
312,264,157363,1,4,0:0:0:0:
168,220,157542,6,0,P|144:264|142:291,1,57.5,12|0,0:0|1:0,0:0:0:0:
204,372,157899,1,12,1:1:0:0:
288,348,158077,1,8,1:1:0:0:
312,264,158256,6,0,P|316:234|312:188,1,57.5,4|0,0:0|0:0,0:0:0:0:
232,192,158613,2,0,P|227:162|232:116,2,57.5,0|0|10,0:0|0:0|1:2,0:0:0:0:
400,148,159327,2,0,L|492:132,1,57.5,0|0,0:0|0:0,0:0:0:0:
404,68,159684,2,0,L|347:58,2,57.5,0|0|0,0:0|0:0|0:0,0:0:0:0:
404,208,160399,2,0,L|347:217,2,57.5,10|0|0,1:2|0:0|0:0,0:0:0:0:
296,332,161113,6,0,P|264:320|216:320,1,57.5,0|0,0:0|0:0,0:0:0:0:
156,336,161470,2,0,L|200:380,2,57.5,0|0|10,0:0|0:0|1:2,0:0:0:0:
180,160,162184,2,0,P|200:140|248:124,1,57.5,0|0,0:0|0:0,0:0:0:0:
252,212,162542,2,0,P|232:232|184:248,2,57.5,0|0|0,0:0|0:0|0:0,0:0:0:0:
420,196,163256,2,0,P|443:199|484:220,2,57.5,10|0|10,1:2|0:0|1:2,0:0:0:0:
268,280,163970,5,2,0:2:0:0:
188,248,164149,1,0,0:0:0:0:
348,340,164506,6,0,L|252:356,1,57.5,0|2,0:0|0:2,0:0:0:0:
200,364,164863,1,0,0:0:0:0:
392,264,165220,6,0,L|296:248,1,57.5,0|2,0:0|0:2,0:0:0:0:
244,240,165577,1,0,0:0:0:0:
456,328,165934,6,0,L|360:344,1,57.5,0|2,0:0|0:2,0:0:0:0:
308,352,166291,1,0,0:0:0:0:
148,260,166649,5,8,0:3:0:0:
148,260,166738,1,8,0:3:0:0:
148,260,166827,1,8,0:3:0:0:
308,172,167184,1,0,0:0:0:0:
148,172,167542,1,0,0:0:0:0:
308,260,167899,1,0,0:0:0:0:
148,260,168256,1,8,0:0:0:0:
148,260,168613,1,8,0:0:0:0:
68,320,168792,6,0,L|36:348,2,28.75,8|8|8,0:3|0:3|0:3,0:0:0:0:
148,260,169149,2,0,P|182:255|224:260,1,57.5,8|8,0:3|0:3,0:0:0:0:
296,264,169506,1,8,0:3:0:0:
372,208,169684,5,4,0:0:0:0:
244,124,170042,2,0,P|224:68|224:8,1,115,4|8,0:0|0:0,0:0:0:0:
136,148,170756,1,0,0:0:0:0:
388,156,171470,2,0,P|441:176|490:218,1,115,0|8,0:0|0:0,0:0:0:0:
368,308,172184,1,0,0:0:0:0:
204,284,172542,5,0,0:0:0:0:
164,128,172899,1,2,0:2:0:0:
224,60,173256,1,10,0:2:0:0:
296,116,173613,1,2,0:2:0:0:
236,184,173970,1,2,0:2:0:0:
296,116,174327,1,2,0:2:0:0:
368,176,174684,1,10,0:2:0:0:
308,244,175041,1,4,0:0:0:0:
296,116,175399,5,4,0:0:0:0:
384,252,175756,2,0,P|381:311|360:376,1,115,0|8,0:0|0:0,0:0:0:0:
216,304,176470,1,0,0:0:0:0:
124,172,176827,2,0,P|116:112|80:36,1,115,0|0,0:0|0:0,0:0:0:0:
60,220,177542,1,8,0:0:0:0:
196,132,177899,1,0,0:0:0:0:
128,276,178256,5,0,0:0:0:0:
268,180,178613,2,0,P|336:168|392:180,1,115,0|8,0:0|0:0,0:0:0:0:
400,268,179327,1,0,0:0:0:0:
320,316,179506,6,0,L|292:320,2,28.75,8|8|8,0:3|0:3|0:3,0:0:0:0:
324,228,179863,1,8,0:3:0:0:
324,228,180041,1,8,0:3:0:0:
332,136,180220,6,0,L|360:132,2,28.75,8|8|8,0:3|0:3|0:3,0:0:0:0:
248,172,180577,2,0,P|220:168|184:172,1,57.5,8|8,0:3|0:3,0:0:0:0:
104,180,180934,1,8,0:3:0:0:
28,148,181113,6,0,P|76:144|140:68,1,115,4|4,0:0|0:0,0:0:0:0:
260,16,181827,1,8,0:0:0:0:
412,64,182184,1,0,0:0:0:0:
324,304,182899,2,0,P|274:287|172:296,1,115,0|8,0:0|0:0,0:0:0:0:
68,360,183613,1,0,0:0:0:0:
116,208,183970,5,0,0:0:0:0:
192,156,184327,1,2,0:2:0:0:
108,116,184684,1,10,0:2:0:0:
32,172,185042,1,2,0:2:0:0:
40,264,185399,1,2,0:2:0:0:
124,304,185756,1,2,0:2:0:0:
200,252,186113,1,12,0:0:0:0:
116,208,186470,1,0,0:0:0:0:
124,304,186827,6,0,B|208:272|296:304|296:304|364:224|316:128,1,345,4|0,0:0|0:0,0:0:0:0:
252,204,188256,2,0,P|320:268|412:164,1,230,8|4,0:0|0:0,0:0:0:0:
414,197,189684,1,4,0:0:0:0:
256,192,189774,12,0,192542,2:0:0:0:
256,192,227899,12,2,231202,2:0:0:0:
360,224,232542,5,0,0:0:0:0:
360,224,232899,1,0,0:0:0:0:
284,172,233256,1,0,0:0:0:0:
284,172,233613,1,0,0:0:0:0:
208,224,233970,1,0,0:0:0:0:
208,224,234327,1,0,0:0:0:0:
200,132,234684,5,0,0:0:0:0:
200,132,235042,1,0,0:0:0:0:
364,132,235398,1,8,0:0:0:0:
364,132,235756,1,8,0:0:0:0:
280,12,236113,1,8,0:0:0:0:
280,12,236470,1,8,0:0:0:0:
288,184,236827,6,0,P|290:217|304:264,1,57.5,8|0,0:3|0:3,0:0:0:0:
272,316,237184,1,8,0:3:0:0:
200,280,237363,1,0,0:3:0:0:
120,292,237542,2,0,P|92:303|56:336,1,57.5,8|0,0:3|0:3,0:0:0:0:
200,280,237899,1,8,0:3:0:0:
216,200,238077,1,0,0:3:0:0:
136,212,238256,5,12,0:3:0:0:
136,212,238613,1,12,0:3:0:0:
136,212,240042,6,0,P|167:217|240:212,1,57.5,8|0,0:3|0:3,0:0:0:0:
152,132,240399,2,0,P|120:132|92:140,1,57.5,8|0,0:3|0:0,0:0:0:0:
56,216,240756,1,8,0:0:0:0:
100,284,240934,1,8,0:0:0:0:
180,284,241113,6,0,P|236:280|296:288,1,115,4|4,0:0|0:0,0:0:0:0:
452,260,241827,2,0,L|464:132,1,115,8|0,0:0|0:0,0:0:0:0:
472,64,242363,1,0,0:0:0:0:
412,8,242542,1,8,0:3:0:0:
264,72,242899,1,0,0:0:0:0:
396,88,243256,1,0,0:0:0:0:
248,152,243613,1,12,0:3:0:0:
100,212,243970,6,0,P|84:172|100:88,1,115,12|0,0:3|0:0,0:0:0:0:
248,152,244684,2,0,L|232:296,1,115,8|0,0:0|0:0,0:0:0:0:
316,248,245220,2,0,L|392:224,1,57.5,0|8,0:3|0:3,0:3:0:0:
428,72,245756,1,0,0:0:0:0:
272,40,246113,2,0,L|256:184,1,115,8|0,0:0|0:0,0:0:0:0:
184,128,246649,2,0,L|120:104,1,57.5,0|8,0:0|0:3,0:0:0:0:
48,248,247184,5,0,0:0:0:0:
192,324,247542,2,0,L|320:304,1,115,8|0,0:0|0:0,0:0:0:0:
384,292,248077,2,0,L|412:256,2,28.75,8|8|8,0:3|0:3|0:3,0:0:0:0:
332,232,248434,1,8,0:3:0:0:
332,152,248613,1,8,0:3:0:0:
384,88,248792,6,0,L|340:64,2,28.75,8|8|8,0:3|0:3|0:3,0:0:0:0:
332,152,249149,2,0,P|298:154|268:152,1,57.5,8|8,0:3|0:3,0:3:0:0:
212,100,249506,1,8,0:3:0:0:
172,168,249684,6,0,L|184:296,1,115,12|12,0:3|0:3,0:0:0:0:
342,266,250399,2,0,L|332:152,1,115,8|0,0:0|0:0,0:0:0:0:
284,88,250934,1,0,0:0:0:0:
348,36,251113,1,8,0:3:0:0:
476,136,251470,1,0,0:0:0:0:
444,292,251827,2,0,L|308:280,1,115,8|0,0:0|0:0,0:0:0:0:
248,264,252363,2,0,L|189:259,1,57.5,0|8,0:3|0:3,0:3:0:0:
44,220,252899,5,0,0:0:0:0:
188,152,253256,2,0,L|208:24,1,115,8|0,0:0|0:0,0:0:0:0:
128,64,253792,2,0,L|64:96,1,57.5,0|8,0:0|0:3,0:0:0:0:
160,224,254327,1,8,0:3:0:0:
320,212,254684,1,8,0:3:0:0:
216,88,255041,1,8,0:3:0:0:
240,248,255399,6,0,B|291:330|395:274|395:274|396:172|432:104,1,345,4|0,0:0|0:0,0:0:0:0:
320,96,256827,2,0,B|272:188|300:320|300:320|280:268|252:244|216:232|176:244|176:244|216:268,1,402.5,4|8,0:0|0:0,0:0:0:0:
200,168,258256,6,0,P|204:112|172:4,1,115,12|12,0:3|0:3,0:0:0:0:
32,60,258970,1,8,0:0:0:0:
40,220,259327,2,0,P|64:276|132:312,1,115,0|0,0:0|0:0,0:0:0:0:
264,260,260042,2,0,P|324:248|412:284,1,115,0|8,0:0|0:0,0:0:0:0:
488,316,260756,1,0,0:0:0:0:
396,184,261113,5,0,0:0:0:0:
336,116,261470,1,2,0:2:0:0:
396,184,261827,1,10,0:2:0:0:
460,120,262184,1,2,0:2:0:0:
396,184,262542,1,2,0:2:0:0:
332,248,262899,1,2,0:2:0:0:
396,184,263256,1,10,0:2:0:0:
456,252,263613,1,12,0:3:0:0:
332,248,263970,6,0,P|272:240|196:248,1,115,12|0,0:3|0:0,0:0:0:0:
68,296,264684,2,0,L|44:148,1,115,8|0,0:0|0:0,0:0:0:0:
156,60,265399,1,0,0:0:0:0:
144,220,265756,1,0,0:0:0:0:
288,144,266113,2,0,P|346:133|444:140,1,115,8|0,0:0|0:0,0:0:0:0:
360,288,266827,5,0,0:0:0:0:
268,304,267184,1,0,0:0:0:0:
176,320,267542,1,8,0:0:0:0:
208,236,267899,1,0,0:0:0:0:
176,320,268077,6,0,L|128:336,2,28.75,8|8|8,0:3|0:3|0:3,0:0:0:0:
208,236,268434,1,8,0:3:0:0:
184,148,268613,1,8,0:3:0:0:
112,92,268792,6,0,L|80:80,2,28.75,8|8|8,0:3|0:3|0:3,0:0:0:0:
184,148,269149,2,0,P|197:119|200:80,1,57.5,8|8,0:3|0:3,0:3:0:0:
112,92,269506,1,8,0:3:0:0:
101,182,269684,6,0,P|105:238|121:306,1,115,12|12,0:3|0:3,0:0:0:0:
276,260,270399,1,8,0:0:0:0:
420,188,270756,2,0,P|416:132|400:64,1,115,0|0,0:0|0:0,0:0:0:0:
356,228,271470,2,0,P|412:264|480:232,1,115,0|8,0:0|0:0,0:0:0:0:
344,140,272184,1,0,0:0:0:0:
188,104,272542,5,0,0:0:0:0:
140,180,272899,1,2,0:2:0:0:
232,180,273256,1,10,0:2:0:0:
180,256,273613,1,2,0:2:0:0:
272,260,273970,1,2,0:2:0:0:
324,184,274327,1,2,0:2:0:0:
284,104,274684,1,12,0:0:0:0:
232,180,275041,1,0,0:0:0:0:
324,184,275399,6,0,P|352:128|424:280,1,345,4|0,0:0|0:0,0:0:0:0:
413,192,276827,2,0,P|328:272|236:200,2,230,8|12|4,0:0|0:3|0:0,0:0:0:0:
256,192,278345,12,0,279863,0:0:0:0:
