osu file format v14

[General]
AudioFilename: Within Temptation - Iron.mp3
AudioLeadIn: 0
PreviewTime: 285378
Countdown: 0
SampleSet: Normal
StackLeniency: 0.7
Mode: 1
LetterboxInBreaks: 0
WidescreenStoryboard: 0

[Editor]
Bookmarks: 10151,39242,53787,82878,141060,148333,170151,242878,257424,271969
DistanceSpacing: 1.5
BeatDivisor: 6
GridSize: 32
TimelineZoom: 2.2

[Metadata]
Title:Iron
TitleUnicode:Iron
Artist:Within Temptation
ArtistUnicode:Within Temptation
Creator:Raiden
Version:Inner Oni
Source:
Tags:epic taiko Sharon den Adel The Unforgiving Symphonic Metal Dutch
BeatmapID:772457
BeatmapSetID:350372

[Difficulty]
HPDrainRate:5
CircleSize:2
OverallDifficulty:6
ApproachRate:10
SliderMultiplier:2.1
SliderTickRate:3

[Events]
//Background and Video events
0,0,"rsz_within-temptation-4e4bc664e96a3.png",0,100
//Break Periods
//Storyboard Layer 0 (Background)
//Storyboard Layer 1 (Fail)
//Storyboard Layer 2 (Pass)
//Storyboard Layer 3 (Foreground)
//Storyboard Sound Samples

[TimingPoints]
6515,454.545454545455,4,1,0,85,1,0
97424,-100,4,1,0,100,0,1
126515,-100,4,1,0,100,0,0
126590,-100,4,1,0,85,0,0
141136,-100,4,1,0,50,0,0
148333,-100,4,1,0,85,0,0
184696,-100,4,1,0,100,0,1
213787,-100,4,1,0,100,0,0
213863,-100,4,1,0,60,0,0
242802,-100,4,1,0,85,0,0
286515,-90.9090909090909,4,1,0,100,0,1
330151,-90.9090909090909,4,1,0,100,0,0
331969,-90.9090909090909,4,1,0,80,0,0
333787,-90.9090909090909,4,1,0,60,0,0
335605,-90.9090909090909,4,1,0,40,0,0
337424,-90.9090909090909,4,1,0,20,0,0
339242,-90.9090909090909,4,1,0,15,0,0
341060,-90.9090909090909,4,1,0,10,0,0
342878,-90.9090909090909,4,1,0,5,0,0

[HitObjects]
101,116,9242,5,4,0:0:0:0:
96,122,9545,1,0,0:0:0:0:
99,87,9696,1,0,0:0:0:0:
135,84,9848,1,0,0:0:0:0:
145,114,9999,1,0,0:0:0:0:
96,122,10151,1,4,0:0:0:0:
101,116,10454,1,0,0:0:0:0:
356,109,10605,1,8,0:0:0:0:
69,136,10757,1,0,0:0:0:0:
388,126,10908,1,0,0:0:0:0:
170,125,11060,1,0,0:0:0:0:
256,177,11363,1,0,0:0:0:0:
256,177,11515,1,8,0:0:0:0:
256,177,11666,1,8,0:0:0:0:
256,177,11818,1,0,0:0:0:0:
256,177,11969,1,0,0:0:0:0:
279,147,12272,1,0,0:0:0:0:
242,164,12424,1,8,0:0:0:0:
242,164,12575,1,8,0:0:0:0:
242,164,12727,1,8,0:0:0:0:
242,164,12878,1,0,0:0:0:0:
250,168,13030,1,0,0:0:0:0:
129,162,13105,1,0,0:0:0:0:
250,168,13181,1,0,0:0:0:0:
250,168,13333,1,8,0:0:0:0:
250,168,13484,1,8,0:0:0:0:
250,168,13636,1,0,0:0:0:0:
257,184,13787,1,4,0:0:0:0:
101,116,14090,1,0,0:0:0:0:
356,109,14242,1,8,0:0:0:0:
69,136,14393,1,0,0:0:0:0:
388,126,14545,1,0,0:0:0:0:
170,125,14696,1,0,0:0:0:0:
101,116,14999,1,0,0:0:0:0:
356,109,15151,1,8,0:0:0:0:
69,136,15302,1,8,0:0:0:0:
388,126,15454,1,0,0:0:0:0:
170,125,15605,1,0,0:0:0:0:
101,116,15908,1,0,0:0:0:0:
356,109,16060,1,8,0:0:0:0:
69,136,16211,1,8,0:0:0:0:
388,126,16363,1,8,0:0:0:0:
170,125,16515,1,0,0:0:0:0:
117,126,16666,1,8,0:0:0:0:
117,126,16742,1,8,0:0:0:0:
117,126,16818,1,8,0:0:0:0:
117,126,16969,1,8,0:0:0:0:
163,159,17121,1,8,0:0:0:0:
163,159,17272,1,8,0:0:0:0:
163,159,17424,1,4,0:0:0:0:
101,116,17727,1,0,0:0:0:0:
356,109,17878,1,8,0:0:0:0:
69,136,18030,1,0,0:0:0:0:
388,126,18181,1,0,0:0:0:0:
170,125,18333,1,0,0:0:0:0:
101,116,18636,1,0,0:0:0:0:
356,109,18787,1,8,0:0:0:0:
69,136,18939,1,8,0:0:0:0:
388,126,19090,1,0,0:0:0:0:
170,125,19242,1,0,0:0:0:0:
101,116,19545,1,0,0:0:0:0:
356,109,19696,1,8,0:0:0:0:
69,136,19848,1,8,0:0:0:0:
388,126,19999,1,8,0:0:0:0:
170,125,20151,1,0,0:0:0:0:
119,126,20302,1,8,0:0:0:0:
130,123,20378,1,8,0:0:0:0:
130,123,20454,1,0,0:0:0:0:
130,123,20605,1,8,0:0:0:0:
130,123,20757,1,8,0:0:0:0:
130,123,20908,1,8,0:0:0:0:
130,123,21060,1,4,0:0:0:0:
101,116,21363,1,0,0:0:0:0:
356,109,21515,1,8,0:0:0:0:
69,136,21666,1,0,0:0:0:0:
388,126,21818,1,0,0:0:0:0:
170,125,21969,1,0,0:0:0:0:
101,116,22272,1,0,0:0:0:0:
356,109,22424,1,8,0:0:0:0:
69,136,22575,1,8,0:0:0:0:
388,126,22727,1,0,0:0:0:0:
170,125,22878,1,0,0:0:0:0:
101,116,23181,1,0,0:0:0:0:
356,109,23333,1,8,0:0:0:0:
69,136,23484,1,8,0:0:0:0:
388,126,23636,1,8,0:0:0:0:
170,125,23787,1,0,0:0:0:0:
143,198,23863,1,0,0:0:0:0:
132,145,23939,1,0,0:0:0:0:
132,145,24090,1,8,0:0:0:0:
132,145,24242,1,8,0:0:0:0:
132,145,24318,1,8,0:0:0:0:
132,145,24393,1,0,0:0:0:0:
143,198,24545,1,8,0:0:0:0:
183,171,24696,1,4,0:0:0:0:
101,116,24999,1,8,0:0:0:0:
356,109,25151,1,8,0:0:0:0:
69,136,25302,1,0,0:0:0:0:
388,126,25454,1,0,0:0:0:0:
170,125,25605,1,8,0:0:0:0:
101,116,25908,1,8,0:0:0:0:
356,109,26060,1,8,0:0:0:0:
69,136,26211,1,0,0:0:0:0:
388,126,26363,1,8,0:0:0:0:
170,125,26515,1,8,0:0:0:0:
101,116,26818,1,8,0:0:0:0:
356,109,26969,1,8,0:0:0:0:
69,136,27121,1,8,0:0:0:0:
388,126,27272,1,0,0:0:0:0:
170,125,27424,1,8,0:0:0:0:
148,139,27575,1,0,0:0:0:0:
150,138,27651,1,0,0:0:0:0:
150,138,27727,1,8,0:0:0:0:
150,138,27878,1,8,0:0:0:0:
150,138,28030,1,8,0:0:0:0:
150,138,28181,1,0,0:0:0:0:
150,138,28333,1,12,0:0:0:0:
101,116,28636,1,8,0:0:0:0:
356,109,28787,1,8,0:0:0:0:
69,136,28939,1,0,0:0:0:0:
388,126,29090,1,0,0:0:0:0:
170,125,29242,1,8,0:0:0:0:
101,116,29545,1,8,0:0:0:0:
356,109,29696,1,8,0:0:0:0:
69,136,29848,1,0,0:0:0:0:
388,126,29999,1,8,0:0:0:0:
170,125,30151,1,8,0:0:0:0:
101,116,30454,1,8,0:0:0:0:
356,109,30605,1,8,0:0:0:0:
69,136,30757,1,8,0:0:0:0:
388,126,30908,1,0,0:0:0:0:
128,160,30984,1,0,0:0:0:0:
170,125,31060,1,8,0:0:0:0:
192,256,31136,1,0,0:0:0:0:
97,99,31211,1,8,0:0:0:0:
65,115,31363,1,0,0:0:0:0:
65,115,31515,1,8,0:0:0:0:
66,115,31666,1,8,0:0:0:0:
224,192,31742,1,8,0:0:0:0:
166,118,31818,1,0,0:0:0:0:
66,115,31969,1,12,0:0:0:0:
101,116,32272,1,8,0:0:0:0:
356,109,32424,1,8,0:0:0:0:
69,136,32575,1,0,0:0:0:0:
388,126,32727,1,0,0:0:0:0:
170,125,32878,1,8,0:0:0:0:
101,116,33181,1,8,0:0:0:0:
356,109,33333,1,8,0:0:0:0:
69,136,33484,1,0,0:0:0:0:
388,126,33636,1,8,0:0:0:0:
170,125,33787,1,8,0:0:0:0:
101,116,34090,1,8,0:0:0:0:
356,109,34242,1,8,0:0:0:0:
69,136,34393,1,8,0:0:0:0:
388,126,34545,1,0,0:0:0:0:
170,125,34696,1,8,0:0:0:0:
120,146,34848,1,0,0:0:0:0:
286,169,34924,1,0,0:0:0:0:
242,198,34999,1,8,0:0:0:0:
242,198,35151,1,8,0:0:0:0:
242,198,35302,1,8,0:0:0:0:
242,198,35378,1,8,0:0:0:0:
242,198,35454,1,0,0:0:0:0:
242,198,35605,1,12,0:0:0:0:
101,116,35908,1,8,0:0:0:0:
356,109,36060,1,8,0:0:0:0:
69,136,36211,1,0,0:0:0:0:
388,126,36363,1,0,0:0:0:0:
170,125,36515,1,8,0:0:0:0:
101,116,36818,1,8,0:0:0:0:
356,109,36969,1,8,0:0:0:0:
69,136,37121,1,0,0:0:0:0:
388,126,37272,1,0,0:0:0:0:
170,125,37424,1,8,0:0:0:0:
196,127,37499,1,8,0:0:0:0:
125,123,37575,1,0,0:0:0:0:
133,122,37727,1,0,0:0:0:0:
133,122,37878,1,8,0:0:0:0:
236,141,37954,1,8,0:0:0:0:
133,122,38030,1,0,0:0:0:0:
133,122,38181,1,0,0:0:0:0:
133,122,38333,1,8,0:0:0:0:
133,122,38408,1,8,0:0:0:0:
133,122,38484,1,0,0:0:0:0:
133,122,38636,1,0,0:0:0:0:
133,122,38787,1,8,0:0:0:0:
133,122,38863,1,8,0:0:0:0:
133,122,38939,1,0,0:0:0:0:
133,122,39090,1,8,0:0:0:0:
133,122,39242,1,4,0:0:0:0:
123,171,39545,1,0,0:0:0:0:
123,171,39696,1,8,0:0:0:0:
184,189,39999,1,8,0:0:0:0:
184,189,40151,1,0,0:0:0:0:
184,189,40302,1,0,0:0:0:0:
184,189,40454,1,0,0:0:0:0:
184,189,40605,1,8,0:0:0:0:
166,195,40908,1,8,0:0:0:0:
166,195,41060,1,0,0:0:0:0:
175,136,41363,1,0,0:0:0:0:
175,136,41515,1,8,0:0:0:0:
216,135,41818,1,8,0:0:0:0:
216,135,41969,1,0,0:0:0:0:
216,135,42121,1,0,0:0:0:0:
216,135,42272,1,0,0:0:0:0:
216,135,42424,1,8,0:0:0:0:
227,127,42575,1,8,0:0:0:0:
227,127,42727,1,8,0:0:0:0:
227,127,42878,1,0,0:0:0:0:
239,161,43181,1,0,0:0:0:0:
239,161,43333,1,8,0:0:0:0:
240,170,43636,1,8,0:0:0:0:
240,170,43787,1,0,0:0:0:0:
240,170,44090,1,0,0:0:0:0:
240,170,44242,1,8,0:0:0:0:
240,170,44545,1,8,0:0:0:0:
240,170,44696,1,0,0:0:0:0:
272,182,44772,1,0,0:0:0:0:
240,170,44848,1,0,0:0:0:0:
240,170,44999,1,8,0:0:0:0:
240,170,45151,1,0,0:0:0:0:
226,175,45227,1,0,0:0:0:0:
226,175,45302,1,8,0:0:0:0:
232,177,45454,1,8,0:0:0:0:
232,177,45605,1,0,0:0:0:0:
232,177,45681,1,0,0:0:0:0:
232,177,45757,1,0,0:0:0:0:
232,177,45908,1,8,0:0:0:0:
232,177,46060,1,0,0:0:0:0:
232,177,46136,1,0,0:0:0:0:
232,177,46211,1,8,0:0:0:0:
232,177,46363,1,8,0:0:0:0:
234,177,46515,1,4,0:0:0:0:
123,171,46818,1,0,0:0:0:0:
123,171,46969,1,8,0:0:0:0:
184,189,47272,1,8,0:0:0:0:
184,189,47424,1,0,0:0:0:0:
184,189,47575,1,0,0:0:0:0:
184,189,47727,1,0,0:0:0:0:
184,189,47878,1,8,0:0:0:0:
166,195,48181,1,8,0:0:0:0:
166,195,48333,1,0,0:0:0:0:
175,136,48636,1,0,0:0:0:0:
175,136,48787,1,8,0:0:0:0:
216,135,49090,1,8,0:0:0:0:
216,135,49242,1,0,0:0:0:0:
216,135,49393,1,0,0:0:0:0:
216,135,49545,1,0,0:0:0:0:
216,135,49696,1,8,0:0:0:0:
227,127,49848,1,8,0:0:0:0:
227,127,49999,1,8,0:0:0:0:
227,127,50151,1,0,0:0:0:0:
239,161,50454,1,0,0:0:0:0:
239,161,50605,1,8,0:0:0:0:
240,170,50908,1,8,0:0:0:0:
240,170,51060,1,0,0:0:0:0:
240,170,51363,1,0,0:0:0:0:
240,170,51515,1,8,0:0:0:0:
240,170,51818,1,8,0:0:0:0:
240,170,51969,1,0,0:0:0:0:
272,182,52045,1,0,0:0:0:0:
240,170,52121,1,0,0:0:0:0:
288,288,52196,1,0,0:0:0:0:
240,170,52272,1,8,0:0:0:0:
240,170,52424,1,0,0:0:0:0:
226,175,52499,1,0,0:0:0:0:
226,175,52575,1,0,0:0:0:0:
232,177,52727,1,8,0:0:0:0:
232,177,52878,1,0,0:0:0:0:
232,177,52954,1,0,0:0:0:0:
232,177,53030,1,0,0:0:0:0:
288,288,53105,1,0,0:0:0:0:
232,177,53181,1,8,0:0:0:0:
232,177,53333,1,0,0:0:0:0:
232,177,53408,1,0,0:0:0:0:
232,177,53484,1,8,0:0:0:0:
232,177,53636,1,8,0:0:0:0:
133,122,53787,1,4,0:0:0:0:
123,171,54090,1,0,0:0:0:0:
123,171,54242,1,8,0:0:0:0:
184,189,54545,1,8,0:0:0:0:
184,189,54696,1,0,0:0:0:0:
184,189,54999,1,0,0:0:0:0:
184,189,55151,1,8,0:0:0:0:
166,195,55454,1,8,0:0:0:0:
166,195,55605,1,0,0:0:0:0:
175,136,55908,1,0,0:0:0:0:
175,136,56060,1,8,0:0:0:0:
216,135,56363,1,8,0:0:0:0:
216,135,56515,1,0,0:0:0:0:
216,135,56666,1,0,0:0:0:0:
216,135,56818,1,0,0:0:0:0:
216,135,56969,1,8,0:0:0:0:
227,127,57121,1,8,0:0:0:0:
227,127,57272,1,8,0:0:0:0:
227,127,57424,1,0,0:0:0:0:
239,161,57727,1,0,0:0:0:0:
239,161,57878,1,8,0:0:0:0:
240,170,58181,1,8,0:0:0:0:
240,170,58333,1,0,0:0:0:0:
240,170,58636,1,0,0:0:0:0:
240,170,58787,1,8,0:0:0:0:
240,170,59090,1,8,0:0:0:0:
240,170,59242,1,0,0:0:0:0:
240,170,59393,1,0,0:0:0:0:
240,170,59545,1,8,0:0:0:0:
240,170,59696,1,0,0:0:0:0:
226,175,59772,1,0,0:0:0:0:
226,175,59848,1,8,0:0:0:0:
232,177,59999,1,8,0:0:0:0:
232,177,60151,1,0,0:0:0:0:
232,177,60302,1,0,0:0:0:0:
232,177,60454,1,8,0:0:0:0:
232,177,60605,1,0,0:0:0:0:
232,177,60681,1,0,0:0:0:0:
232,177,60757,1,8,0:0:0:0:
232,177,60908,1,8,0:0:0:0:
234,177,61060,1,4,0:0:0:0:
123,171,61363,1,0,0:0:0:0:
123,171,61515,1,8,0:0:0:0:
184,189,61818,1,8,0:0:0:0:
184,189,61969,1,0,0:0:0:0:
184,189,62272,1,0,0:0:0:0:
184,189,62424,1,8,0:0:0:0:
166,195,62727,1,8,0:0:0:0:
166,195,62878,1,0,0:0:0:0:
175,136,63181,1,0,0:0:0:0:
175,136,63333,1,8,0:0:0:0:
216,135,63636,1,8,0:0:0:0:
216,135,63787,1,0,0:0:0:0:
216,135,63939,1,0,0:0:0:0:
216,135,64090,1,0,0:0:0:0:
216,135,64242,1,8,0:0:0:0:
227,127,64393,1,8,0:0:0:0:
227,127,64545,1,8,0:0:0:0:
227,127,64696,1,0,0:0:0:0:
239,161,64999,1,0,0:0:0:0:
239,161,65151,1,8,0:0:0:0:
240,170,65454,1,8,0:0:0:0:
240,170,65605,1,0,0:0:0:0:
240,170,65908,1,0,0:0:0:0:
240,170,66060,1,8,0:0:0:0:
240,170,66363,1,8,0:0:0:0:
240,170,66515,1,0,0:0:0:0:
272,182,66590,1,0,0:0:0:0:
240,170,66666,1,0,0:0:0:0:
240,170,66818,1,8,0:0:0:0:
240,170,66969,1,0,0:0:0:0:
160,128,67045,1,0,0:0:0:0:
226,175,67121,1,8,0:0:0:0:
192,160,67196,1,0,0:0:0:0:
232,177,67272,1,8,0:0:0:0:
232,177,67424,1,0,0:0:0:0:
224,96,67575,1,8,0:0:0:0:
224,96,67651,1,8,0:0:0:0:
232,177,67727,1,0,0:0:0:0:
232,177,67878,1,8,0:0:0:0:
232,177,68030,1,0,0:0:0:0:
232,177,68181,1,8,0:0:0:0:
234,177,68333,1,4,0:0:0:0:
123,171,68636,1,0,0:0:0:0:
123,171,68787,1,8,0:0:0:0:
184,189,69090,1,8,0:0:0:0:
184,189,69242,1,0,0:0:0:0:
184,189,69545,1,0,0:0:0:0:
184,189,69696,1,8,0:0:0:0:
166,195,69999,1,8,0:0:0:0:
166,195,70151,1,0,0:0:0:0:
175,136,70454,1,0,0:0:0:0:
175,136,70605,1,8,0:0:0:0:
216,135,70908,1,8,0:0:0:0:
216,135,71060,1,0,0:0:0:0:
216,135,71211,1,0,0:0:0:0:
216,135,71363,1,0,0:0:0:0:
216,135,71515,1,8,0:0:0:0:
227,127,71666,1,8,0:0:0:0:
227,127,71818,1,8,0:0:0:0:
227,127,71969,1,0,0:0:0:0:
239,161,72272,1,0,0:0:0:0:
239,161,72424,1,8,0:0:0:0:
240,170,72727,1,8,0:0:0:0:
240,170,72878,1,0,0:0:0:0:
240,170,73181,1,0,0:0:0:0:
240,170,73333,1,8,0:0:0:0:
240,170,73636,1,8,0:0:0:0:
240,170,73787,1,0,0:0:0:0:
272,182,73863,1,0,0:0:0:0:
240,170,73939,1,8,0:0:0:0:
240,170,74090,1,8,0:0:0:0:
240,170,74242,1,0,0:0:0:0:
226,175,74393,1,8,0:0:0:0:
232,177,74545,1,8,0:0:0:0:
232,177,74696,1,0,0:0:0:0:
232,177,74772,1,8,0:0:0:0:
232,177,74848,1,8,0:0:0:0:
232,177,74999,1,8,0:0:0:0:
232,177,75151,1,0,0:0:0:0:
232,177,75302,1,8,0:0:0:0:
232,177,75454,1,8,0:0:0:0:
234,177,75605,1,4,0:0:0:0:
123,171,75908,1,0,0:0:0:0:
123,171,76060,1,8,0:0:0:0:
184,189,76363,1,8,0:0:0:0:
184,189,76515,1,0,0:0:0:0:
184,189,76818,1,0,0:0:0:0:
184,189,76969,1,8,0:0:0:0:
166,195,77272,1,8,0:0:0:0:
166,195,77424,1,0,0:0:0:0:
175,136,77727,1,0,0:0:0:0:
175,136,77878,1,8,0:0:0:0:
216,135,78181,1,8,0:0:0:0:
216,135,78333,1,0,0:0:0:0:
216,135,78484,1,0,0:0:0:0:
216,135,78636,1,0,0:0:0:0:
216,135,78787,1,8,0:0:0:0:
227,127,78939,1,8,0:0:0:0:
227,127,79090,1,8,0:0:0:0:
227,127,79242,1,0,0:0:0:0:
239,161,79545,1,0,0:0:0:0:
239,161,79696,1,8,0:0:0:0:
240,170,79999,1,8,0:0:0:0:
240,170,80151,1,0,0:0:0:0:
240,170,80454,1,0,0:0:0:0:
240,170,80605,1,8,0:0:0:0:
240,170,80908,1,8,0:0:0:0:
240,170,81060,1,0,0:0:0:0:
272,182,81136,1,0,0:0:0:0:
240,170,81211,1,8,0:0:0:0:
224,160,81287,1,0,0:0:0:0:
240,170,81363,1,8,0:0:0:0:
240,170,81515,1,0,0:0:0:0:
226,175,81590,1,0,0:0:0:0:
226,175,81666,1,8,0:0:0:0:
232,177,81818,1,8,0:0:0:0:
232,177,81969,1,8,0:0:0:0:
232,177,82045,1,0,0:0:0:0:
232,177,82121,1,0,0:0:0:0:
192,192,82196,1,0,0:0:0:0:
232,177,82272,1,8,0:0:0:0:
232,177,82424,1,8,0:0:0:0:
232,177,82575,1,0,0:0:0:0:
232,177,82727,1,8,0:0:0:0:
234,177,82878,1,4,0:0:0:0:
123,171,83181,1,0,0:0:0:0:
123,171,83333,1,8,0:0:0:0:
184,189,83636,1,8,0:0:0:0:
184,189,83787,1,0,0:0:0:0:
184,189,83939,1,8,0:0:0:0:
184,189,84090,1,8,0:0:0:0:
184,189,84242,1,0,0:0:0:0:
166,195,84545,1,8,0:0:0:0:
166,195,84696,1,0,0:0:0:0:
175,136,84999,1,0,0:0:0:0:
175,136,85151,1,8,0:0:0:0:
216,135,85454,1,8,0:0:0:0:
216,135,85605,1,0,0:0:0:0:
216,135,85757,1,8,0:0:0:0:
216,135,85908,1,8,0:0:0:0:
216,135,86060,1,0,0:0:0:0:
227,127,86211,1,8,0:0:0:0:
227,127,86363,1,8,0:0:0:0:
227,127,86515,1,4,0:0:0:0:
239,161,86818,1,0,0:0:0:0:
239,161,86969,1,8,0:0:0:0:
240,170,87272,1,8,0:0:0:0:
240,170,87424,1,0,0:0:0:0:
240,170,87727,1,0,0:0:0:0:
240,170,87878,1,8,0:0:0:0:
240,170,88181,1,0,0:0:0:0:
240,170,88333,1,8,0:0:0:0:
272,182,88408,1,0,0:0:0:0:
240,170,88484,1,8,0:0:0:0:
240,170,88636,1,0,0:0:0:0:
240,170,88787,1,8,0:0:0:0:
226,175,88863,1,0,0:0:0:0:
226,175,88939,1,8,0:0:0:0:
232,177,89090,1,0,0:0:0:0:
232,177,89242,1,8,0:0:0:0:
232,177,89318,1,8,0:0:0:0:
232,177,89393,1,8,0:0:0:0:
232,177,89545,1,0,0:0:0:0:
232,177,89696,1,8,0:0:0:0:
232,177,89772,1,8,0:0:0:0:
232,177,89848,1,8,0:0:0:0:
232,177,89999,1,8,0:0:0:0:
234,177,90151,1,4,0:0:0:0:
123,171,90454,1,0,0:0:0:0:
123,171,90605,1,8,0:0:0:0:
184,189,90908,1,8,0:0:0:0:
184,189,91060,1,0,0:0:0:0:
184,189,91211,1,8,0:0:0:0:
184,189,91363,1,8,0:0:0:0:
184,189,91515,1,0,0:0:0:0:
166,195,91818,1,8,0:0:0:0:
166,195,91969,1,0,0:0:0:0:
175,136,92272,1,0,0:0:0:0:
175,136,92424,1,8,0:0:0:0:
216,135,92727,1,8,0:0:0:0:
216,135,92878,1,8,0:0:0:0:
216,135,93030,1,0,0:0:0:0:
216,135,93181,1,0,0:0:0:0:
216,135,93333,1,8,0:0:0:0:
227,127,93484,1,8,0:0:0:0:
227,127,93636,1,8,0:0:0:0:
227,127,93787,1,4,0:0:0:0:
239,161,94090,1,0,0:0:0:0:
239,161,94242,1,8,0:0:0:0:
240,170,94545,1,8,0:0:0:0:
240,170,94696,1,0,0:0:0:0:
240,170,94999,1,0,0:0:0:0:
240,170,95151,1,8,0:0:0:0:
128,192,95302,1,0,0:0:0:0:
240,170,95454,1,8,0:0:0:0:
240,170,95605,1,0,0:0:0:0:
272,182,95681,1,0,0:0:0:0:
256,160,95757,1,8,0:0:0:0:
240,170,95908,1,8,0:0:0:0:
256,160,95984,1,8,0:0:0:0:
240,170,96060,1,0,0:0:0:0:
256,128,96136,1,0,0:0:0:0:
226,175,96211,1,0,0:0:0:0:
256,160,96287,1,0,0:0:0:0:
232,177,96363,1,8,0:0:0:0:
232,177,96515,1,0,0:0:0:0:
232,177,96666,1,8,0:0:0:0:
124,122,96742,1,0,0:0:0:0:
232,177,96818,1,8,0:0:0:0:
232,177,96893,1,0,0:0:0:0:
232,177,96969,1,8,0:0:0:0:
232,177,97121,1,0,0:0:0:0:
232,177,97272,1,8,0:0:0:0:
234,177,97424,1,4,0:0:0:0:
234,180,97727,1,0,0:0:0:0:
264,149,97878,1,8,0:0:0:0:
232,177,98030,1,0,0:0:0:0:
232,177,98181,1,0,0:0:0:0:
232,177,98333,1,8,0:0:0:0:
241,144,98636,1,0,0:0:0:0:
241,144,98787,1,8,0:0:0:0:
265,192,98939,1,8,0:0:0:0:
241,144,99090,1,0,0:0:0:0:
241,144,99242,1,12,0:0:0:0:
112,146,99545,1,0,0:0:0:0:
191,116,99696,1,0,0:0:0:0:
264,149,99848,1,8,0:0:0:0:
264,149,99999,1,0,0:0:0:0:
264,149,100151,1,8,0:0:0:0:
265,149,100302,1,8,0:0:0:0:
265,149,100454,1,0,0:0:0:0:
265,149,100605,1,8,0:0:0:0:
265,149,100757,1,0,0:0:0:0:
264,149,100908,1,8,0:0:0:0:
264,149,101060,1,4,0:0:0:0:
234,180,101363,1,0,0:0:0:0:
232,177,101515,1,8,0:0:0:0:
264,149,101666,1,0,0:0:0:0:
232,177,101818,1,0,0:0:0:0:
232,177,101969,1,8,0:0:0:0:
241,144,102272,1,0,0:0:0:0:
241,144,102424,1,8,0:0:0:0:
265,192,102575,1,8,0:0:0:0:
241,144,102727,1,0,0:0:0:0:
241,144,102878,1,12,0:0:0:0:
112,146,103181,1,0,0:0:0:0:
191,116,103333,1,0,0:0:0:0:
264,149,103484,1,8,0:0:0:0:
264,149,103636,1,8,0:0:0:0:
264,149,103787,1,0,0:0:0:0:
234,151,103863,1,0,0:0:0:0:
265,149,103939,1,8,0:0:0:0:
265,149,104090,1,8,0:0:0:0:
265,149,104242,1,0,0:0:0:0:
234,151,104318,1,0,0:0:0:0:
265,149,104393,1,8,0:0:0:0:
264,149,104545,1,8,0:0:0:0:
264,149,104696,1,4,0:0:0:0:
234,180,104999,1,0,0:0:0:0:
232,177,105151,1,0,0:0:0:0:
264,149,105302,1,8,0:0:0:0:
232,177,105454,1,0,0:0:0:0:
232,177,105605,1,8,0:0:0:0:
241,144,105908,1,0,0:0:0:0:
241,144,106060,1,0,0:0:0:0:
265,192,106211,1,8,0:0:0:0:
241,144,106363,1,8,0:0:0:0:
241,144,106515,1,12,0:0:0:0:
112,146,106818,1,0,0:0:0:0:
191,116,106969,1,0,0:0:0:0:
264,149,107121,1,8,0:0:0:0:
264,149,107272,1,8,0:0:0:0:
264,149,107424,1,8,0:0:0:0:
265,149,107575,1,0,0:0:0:0:
265,149,107727,1,8,0:0:0:0:
265,149,107878,1,0,0:0:0:0:
265,149,108030,1,0,0:0:0:0:
264,149,108181,1,8,0:0:0:0:
264,149,108333,1,4,0:0:0:0:
234,180,108636,1,0,0:0:0:0:
232,177,108787,1,8,0:0:0:0:
264,149,108939,1,8,0:0:0:0:
232,177,109090,1,0,0:0:0:0:
232,177,109242,1,8,0:0:0:0:
241,144,109545,1,0,0:0:0:0:
241,144,109696,1,8,0:0:0:0:
265,192,109848,1,0,0:0:0:0:
241,144,109999,1,0,0:0:0:0:
241,144,110151,1,8,0:0:0:0:
266,191,110227,1,8,0:0:0:0:
62,130,110302,1,0,0:0:0:0:
112,146,110454,1,0,0:0:0:0:
191,116,110605,1,8,0:0:0:0:
265,192,110681,1,0,0:0:0:0:
264,149,110757,1,0,0:0:0:0:
264,149,110908,1,0,0:0:0:0:
264,149,111060,1,8,0:0:0:0:
265,192,111211,1,0,0:0:0:0:
266,191,111287,1,0,0:0:0:0:
265,149,111363,1,0,0:0:0:0:
224,128,111439,1,0,0:0:0:0:
265,149,111515,1,8,0:0:0:0:
265,149,111666,1,0,0:0:0:0:
264,149,111818,1,8,0:0:0:0:
264,149,111969,1,4,0:0:0:0:
234,180,112272,1,0,0:0:0:0:
232,177,112424,1,8,0:0:0:0:
264,149,112575,1,0,0:0:0:0:
232,177,112727,1,0,0:0:0:0:
232,177,112878,1,8,0:0:0:0:
241,144,113181,1,0,0:0:0:0:
241,144,113333,1,8,0:0:0:0:
265,192,113484,1,8,0:0:0:0:
241,144,113636,1,0,0:0:0:0:
241,144,113787,1,12,0:0:0:0:
112,146,114090,1,0,0:0:0:0:
191,116,114242,1,8,0:0:0:0:
264,149,114393,1,0,0:0:0:0:
264,149,114545,1,0,0:0:0:0:
264,149,114696,1,8,0:0:0:0:
265,149,114848,1,8,0:0:0:0:
265,149,114999,1,8,0:0:0:0:
265,149,115151,1,0,0:0:0:0:
265,149,115302,1,0,0:0:0:0:
264,149,115454,1,8,0:0:0:0:
264,149,115605,1,4,0:0:0:0:
234,180,115908,1,0,0:0:0:0:
264,149,116060,1,0,0:0:0:0:
232,177,116211,1,8,0:0:0:0:
232,177,116363,1,0,0:0:0:0:
232,177,116515,1,8,0:0:0:0:
241,144,116818,1,0,0:0:0:0:
241,144,116969,1,8,0:0:0:0:
265,192,117121,1,8,0:0:0:0:
241,144,117272,1,0,0:0:0:0:
241,144,117424,1,12,0:0:0:0:
112,146,117727,1,0,0:0:0:0:
191,116,117878,1,0,0:0:0:0:
264,149,118030,1,8,0:0:0:0:
264,149,118181,1,8,0:0:0:0:
264,149,118333,1,8,0:0:0:0:
237,162,118408,1,0,0:0:0:0:
265,149,118484,1,0,0:0:0:0:
265,149,118636,1,8,0:0:0:0:
265,149,118787,1,8,0:0:0:0:
237,162,118863,1,8,0:0:0:0:
265,149,118939,1,0,0:0:0:0:
264,149,119090,1,8,0:0:0:0:
264,149,119242,1,4,0:0:0:0:
234,180,119545,1,0,0:0:0:0:
232,177,119696,1,8,0:0:0:0:
264,149,119848,1,0,0:0:0:0:
232,177,119999,1,0,0:0:0:0:
232,177,120151,1,8,0:0:0:0:
241,144,120454,1,0,0:0:0:0:
241,144,120605,1,8,0:0:0:0:
265,192,120757,1,8,0:0:0:0:
241,144,120908,1,0,0:0:0:0:
241,144,121060,1,12,0:0:0:0:
112,146,121363,1,0,0:0:0:0:
191,116,121515,1,8,0:0:0:0:
264,149,121666,1,0,0:0:0:0:
264,149,121818,1,8,0:0:0:0:
264,149,121969,1,8,0:0:0:0:
265,149,122121,1,0,0:0:0:0:
265,149,122272,1,0,0:0:0:0:
265,149,122424,1,8,0:0:0:0:
265,149,122575,1,0,0:0:0:0:
264,149,122727,1,8,0:0:0:0:
264,149,122878,1,4,0:0:0:0:
234,180,123181,1,0,0:0:0:0:
232,177,123333,1,8,0:0:0:0:
264,149,123484,1,0,0:0:0:0:
232,177,123636,1,0,0:0:0:0:
232,177,123787,1,8,0:0:0:0:
241,144,124090,1,0,0:0:0:0:
241,144,124242,1,0,0:0:0:0:
265,192,124393,1,8,0:0:0:0:
241,144,124545,1,8,0:0:0:0:
241,144,124696,1,8,0:0:0:0:
234,171,124772,1,8,0:0:0:0:
126,161,124848,1,0,0:0:0:0:
112,146,124999,1,8,0:0:0:0:
191,116,125151,1,0,0:0:0:0:
256,192,125227,1,0,0:0:0:0:
264,149,125302,1,0,0:0:0:0:
256,192,125454,1,0,0:0:0:0:
232,177,125530,1,0,0:0:0:0:
264,149,125605,1,8,0:0:0:0:
265,149,125757,1,0,0:0:0:0:
265,149,125908,1,0,0:0:0:0:
234,171,125984,1,0,0:0:0:0:
265,149,126060,1,8,0:0:0:0:
128,160,126136,1,0,0:0:0:0:
265,149,126211,1,8,0:0:0:0:
264,149,126363,1,8,0:0:0:0:
264,149,126515,1,4,0:0:0:0:
101,116,126818,1,0,0:0:0:0:
356,109,126969,1,8,0:0:0:0:
69,136,127121,1,0,0:0:0:0:
388,126,127272,1,0,0:0:0:0:
170,125,127424,1,0,0:0:0:0:
256,177,127727,1,0,0:0:0:0:
256,177,127878,1,8,0:0:0:0:
256,177,128030,1,8,0:0:0:0:
256,177,128181,1,0,0:0:0:0:
256,177,128333,1,0,0:0:0:0:
279,147,128636,1,0,0:0:0:0:
242,164,128787,1,8,0:0:0:0:
242,164,128939,1,8,0:0:0:0:
242,164,129090,1,8,0:0:0:0:
242,164,129242,1,0,0:0:0:0:
250,168,129393,1,0,0:0:0:0:
129,162,129469,1,0,0:0:0:0:
250,168,129545,1,0,0:0:0:0:
250,168,129696,1,8,0:0:0:0:
250,168,129848,1,8,0:0:0:0:
250,168,129999,1,0,0:0:0:0:
257,184,130151,1,4,0:0:0:0:
101,116,130454,1,0,0:0:0:0:
356,109,130605,1,8,0:0:0:0:
69,136,130757,1,0,0:0:0:0:
388,126,130908,1,0,0:0:0:0:
170,125,131060,1,0,0:0:0:0:
101,116,131363,1,0,0:0:0:0:
356,109,131515,1,8,0:0:0:0:
69,136,131666,1,8,0:0:0:0:
388,126,131818,1,0,0:0:0:0:
170,125,131969,1,0,0:0:0:0:
212,140,132045,1,0,0:0:0:0:
136,133,132121,1,8,0:0:0:0:
29,145,132272,1,8,0:0:0:0:
356,109,132424,1,0,0:0:0:0:
280,168,132499,1,0,0:0:0:0:
69,136,132575,1,8,0:0:0:0:
388,126,132727,1,8,0:0:0:0:
170,125,132878,1,0,0:0:0:0:
192,192,132954,1,0,0:0:0:0:
117,126,133030,1,8,0:0:0:0:
117,126,133105,1,8,0:0:0:0:
117,126,133181,1,0,0:0:0:0:
192,160,133257,1,0,0:0:0:0:
117,126,133333,1,8,0:0:0:0:
163,159,133484,1,0,0:0:0:0:
163,159,133636,1,8,0:0:0:0:
163,159,133787,1,4,0:0:0:0:
101,116,134090,1,0,0:0:0:0:
356,109,134242,1,8,0:0:0:0:
69,136,134393,1,0,0:0:0:0:
388,126,134545,1,0,0:0:0:0:
170,125,134696,1,0,0:0:0:0:
101,116,134999,1,0,0:0:0:0:
356,109,135151,1,8,0:0:0:0:
69,136,135302,1,8,0:0:0:0:
388,126,135454,1,0,0:0:0:0:
170,125,135605,1,0,0:0:0:0:
101,116,135908,1,0,0:0:0:0:
356,109,136060,1,8,0:0:0:0:
69,136,136211,1,8,0:0:0:0:
388,126,136363,1,8,0:0:0:0:
170,125,136515,1,0,0:0:0:0:
119,126,136666,1,0,0:0:0:0:
130,123,136742,1,0,0:0:0:0:
130,123,136818,1,8,0:0:0:0:
130,123,136969,1,8,0:0:0:0:
130,123,137121,1,8,0:0:0:0:
115,191,137196,1,0,0:0:0:0:
130,123,137272,1,8,0:0:0:0:
130,123,137424,1,4,0:0:0:0:
101,116,137727,1,0,0:0:0:0:
356,109,137878,1,8,0:0:0:0:
69,136,138030,1,0,0:0:0:0:
388,126,138181,1,0,0:0:0:0:
170,125,138333,1,0,0:0:0:0:
101,116,138636,1,0,0:0:0:0:
356,109,138787,1,8,0:0:0:0:
69,136,138939,1,8,0:0:0:0:
388,126,139090,1,0,0:0:0:0:
170,125,139242,1,0,0:0:0:0:
230,180,139318,1,0,0:0:0:0:
239,158,139393,1,0,0:0:0:0:
128,128,139469,1,0,0:0:0:0:
101,116,139545,1,8,0:0:0:0:
356,109,139696,1,8,0:0:0:0:
187,126,139772,1,8,0:0:0:0:
69,136,139848,1,8,0:0:0:0:
128,128,139924,1,8,0:0:0:0:
388,126,139999,1,0,0:0:0:0:
170,125,140151,1,0,0:0:0:0:
143,198,140227,1,0,0:0:0:0:
132,145,140302,1,0,0:0:0:0:
128,128,140378,1,0,0:0:0:0:
132,145,140454,1,0,0:0:0:0:
132,145,140605,1,8,0:0:0:0:
132,145,140681,1,8,0:0:0:0:
128,128,140757,1,8,0:0:0:0:
128,128,140833,1,8,0:0:0:0:
143,198,140908,1,8,0:0:0:0:
183,171,141060,1,4,0:0:0:0:
256,192,141211,12,0,147272,0:0:0:0:
296,180,147424,5,0,0:0:0:0:
70,111,147575,1,0,0:0:0:0:
70,111,147651,1,0,0:0:0:0:
70,111,147727,1,0,0:0:0:0:
70,111,147878,1,0,0:0:0:0:
70,111,148030,1,0,0:0:0:0:
70,111,148181,1,8,0:0:0:0:
133,122,148333,1,4,0:0:0:0:
123,171,148636,1,0,0:0:0:0:
123,171,148787,1,8,0:0:0:0:
184,189,149090,1,8,0:0:0:0:
184,189,149242,1,0,0:0:0:0:
184,189,149545,1,0,0:0:0:0:
184,189,149696,1,8,0:0:0:0:
166,195,149999,1,8,0:0:0:0:
166,195,150151,1,0,0:0:0:0:
175,136,150454,1,0,0:0:0:0:
175,136,150605,1,8,0:0:0:0:
216,135,150908,1,8,0:0:0:0:
216,135,151060,1,0,0:0:0:0:
216,135,151211,1,0,0:0:0:0:
216,135,151363,1,0,0:0:0:0:
216,135,151515,1,8,0:0:0:0:
227,127,151666,1,8,0:0:0:0:
227,127,151818,1,8,0:0:0:0:
227,127,151969,1,0,0:0:0:0:
239,161,152272,1,0,0:0:0:0:
239,161,152424,1,8,0:0:0:0:
240,170,152727,1,8,0:0:0:0:
240,170,152878,1,0,0:0:0:0:
240,170,153181,1,0,0:0:0:0:
240,170,153333,1,8,0:0:0:0:
240,170,153636,1,8,0:0:0:0:
240,170,153787,1,0,0:0:0:0:
240,170,153939,1,8,0:0:0:0:
240,170,154090,1,8,0:0:0:0:
240,170,154242,1,0,0:0:0:0:
226,175,154318,1,0,0:0:0:0:
226,175,154393,1,8,0:0:0:0:
232,177,154545,1,8,0:0:0:0:
232,177,154696,1,0,0:0:0:0:
232,177,154848,1,0,0:0:0:0:
232,177,154999,1,8,0:0:0:0:
232,177,155151,1,0,0:0:0:0:
232,177,155227,1,0,0:0:0:0:
232,177,155302,1,0,0:0:0:0:
232,177,155454,1,8,0:0:0:0:
234,177,155605,1,4,0:0:0:0:
123,171,155908,1,0,0:0:0:0:
123,171,156060,1,8,0:0:0:0:
184,189,156363,1,8,0:0:0:0:
184,189,156515,1,0,0:0:0:0:
184,189,156818,1,0,0:0:0:0:
184,189,156969,1,8,0:0:0:0:
166,195,157272,1,8,0:0:0:0:
166,195,157424,1,0,0:0:0:0:
175,136,157727,1,0,0:0:0:0:
175,136,157878,1,8,0:0:0:0:
216,135,158181,1,8,0:0:0:0:
216,135,158333,1,0,0:0:0:0:
216,135,158484,1,0,0:0:0:0:
216,135,158636,1,0,0:0:0:0:
216,135,158787,1,8,0:0:0:0:
227,127,158939,1,8,0:0:0:0:
227,127,159090,1,8,0:0:0:0:
227,127,159242,1,0,0:0:0:0:
239,161,159545,1,0,0:0:0:0:
239,161,159696,1,8,0:0:0:0:
240,170,159999,1,8,0:0:0:0:
240,170,160151,1,0,0:0:0:0:
240,170,160454,1,0,0:0:0:0:
240,170,160605,1,8,0:0:0:0:
240,170,160908,1,8,0:0:0:0:
240,170,161060,1,0,0:0:0:0:
272,182,161136,1,0,0:0:0:0:
240,170,161211,1,0,0:0:0:0:
240,170,161363,1,8,0:0:0:0:
240,170,161515,1,0,0:0:0:0:
226,175,161590,1,0,0:0:0:0:
226,175,161666,1,0,0:0:0:0:
232,177,161818,1,8,0:0:0:0:
232,177,161969,1,0,0:0:0:0:
232,177,162045,1,0,0:0:0:0:
232,177,162121,1,0,0:0:0:0:
160,256,162196,1,0,0:0:0:0:
232,177,162272,1,8,0:0:0:0:
232,177,162424,1,0,0:0:0:0:
232,177,162499,1,0,0:0:0:0:
232,177,162575,1,8,0:0:0:0:
232,177,162727,1,8,0:0:0:0:
234,177,162878,1,4,0:0:0:0:
123,171,163181,1,0,0:0:0:0:
123,171,163333,1,8,0:0:0:0:
184,189,163636,1,8,0:0:0:0:
184,189,163787,1,0,0:0:0:0:
184,189,164090,1,0,0:0:0:0:
184,189,164242,1,8,0:0:0:0:
166,195,164545,1,8,0:0:0:0:
166,195,164696,1,0,0:0:0:0:
175,136,164999,1,0,0:0:0:0:
175,136,165151,1,8,0:0:0:0:
216,135,165454,1,8,0:0:0:0:
216,135,165605,1,0,0:0:0:0:
216,135,165757,1,0,0:0:0:0:
216,135,165908,1,0,0:0:0:0:
216,135,166060,1,8,0:0:0:0:
227,127,166211,1,8,0:0:0:0:
227,127,166363,1,8,0:0:0:0:
227,127,166515,1,0,0:0:0:0:
239,161,166818,1,0,0:0:0:0:
239,161,166969,1,8,0:0:0:0:
240,170,167272,1,8,0:0:0:0:
240,170,167424,1,0,0:0:0:0:
240,170,167727,1,0,0:0:0:0:
240,170,167878,1,8,0:0:0:0:
240,170,168181,1,8,0:0:0:0:
240,170,168333,1,0,0:0:0:0:
272,182,168408,1,8,0:0:0:0:
240,170,168484,1,0,0:0:0:0:
240,170,168636,1,8,0:0:0:0:
240,170,168787,1,8,0:0:0:0:
226,175,168939,1,0,0:0:0:0:
232,177,169090,1,8,0:0:0:0:
232,177,169242,1,8,0:0:0:0:
232,177,169318,1,8,0:0:0:0:
232,177,169393,1,0,0:0:0:0:
232,177,169545,1,8,0:0:0:0:
232,177,169696,1,8,0:0:0:0:
232,177,169848,1,0,0:0:0:0:
232,177,169999,1,8,0:0:0:0:
234,177,170151,1,4,0:0:0:0:
123,171,170454,1,0,0:0:0:0:
123,171,170605,1,8,0:0:0:0:
184,189,170908,1,8,0:0:0:0:
184,189,171060,1,0,0:0:0:0:
184,189,171211,1,8,0:0:0:0:
184,189,171363,1,8,0:0:0:0:
184,189,171515,1,0,0:0:0:0:
166,195,171818,1,8,0:0:0:0:
166,195,171969,1,0,0:0:0:0:
175,136,172272,1,0,0:0:0:0:
175,136,172424,1,8,0:0:0:0:
216,135,172727,1,8,0:0:0:0:
216,135,172878,1,0,0:0:0:0:
216,135,173030,1,8,0:0:0:0:
216,135,173181,1,8,0:0:0:0:
216,135,173333,1,0,0:0:0:0:
227,127,173484,1,8,0:0:0:0:
227,127,173636,1,8,0:0:0:0:
227,127,173787,1,4,0:0:0:0:
239,161,174090,1,0,0:0:0:0:
239,161,174242,1,8,0:0:0:0:
240,170,174545,1,8,0:0:0:0:
240,170,174696,1,0,0:0:0:0:
240,170,174999,1,0,0:0:0:0:
240,170,175151,1,8,0:0:0:0:
240,170,175454,1,8,0:0:0:0:
240,170,175605,1,0,0:0:0:0:
272,182,175681,1,0,0:0:0:0:
240,170,175757,1,8,0:0:0:0:
240,170,175908,1,8,0:0:0:0:
240,170,176060,1,0,0:0:0:0:
226,175,176136,1,0,0:0:0:0:
226,175,176211,1,8,0:0:0:0:
232,177,176363,1,8,0:0:0:0:
232,177,176515,1,8,0:0:0:0:
232,177,176590,1,8,0:0:0:0:
232,177,176666,1,0,0:0:0:0:
232,177,176818,1,8,0:0:0:0:
232,177,176969,1,8,0:0:0:0:
232,177,177045,1,8,0:0:0:0:
232,177,177121,1,0,0:0:0:0:
232,177,177272,1,8,0:0:0:0:
234,177,177424,1,4,0:0:0:0:
123,171,177727,1,0,0:0:0:0:
123,171,177878,1,8,0:0:0:0:
184,189,178181,1,8,0:0:0:0:
184,189,178333,1,0,0:0:0:0:
184,189,178484,1,8,0:0:0:0:
184,189,178636,1,8,0:0:0:0:
184,189,178787,1,0,0:0:0:0:
166,195,179090,1,8,0:0:0:0:
166,195,179242,1,0,0:0:0:0:
175,136,179545,1,0,0:0:0:0:
175,136,179696,1,8,0:0:0:0:
216,135,179999,1,8,0:0:0:0:
216,135,180151,1,0,0:0:0:0:
216,135,180302,1,8,0:0:0:0:
216,135,180454,1,8,0:0:0:0:
216,135,180605,1,0,0:0:0:0:
227,127,180757,1,8,0:0:0:0:
227,127,180908,1,8,0:0:0:0:
227,127,181060,1,4,0:0:0:0:
239,161,181363,1,0,0:0:0:0:
239,161,181515,1,8,0:0:0:0:
240,170,181818,1,8,0:0:0:0:
240,170,181969,1,0,0:0:0:0:
240,170,182272,1,0,0:0:0:0:
240,170,182424,1,8,0:0:0:0:
160,160,182575,1,0,0:0:0:0:
240,170,182727,1,0,0:0:0:0:
240,170,182878,1,8,0:0:0:0:
272,182,182954,1,0,0:0:0:0:
240,170,183030,1,8,0:0:0:0:
240,170,183181,1,0,0:0:0:0:
240,170,183333,1,8,0:0:0:0:
226,175,183408,1,0,0:0:0:0:
226,175,183484,1,8,0:0:0:0:
232,177,183636,1,0,0:0:0:0:
232,177,183787,1,8,0:0:0:0:
194,141,183863,1,8,0:0:0:0:
194,141,183939,1,8,0:0:0:0:
177,151,184090,1,8,0:0:0:0:
232,177,184242,1,8,0:0:0:0:
232,177,184318,1,8,0:0:0:0:
232,177,184393,1,0,0:0:0:0:
232,177,184545,1,8,0:0:0:0:
234,177,184696,1,4,0:0:0:0:
123,171,184999,1,0,0:0:0:0:
123,171,185151,1,8,0:0:0:0:
264,149,185302,1,0,0:0:0:0:
184,189,185454,1,0,0:0:0:0:
184,189,185605,1,8,0:0:0:0:
184,189,185908,1,0,0:0:0:0:
241,144,186060,1,8,0:0:0:0:
265,192,186211,1,0,0:0:0:0:
166,195,186363,1,8,0:0:0:0:
166,195,186515,1,4,0:0:0:0:
175,136,186818,1,0,0:0:0:0:
191,116,186969,1,8,0:0:0:0:
264,149,187121,1,0,0:0:0:0:
216,135,187272,1,8,0:0:0:0:
264,149,187424,1,8,0:0:0:0:
216,135,187575,1,0,0:0:0:0:
216,135,187727,1,0,0:0:0:0:
265,149,187878,1,0,0:0:0:0:
227,127,188030,1,8,0:0:0:0:
264,149,188181,1,8,0:0:0:0:
227,127,188333,1,4,0:0:0:0:
234,180,188636,1,0,0:0:0:0:
239,161,188787,1,8,0:0:0:0:
264,149,188939,1,0,0:0:0:0:
232,177,189090,1,0,0:0:0:0:
232,177,189242,1,8,0:0:0:0:
241,144,189545,1,0,0:0:0:0:
241,144,189696,1,8,0:0:0:0:
265,192,189848,1,8,0:0:0:0:
240,170,189999,1,0,0:0:0:0:
240,170,190151,1,0,0:0:0:0:
272,182,190227,1,0,0:0:0:0:
240,170,190302,1,8,0:0:0:0:
240,170,190454,1,8,0:0:0:0:
240,170,190605,1,0,0:0:0:0:
226,175,190681,1,0,0:0:0:0:
264,149,190757,1,8,0:0:0:0:
264,149,190908,1,8,0:0:0:0:
232,177,191060,1,0,0:0:0:0:
234,151,191136,1,0,0:0:0:0:
265,149,191211,1,8,0:0:0:0:
232,177,191363,1,8,0:0:0:0:
232,177,191515,1,8,0:0:0:0:
232,177,191590,1,0,0:0:0:0:
265,149,191666,1,8,0:0:0:0:
232,177,191818,1,8,0:0:0:0:
264,149,191969,1,4,0:0:0:0:
234,180,192272,1,0,0:0:0:0:
232,177,192424,1,0,0:0:0:0:
264,149,192575,1,8,0:0:0:0:
232,177,192727,1,0,0:0:0:0:
232,177,192878,1,8,0:0:0:0:
241,144,193181,1,0,0:0:0:0:
241,144,193333,1,8,0:0:0:0:
265,192,193484,1,8,0:0:0:0:
241,144,193636,1,0,0:0:0:0:
241,144,193787,1,12,0:0:0:0:
112,146,194090,1,0,0:0:0:0:
191,116,194242,1,8,0:0:0:0:
264,149,194393,1,0,0:0:0:0:
264,149,194545,1,8,0:0:0:0:
264,149,194696,1,8,0:0:0:0:
265,149,194848,1,8,0:0:0:0:
265,149,194999,1,8,0:0:0:0:
265,149,195151,1,0,0:0:0:0:
265,149,195302,1,0,0:0:0:0:
264,149,195454,1,8,0:0:0:0:
264,149,195605,1,4,0:0:0:0:
234,180,195908,1,0,0:0:0:0:
232,177,196060,1,8,0:0:0:0:
264,149,196211,1,0,0:0:0:0:
232,177,196363,1,0,0:0:0:0:
232,177,196515,1,8,0:0:0:0:
241,144,196818,1,0,0:0:0:0:
241,144,196969,1,8,0:0:0:0:
265,192,197121,1,0,0:0:0:0:
241,144,197272,1,0,0:0:0:0:
241,144,197424,1,8,0:0:0:0:
62,130,197575,1,0,0:0:0:0:
112,146,197727,1,0,0:0:0:0:
191,116,197878,1,8,0:0:0:0:
266,191,197954,1,8,0:0:0:0:
264,149,198030,1,0,0:0:0:0:
264,149,198181,1,8,0:0:0:0:
264,149,198333,1,8,0:0:0:0:
265,192,198408,1,0,0:0:0:0:
160,192,198484,1,0,0:0:0:0:
265,149,198636,1,8,0:0:0:0:
265,149,198787,1,8,0:0:0:0:
160,96,198863,1,0,0:0:0:0:
265,149,198939,1,8,0:0:0:0:
264,149,199090,1,8,0:0:0:0:
264,149,199242,1,4,0:0:0:0:
234,180,199545,1,0,0:0:0:0:
232,177,199696,1,8,0:0:0:0:
264,149,199848,1,0,0:0:0:0:
232,177,199999,1,0,0:0:0:0:
232,177,200151,1,8,0:0:0:0:
241,144,200454,1,0,0:0:0:0:
241,144,200605,1,8,0:0:0:0:
265,192,200757,1,8,0:0:0:0:
241,144,200908,1,0,0:0:0:0:
241,144,201060,1,12,0:0:0:0:
112,146,201363,1,0,0:0:0:0:
191,116,201515,1,8,0:0:0:0:
264,149,201666,1,0,0:0:0:0:
264,149,201818,1,0,0:0:0:0:
264,149,201969,1,8,0:0:0:0:
265,149,202121,1,8,0:0:0:0:
265,149,202272,1,8,0:0:0:0:
265,149,202424,1,0,0:0:0:0:
265,149,202575,1,0,0:0:0:0:
264,149,202727,1,8,0:0:0:0:
264,149,202878,1,4,0:0:0:0:
234,180,203181,1,0,0:0:0:0:
232,177,203333,1,8,0:0:0:0:
264,149,203484,1,0,0:0:0:0:
232,177,203636,1,0,0:0:0:0:
232,177,203787,1,8,0:0:0:0:
241,144,204090,1,0,0:0:0:0:
241,144,204242,1,8,0:0:0:0:
265,192,204393,1,8,0:0:0:0:
241,144,204545,1,0,0:0:0:0:
241,144,204696,1,12,0:0:0:0:
112,146,204999,1,0,0:0:0:0:
191,116,205151,1,0,0:0:0:0:
264,149,205302,1,0,0:0:0:0:
264,149,205454,1,8,0:0:0:0:
264,149,205605,1,8,0:0:0:0:
237,162,205681,1,0,0:0:0:0:
265,149,205757,1,0,0:0:0:0:
265,149,205908,1,8,0:0:0:0:
265,149,206060,1,8,0:0:0:0:
237,162,206136,1,0,0:0:0:0:
265,149,206211,1,0,0:0:0:0:
264,149,206363,1,8,0:0:0:0:
264,149,206515,1,4,0:0:0:0:
234,180,206818,1,0,0:0:0:0:
232,177,206969,1,8,0:0:0:0:
264,149,207121,1,8,0:0:0:0:
232,177,207272,1,0,0:0:0:0:
232,177,207424,1,8,0:0:0:0:
241,144,207727,1,0,0:0:0:0:
241,144,207878,1,0,0:0:0:0:
265,192,208030,1,8,0:0:0:0:
241,144,208181,1,0,0:0:0:0:
241,144,208333,1,12,0:0:0:0:
112,146,208636,1,0,0:0:0:0:
191,116,208787,1,0,0:0:0:0:
264,149,208939,1,0,0:0:0:0:
264,149,209090,1,8,0:0:0:0:
264,149,209242,1,8,0:0:0:0:
265,149,209393,1,0,0:0:0:0:
265,149,209545,1,8,0:0:0:0:
265,149,209696,1,0,0:0:0:0:
265,149,209848,1,0,0:0:0:0:
264,149,209999,1,8,0:0:0:0:
264,149,210151,1,4,0:0:0:0:
234,180,210454,1,0,0:0:0:0:
232,177,210605,1,8,0:0:0:0:
264,149,210757,1,0,0:0:0:0:
232,177,210908,1,0,0:0:0:0:
232,177,211060,1,8,0:0:0:0:
241,144,211363,1,0,0:0:0:0:
241,144,211515,1,0,0:0:0:0:
265,192,211666,1,8,0:0:0:0:
241,144,211818,1,8,0:0:0:0:
241,144,211969,1,8,0:0:0:0:
234,171,212045,1,8,0:0:0:0:
126,161,212121,1,0,0:0:0:0:
112,146,212272,1,8,0:0:0:0:
191,116,212424,1,8,0:0:0:0:
232,177,212499,1,8,0:0:0:0:
264,149,212575,1,0,0:0:0:0:
192,160,212651,1,0,0:0:0:0:
264,149,212727,1,8,0:0:0:0:
264,149,212878,1,8,0:0:0:0:
265,149,213030,1,0,0:0:0:0:
234,171,213105,1,8,0:0:0:0:
265,149,213181,1,8,0:0:0:0:
265,149,213333,1,8,0:0:0:0:
265,149,213484,1,0,0:0:0:0:
264,149,213636,1,8,0:0:0:0:
264,149,213787,1,4,0:0:0:0:
239,206,214696,1,8,0:0:0:0:
161,166,215302,1,0,0:0:0:0:
161,166,215454,1,0,0:0:0:0:
161,166,215605,1,0,0:0:0:0:
161,166,216060,1,0,0:0:0:0:
160,192,216211,1,0,0:0:0:0:
160,192,216363,1,0,0:0:0:0:
161,166,216515,1,8,0:0:0:0:
128,192,216969,1,0,0:0:0:0:
161,177,217424,1,0,0:0:0:0:
96,160,217878,1,0,0:0:0:0:
161,177,218333,1,8,0:0:0:0:
161,177,218939,1,0,0:0:0:0:
161,177,219090,1,0,0:0:0:0:
161,177,219242,1,0,0:0:0:0:
161,177,219696,1,0,0:0:0:0:
96,160,219848,1,0,0:0:0:0:
96,160,219999,1,0,0:0:0:0:
161,177,220151,1,8,0:0:0:0:
161,177,220454,1,0,0:0:0:0:
161,177,220605,1,8,0:0:0:0:
198,204,221060,1,0,0:0:0:0:
161,177,221515,1,0,0:0:0:0:
198,204,221969,1,8,0:0:0:0:
198,204,222575,1,0,0:0:0:0:
198,204,222727,1,0,0:0:0:0:
198,204,222878,1,0,0:0:0:0:
192,192,223333,1,0,0:0:0:0:
198,204,223787,1,8,0:0:0:0:
197,177,224242,1,0,0:0:0:0:
197,177,224393,1,0,0:0:0:0:
197,177,224545,1,8,0:0:0:0:
198,204,224696,1,0,0:0:0:0:
192,192,225151,1,0,0:0:0:0:
198,204,225605,1,8,0:0:0:0:
293,212,226211,1,0,0:0:0:0:
293,212,226363,1,0,0:0:0:0:
293,212,226515,1,0,0:0:0:0:
293,212,226969,1,0,0:0:0:0:
293,212,227424,1,8,0:0:0:0:
293,212,227575,1,0,0:0:0:0:
293,212,227727,1,0,0:0:0:0:
293,212,227878,1,8,0:0:0:0:
154,187,228333,1,8,0:0:0:0:
192,192,228787,1,0,0:0:0:0:
234,234,229242,1,8,0:0:0:0:
234,234,229848,1,0,0:0:0:0:
234,234,229999,1,0,0:0:0:0:
234,234,230151,1,0,0:0:0:0:
234,234,230605,1,0,0:0:0:0:
234,234,231060,1,8,0:0:0:0:
321,271,231515,1,0,0:0:0:0:
321,271,231666,1,8,0:0:0:0:
321,271,231818,1,0,0:0:0:0:
321,271,231969,1,0,0:0:0:0:
192,192,232424,1,0,0:0:0:0:
283,275,232727,1,0,0:0:0:0:
283,275,232878,1,8,0:0:0:0:
274,206,233333,1,8,0:0:0:0:
274,206,233484,1,0,0:0:0:0:
274,206,233636,1,0,0:0:0:0:
274,206,233787,1,0,0:0:0:0:
274,206,234242,1,0,0:0:0:0:
274,206,234696,1,8,0:0:0:0:
274,206,235151,1,8,0:0:0:0:
274,206,235302,1,8,0:0:0:0:
274,206,235454,1,8,0:0:0:0:
274,206,235605,1,0,0:0:0:0:
192,192,236060,1,0,0:0:0:0:
274,206,236515,1,8,0:0:0:0:
192,192,236969,1,0,0:0:0:0:
65,180,237272,1,0,0:0:0:0:
274,206,237424,1,0,0:0:0:0:
65,180,237878,1,0,0:0:0:0:
132,177,238333,1,8,0:0:0:0:
182,158,238787,1,8,0:0:0:0:
182,158,238939,1,8,0:0:0:0:
182,158,239090,1,0,0:0:0:0:
182,158,239242,1,4,0:0:0:0:
256,192,239393,12,0,242727,0:0:0:0:
134,184,242878,5,0,0:0:0:0:
305,183,243030,1,0,0:0:0:0:
134,184,243181,1,0,0:0:0:0:
134,184,243333,1,12,0:0:0:0:
345,216,243787,1,0,0:0:0:0:
296,197,244242,1,0,0:0:0:0:
296,197,244393,1,0,0:0:0:0:
317,191,244545,1,0,0:0:0:0:
317,191,244696,1,0,0:0:0:0:
317,191,244848,1,0,0:0:0:0:
312,221,244999,1,0,0:0:0:0:
313,220,245151,1,12,0:0:0:0:
123,161,245605,1,0,0:0:0:0:
123,161,245757,1,0,0:0:0:0:
123,161,245908,1,0,0:0:0:0:
123,161,246060,1,12,0:0:0:0:
213,153,246211,1,0,0:0:0:0:
213,153,246363,1,0,0:0:0:0:
213,153,246515,1,0,0:0:0:0:
213,153,246666,1,0,0:0:0:0:
213,153,246818,1,0,0:0:0:0:
213,153,246969,1,12,0:0:0:0:
325,177,247424,1,0,0:0:0:0:
213,153,247878,1,0,0:0:0:0:
213,153,248030,1,0,0:0:0:0:
213,153,248181,1,0,0:0:0:0:
213,153,248333,1,0,0:0:0:0:
206,140,248484,1,0,0:0:0:0:
206,140,248636,1,0,0:0:0:0:
206,140,248787,1,12,0:0:0:0:
152,150,249242,1,8,0:0:0:0:
152,150,249318,1,8,0:0:0:0:
152,150,249393,1,8,0:0:0:0:
152,150,249545,1,0,0:0:0:0:
152,150,249696,1,12,0:0:0:0:
152,150,249848,1,0,0:0:0:0:
152,150,249999,1,0,0:0:0:0:
152,150,250151,1,8,0:0:0:0:
152,150,250302,1,0,0:0:0:0:
152,150,250454,1,0,0:0:0:0:
152,150,250605,1,12,0:0:0:0:
188,127,251060,1,0,0:0:0:0:
188,127,251515,1,0,0:0:0:0:
188,127,251666,1,0,0:0:0:0:
188,127,251818,1,0,0:0:0:0:
188,127,251969,1,8,0:0:0:0:
188,127,252121,1,0,0:0:0:0:
188,127,252272,1,0,0:0:0:0:
188,127,252424,1,12,0:0:0:0:
188,127,252878,1,8,0:0:0:0:
188,127,253030,1,8,0:0:0:0:
162,160,253181,1,0,0:0:0:0:
188,127,253333,1,12,0:0:0:0:
162,160,253484,1,0,0:0:0:0:
162,160,253636,1,0,0:0:0:0:
162,160,253787,1,8,0:0:0:0:
106,138,253939,1,0,0:0:0:0:
106,138,254090,1,0,0:0:0:0:
106,138,254242,1,12,0:0:0:0:
205,154,254696,1,0,0:0:0:0:
205,154,255151,1,0,0:0:0:0:
205,154,255302,1,0,0:0:0:0:
219,91,255454,1,0,0:0:0:0:
221,148,255605,1,8,0:0:0:0:
221,148,255681,1,8,0:0:0:0:
221,148,255757,1,0,0:0:0:0:
221,148,255908,1,0,0:0:0:0:
221,148,256060,1,12,0:0:0:0:
260,116,256363,1,0,0:0:0:0:
182,162,256439,1,0,0:0:0:0:
257,146,256515,1,8,0:0:0:0:
59,144,256666,1,0,0:0:0:0:
59,144,256818,1,0,0:0:0:0:
59,144,256969,1,12,0:0:0:0:
236,115,257121,1,0,0:0:0:0:
237,115,257272,1,0,0:0:0:0:
165,177,257424,1,8,0:0:0:0:
165,177,257499,1,0,0:0:0:0:
165,177,257575,1,8,0:0:0:0:
165,177,257651,1,0,0:0:0:0:
165,177,257727,1,8,0:0:0:0:
165,177,257802,1,0,0:0:0:0:
165,177,257878,1,8,0:0:0:0:
165,177,257954,1,8,0:0:0:0:
165,177,258030,1,0,0:0:0:0:
165,177,258105,1,0,0:0:0:0:
165,177,258181,1,8,0:0:0:0:
165,177,258257,1,0,0:0:0:0:
165,177,258333,1,8,0:0:0:0:
165,177,258408,1,0,0:0:0:0:
165,177,258484,1,8,0:0:0:0:
165,177,258560,1,0,0:0:0:0:
165,177,258636,1,0,0:0:0:0:
165,177,258711,1,0,0:0:0:0:
165,177,258787,1,8,0:0:0:0:
165,177,258863,1,0,0:0:0:0:
165,177,258939,1,8,0:0:0:0:
302,215,259015,1,8,0:0:0:0:
302,215,259090,1,0,0:0:0:0:
302,215,259166,1,0,0:0:0:0:
302,215,259242,1,0,0:0:0:0:
302,215,259318,1,8,0:0:0:0:
302,215,259393,1,0,0:0:0:0:
302,215,259469,1,8,0:0:0:0:
302,215,259545,1,0,0:0:0:0:
128,160,259621,1,0,0:0:0:0:
302,215,259696,1,8,0:0:0:0:
302,215,259772,1,8,0:0:0:0:
302,215,259848,1,0,0:0:0:0:
302,215,259924,1,8,0:0:0:0:
302,215,259999,1,0,0:0:0:0:
224,160,260075,1,0,0:0:0:0:
302,215,260151,1,0,0:0:0:0:
201,203,260227,1,8,0:0:0:0:
201,203,260302,1,0,0:0:0:0:
201,203,260378,1,0,0:0:0:0:
201,203,260454,1,8,0:0:0:0:
201,203,260530,1,0,0:0:0:0:
201,203,260605,1,8,0:0:0:0:
201,203,260681,1,8,0:0:0:0:
201,203,260757,1,0,0:0:0:0:
201,203,260833,1,8,0:0:0:0:
201,203,260908,1,0,0:0:0:0:
201,203,260984,1,0,0:0:0:0:
201,203,261060,1,8,0:0:0:0:
201,203,261136,1,0,0:0:0:0:
201,203,261211,1,8,0:0:0:0:
201,203,261287,1,0,0:0:0:0:
201,203,261363,1,8,0:0:0:0:
201,203,261439,1,0,0:0:0:0:
201,203,261515,1,0,0:0:0:0:
194,172,261590,1,0,0:0:0:0:
194,172,261666,1,8,0:0:0:0:
194,172,261742,1,8,0:0:0:0:
194,172,261818,1,0,0:0:0:0:
201,203,261969,1,8,0:0:0:0:
194,172,262045,1,8,0:0:0:0:
194,172,262121,1,0,0:0:0:0:
194,172,262196,1,0,0:0:0:0:
201,203,262272,1,8,0:0:0:0:
201,203,262348,1,8,0:0:0:0:
201,203,262424,1,0,0:0:0:0:
296,187,262499,1,0,0:0:0:0:
296,187,262575,1,0,0:0:0:0:
296,187,262651,1,8,0:0:0:0:
296,187,262727,1,0,0:0:0:0:
296,187,262878,1,0,0:0:0:0:
296,187,262954,1,8,0:0:0:0:
296,187,263030,1,8,0:0:0:0:
296,187,263105,1,0,0:0:0:0:
296,187,263181,1,0,0:0:0:0:
296,187,263257,1,8,0:0:0:0:
296,187,263333,1,8,0:0:0:0:
224,192,263408,1,0,0:0:0:0:
296,187,263484,1,0,0:0:0:0:
296,187,263560,1,8,0:0:0:0:
296,187,263636,1,0,0:0:0:0:
296,187,263711,1,0,0:0:0:0:
296,187,263787,1,8,0:0:0:0:
296,187,263863,1,0,0:0:0:0:
296,187,263939,1,0,0:0:0:0:
296,187,264015,1,8,0:0:0:0:
296,187,264090,1,8,0:0:0:0:
296,187,264166,1,0,0:0:0:0:
296,187,264242,1,0,0:0:0:0:
296,187,264318,1,8,0:0:0:0:
296,187,264393,1,8,0:0:0:0:
180,160,264469,1,0,0:0:0:0:
180,160,264545,1,0,0:0:0:0:
144,110,264696,6,0,L|192:96,10,35
177,146,265605,1,0,0:0:0:0:
179,146,265757,1,0,0:0:0:0:
179,146,265908,1,0,0:0:0:0:
179,146,266060,1,8,0:0:0:0:
165,149,266363,1,0,0:0:0:0:
164,149,266515,1,0,0:0:0:0:
164,149,266818,1,0,0:0:0:0:
164,149,266969,1,8,0:0:0:0:
164,149,267272,1,0,0:0:0:0:
164,149,267424,1,0,0:0:0:0:
164,149,267575,1,0,0:0:0:0:
165,149,267727,1,0,0:0:0:0:
165,149,267878,1,8,0:0:0:0:
164,149,268030,1,8,0:0:0:0:
164,149,268181,1,8,0:0:0:0:
164,149,268333,1,4,0:0:0:0:
164,149,268636,1,0,0:0:0:0:
164,149,268787,1,8,0:0:0:0:
157,180,269090,1,0,0:0:0:0:
157,180,269242,1,0,0:0:0:0:
157,180,269318,1,0,0:0:0:0:
157,180,269393,1,0,0:0:0:0:
157,180,269545,1,0,0:0:0:0:
157,180,269696,1,8,0:0:0:0:
164,177,269999,1,0,0:0:0:0:
164,177,270151,1,8,0:0:0:0:
202,136,270227,1,8,0:0:0:0:
163,177,270302,1,0,0:0:0:0:
163,177,270454,1,0,0:0:0:0:
163,177,270605,1,8,0:0:0:0:
202,136,270681,1,0,0:0:0:0:
153,140,270757,1,0,0:0:0:0:
202,136,270833,1,0,0:0:0:0:
153,140,270908,1,8,0:0:0:0:
153,140,271060,1,8,0:0:0:0:
153,140,271211,1,8,0:0:0:0:
202,136,271287,1,8,0:0:0:0:
153,140,271363,1,0,0:0:0:0:
202,136,271439,1,0,0:0:0:0:
153,140,271515,1,8,0:0:0:0:
212,159,271590,1,8,0:0:0:0:
153,140,271666,1,0,0:0:0:0:
228,120,271818,1,8,0:0:0:0:
234,177,271969,5,4,0:0:0:0:
123,171,272272,1,0,0:0:0:0:
123,171,272424,1,8,0:0:0:0:
184,189,272727,1,8,0:0:0:0:
184,189,272878,1,0,0:0:0:0:
184,189,273030,1,8,0:0:0:0:
184,189,273181,1,8,0:0:0:0:
184,189,273333,1,0,0:0:0:0:
166,195,273636,1,8,0:0:0:0:
166,195,273787,1,0,0:0:0:0:
175,136,274090,1,0,0:0:0:0:
175,136,274242,1,8,0:0:0:0:
216,135,274545,1,8,0:0:0:0:
216,135,274696,1,0,0:0:0:0:
216,135,274848,1,8,0:0:0:0:
216,135,274999,1,8,0:0:0:0:
216,135,275151,1,0,0:0:0:0:
227,127,275302,1,8,0:0:0:0:
227,127,275454,1,8,0:0:0:0:
227,127,275605,1,4,0:0:0:0:
239,161,275908,1,0,0:0:0:0:
239,161,276060,1,8,0:0:0:0:
240,170,276363,1,8,0:0:0:0:
240,170,276515,1,0,0:0:0:0:
240,170,276818,1,0,0:0:0:0:
240,170,276969,1,8,0:0:0:0:
240,170,277272,1,0,0:0:0:0:
240,170,277424,1,8,0:0:0:0:
272,182,277499,1,0,0:0:0:0:
240,170,277575,1,8,0:0:0:0:
240,170,277727,1,0,0:0:0:0:
240,170,277878,1,8,0:0:0:0:
226,175,277954,1,0,0:0:0:0:
226,175,278030,1,8,0:0:0:0:
232,177,278181,1,0,0:0:0:0:
232,177,278333,1,8,0:0:0:0:
232,177,278408,1,8,0:0:0:0:
232,177,278484,1,0,0:0:0:0:
232,177,278636,1,0,0:0:0:0:
232,177,278787,1,8,0:0:0:0:
232,177,278863,1,8,0:0:0:0:
232,177,278939,1,0,0:0:0:0:
232,177,279090,1,8,0:0:0:0:
234,177,279242,1,4,0:0:0:0:
123,171,279545,1,0,0:0:0:0:
123,171,279696,1,8,0:0:0:0:
184,189,279999,1,8,0:0:0:0:
184,189,280151,1,8,0:0:0:0:
184,189,280302,1,0,0:0:0:0:
184,189,280454,1,0,0:0:0:0:
184,189,280605,1,8,0:0:0:0:
166,195,280908,1,8,0:0:0:0:
166,195,281060,1,0,0:0:0:0:
175,136,281363,1,0,0:0:0:0:
175,136,281515,1,8,0:0:0:0:
216,135,281818,1,8,0:0:0:0:
216,135,281969,1,8,0:0:0:0:
216,135,282121,1,0,0:0:0:0:
216,135,282272,1,0,0:0:0:0:
216,135,282424,1,8,0:0:0:0:
227,127,282575,1,0,0:0:0:0:
227,127,282727,1,8,0:0:0:0:
227,127,282878,1,4,0:0:0:0:
239,161,283181,1,0,0:0:0:0:
239,161,283333,1,8,0:0:0:0:
240,170,283636,1,8,0:0:0:0:
240,170,283787,1,0,0:0:0:0:
240,170,284090,1,0,0:0:0:0:
240,170,284242,1,8,0:0:0:0:
256,192,284393,1,0,0:0:0:0:
240,170,284545,1,8,0:0:0:0:
240,170,284696,1,0,0:0:0:0:
272,182,284772,1,0,0:0:0:0:
240,170,284848,1,8,0:0:0:0:
256,160,284924,1,0,0:0:0:0:
240,170,284999,1,8,0:0:0:0:
240,170,285151,1,8,0:0:0:0:
226,175,285227,1,8,0:0:0:0:
226,175,285302,1,0,0:0:0:0:
256,256,285378,1,0,0:0:0:0:
232,177,285454,1,8,0:0:0:0:
232,177,285605,1,0,0:0:0:0:
232,177,285681,1,0,0:0:0:0:
232,177,285757,1,8,0:0:0:0:
124,122,285833,1,8,0:0:0:0:
232,177,285908,1,0,0:0:0:0:
232,177,286060,1,8,0:0:0:0:
232,177,286136,5,8,0:0:0:0:
232,177,286211,1,0,0:0:0:0:
209,124,286287,1,0,0:0:0:0:
232,177,286363,1,8,0:0:0:0:
234,177,286515,5,4,0:0:0:0:
234,180,286818,1,0,0:0:0:0:
232,177,286969,1,8,0:0:0:0:
264,149,287121,1,0,0:0:0:0:
232,177,287272,1,0,0:0:0:0:
232,177,287424,1,8,0:0:0:0:
241,144,287727,1,0,0:0:0:0:
241,144,287878,1,8,0:0:0:0:
265,192,288030,1,8,0:0:0:0:
241,144,288181,1,0,0:0:0:0:
241,144,288333,1,12,0:0:0:0:
112,146,288636,1,0,0:0:0:0:
191,116,288787,1,0,0:0:0:0:
264,149,288939,1,8,0:0:0:0:
264,149,289090,1,0,0:0:0:0:
264,149,289242,1,8,0:0:0:0:
265,149,289393,1,8,0:0:0:0:
265,149,289545,1,8,0:0:0:0:
265,149,289696,1,0,0:0:0:0:
265,149,289848,1,0,0:0:0:0:
264,149,289999,1,8,0:0:0:0:
264,149,290151,1,4,0:0:0:0:
234,180,290454,1,0,0:0:0:0:
232,177,290605,1,8,0:0:0:0:
264,149,290757,1,8,0:0:0:0:
232,177,290908,1,0,0:0:0:0:
232,177,291060,1,8,0:0:0:0:
241,144,291363,1,0,0:0:0:0:
241,144,291515,1,8,0:0:0:0:
265,192,291666,1,0,0:0:0:0:
241,144,291818,1,0,0:0:0:0:
241,144,291969,1,12,0:0:0:0:
112,146,292272,1,0,0:0:0:0:
191,116,292424,1,0,0:0:0:0:
264,149,292575,1,8,0:0:0:0:
264,149,292727,1,0,0:0:0:0:
264,149,292878,1,8,0:0:0:0:
234,151,292954,1,8,0:0:0:0:
265,149,293030,1,8,0:0:0:0:
194,146,293105,1,8,0:0:0:0:
256,224,293181,1,8,0:0:0:0:
234,151,293257,1,8,0:0:0:0:
265,149,293333,1,0,0:0:0:0:
265,149,293484,1,0,0:0:0:0:
264,149,293636,1,8,0:0:0:0:
264,149,293787,1,4,0:0:0:0:
234,180,294090,1,0,0:0:0:0:
232,177,294242,1,0,0:0:0:0:
264,149,294393,1,8,0:0:0:0:
232,177,294545,1,0,0:0:0:0:
232,177,294696,1,8,0:0:0:0:
241,144,294999,1,0,0:0:0:0:
241,144,295151,1,8,0:0:0:0:
265,192,295302,1,8,0:0:0:0:
241,144,295454,1,0,0:0:0:0:
241,144,295605,1,12,0:0:0:0:
112,146,295908,1,0,0:0:0:0:
191,116,296060,1,0,0:0:0:0:
264,149,296211,1,0,0:0:0:0:
264,149,296363,1,8,0:0:0:0:
264,149,296515,1,8,0:0:0:0:
265,149,296666,1,8,0:0:0:0:
265,149,296818,1,8,0:0:0:0:
265,149,296969,1,0,0:0:0:0:
265,149,297121,1,0,0:0:0:0:
264,149,297272,1,8,0:0:0:0:
264,149,297424,1,4,0:0:0:0:
234,180,297727,1,0,0:0:0:0:
232,177,297878,1,0,0:0:0:0:
264,149,298030,1,0,0:0:0:0:
232,177,298181,1,8,0:0:0:0:
232,177,298333,1,8,0:0:0:0:
241,144,298636,1,0,0:0:0:0:
241,144,298787,1,8,0:0:0:0:
265,192,298939,1,0,0:0:0:0:
241,144,299090,1,0,0:0:0:0:
241,144,299242,1,8,0:0:0:0:
266,191,299318,1,0,0:0:0:0:
62,130,299393,1,0,0:0:0:0:
196,146,299469,1,0,0:0:0:0:
112,146,299545,1,8,0:0:0:0:
191,116,299696,1,0,0:0:0:0:
264,149,299848,1,8,0:0:0:0:
264,149,299999,1,0,0:0:0:0:
192,128,300075,1,0,0:0:0:0:
264,149,300151,1,8,0:0:0:0:
265,192,300227,1,0,0:0:0:0:
265,192,300302,1,8,0:0:0:0:
196,146,300378,1,8,0:0:0:0:
265,149,300454,1,8,0:0:0:0:
265,149,300605,1,0,0:0:0:0:
266,191,300681,1,0,0:0:0:0:
265,149,300757,1,0,0:0:0:0:
264,149,300908,1,8,0:0:0:0:
264,149,301060,1,4,0:0:0:0:
234,180,301363,1,0,0:0:0:0:
232,177,301515,1,8,0:0:0:0:
264,149,301666,1,0,0:0:0:0:
232,177,301818,1,0,0:0:0:0:
232,177,301969,1,8,0:0:0:0:
241,144,302272,1,0,0:0:0:0:
241,144,302424,1,8,0:0:0:0:
265,192,302575,1,8,0:0:0:0:
241,144,302727,1,0,0:0:0:0:
241,144,302878,1,12,0:0:0:0:
112,146,303181,1,0,0:0:0:0:
191,116,303333,1,8,0:0:0:0:
264,149,303484,1,8,0:0:0:0:
264,149,303636,1,0,0:0:0:0:
264,149,303787,1,8,0:0:0:0:
265,149,303939,1,8,0:0:0:0:
265,149,304090,1,8,0:0:0:0:
265,149,304242,1,0,0:0:0:0:
265,149,304393,1,8,0:0:0:0:
264,149,304545,1,8,0:0:0:0:
264,149,304696,1,4,0:0:0:0:
234,180,304999,1,0,0:0:0:0:
232,177,305151,1,8,0:0:0:0:
264,149,305302,1,0,0:0:0:0:
232,177,305454,1,0,0:0:0:0:
232,177,305605,1,8,0:0:0:0:
241,144,305908,1,0,0:0:0:0:
241,144,306060,1,8,0:0:0:0:
265,192,306211,1,8,0:0:0:0:
241,144,306363,1,0,0:0:0:0:
241,144,306515,1,12,0:0:0:0:
112,146,306818,1,0,0:0:0:0:
191,116,306969,1,8,0:0:0:0:
264,149,307121,1,8,0:0:0:0:
264,149,307272,1,0,0:0:0:0:
264,149,307424,1,8,0:0:0:0:
237,162,307499,1,8,0:0:0:0:
265,149,307575,1,0,0:0:0:0:
311,131,307651,1,0,0:0:0:0:
265,149,307727,1,8,0:0:0:0:
265,149,307878,1,0,0:0:0:0:
192,192,307954,1,0,0:0:0:0:
265,149,308030,1,0,0:0:0:0:
264,149,308181,1,8,0:0:0:0:
264,149,308333,1,4,0:0:0:0:
234,180,308636,1,0,0:0:0:0:
232,177,308787,1,0,0:0:0:0:
264,149,308939,1,8,0:0:0:0:
232,177,309090,1,0,0:0:0:0:
232,177,309242,1,8,0:0:0:0:
241,144,309545,1,0,0:0:0:0:
241,144,309696,1,0,0:0:0:0:
265,192,309848,1,0,0:0:0:0:
241,144,309999,1,8,0:0:0:0:
241,144,310151,1,12,0:0:0:0:
112,146,310454,1,0,0:0:0:0:
191,116,310605,1,0,0:0:0:0:
264,149,310757,1,0,0:0:0:0:
264,149,310908,1,8,0:0:0:0:
264,149,311060,1,8,0:0:0:0:
265,149,311211,1,0,0:0:0:0:
265,149,311363,1,8,0:0:0:0:
265,149,311515,1,0,0:0:0:0:
265,149,311666,1,0,0:0:0:0:
264,149,311818,1,8,0:0:0:0:
264,149,311969,1,4,0:0:0:0:
234,180,312272,1,0,0:0:0:0:
232,177,312424,1,8,0:0:0:0:
264,149,312575,1,8,0:0:0:0:
232,177,312727,1,0,0:0:0:0:
232,177,312878,1,8,0:0:0:0:
241,144,313181,1,0,0:0:0:0:
241,144,313333,1,0,0:0:0:0:
265,192,313484,1,8,0:0:0:0:
241,144,313636,1,0,0:0:0:0:
241,144,313787,1,8,0:0:0:0:
234,171,313863,1,8,0:0:0:0:
126,161,313939,1,0,0:0:0:0:
206,174,314015,1,0,0:0:0:0:
112,146,314090,1,8,0:0:0:0:
191,116,314242,1,0,0:0:0:0:
232,177,314318,1,8,0:0:0:0:
264,149,314393,1,0,0:0:0:0:
196,146,314469,1,0,0:0:0:0:
264,149,314545,1,8,0:0:0:0:
264,149,314696,1,8,0:0:0:0:
234,171,314772,1,0,0:0:0:0:
265,149,314848,1,8,0:0:0:0:
207,175,314924,1,0,0:0:0:0:
265,149,314999,1,8,0:0:0:0:
265,149,315151,1,0,0:0:0:0:
265,149,315302,1,8,0:0:0:0:
264,149,315454,1,8,0:0:0:0:
264,149,315605,1,4,0:0:0:0:
101,116,315908,1,0,0:0:0:0:
356,109,316060,1,8,0:0:0:0:
69,136,316211,1,0,0:0:0:0:
388,126,316363,1,0,0:0:0:0:
170,125,316515,1,0,0:0:0:0:
256,177,316818,1,0,0:0:0:0:
256,177,316969,1,8,0:0:0:0:
256,177,317121,1,8,0:0:0:0:
256,177,317272,1,0,0:0:0:0:
256,177,317424,1,0,0:0:0:0:
279,147,317727,1,0,0:0:0:0:
242,164,317878,1,8,0:0:0:0:
242,164,318030,1,8,0:0:0:0:
242,164,318181,1,8,0:0:0:0:
242,164,318333,1,8,0:0:0:0:
250,168,318484,1,8,0:0:0:0:
129,162,318560,1,8,0:0:0:0:
250,168,318636,1,0,0:0:0:0:
319,134,318711,1,0,0:0:0:0:
250,168,318787,1,8,0:0:0:0:
196,146,318939,1,0,0:0:0:0:
250,168,319090,1,8,0:0:0:0:
257,184,319242,1,4,0:0:0:0:
101,116,319545,1,0,0:0:0:0:
356,109,319696,1,8,0:0:0:0:
69,136,319848,1,8,0:0:0:0:
388,126,319999,1,8,0:0:0:0:
170,125,320151,1,0,0:0:0:0:
101,116,320454,1,0,0:0:0:0:
356,109,320605,1,8,0:0:0:0:
69,136,320757,1,8,0:0:0:0:
388,126,320908,1,8,0:0:0:0:
170,125,321060,1,8,0:0:0:0:
136,133,321211,1,8,0:0:0:0:
212,140,321287,1,8,0:0:0:0:
29,145,321363,1,8,0:0:0:0:
356,109,321515,1,8,0:0:0:0:
69,136,321666,1,8,0:0:0:0:
280,168,321742,1,0,0:0:0:0:
388,126,321818,1,8,0:0:0:0:
207,175,321893,1,0,0:0:0:0:
170,125,321969,1,8,0:0:0:0:
117,126,322121,1,8,0:0:0:0:
117,126,322196,1,8,0:0:0:0:
117,126,322272,1,8,0:0:0:0:
117,126,322424,1,8,0:0:0:0:
163,159,322575,1,8,0:0:0:0:
163,159,322727,1,8,0:0:0:0:
163,159,322878,1,4,0:0:0:0:
101,116,323181,1,0,0:0:0:0:
356,109,323333,1,8,0:0:0:0:
69,136,323484,1,8,0:0:0:0:
388,126,323636,1,8,0:0:0:0:
170,125,323787,1,0,0:0:0:0:
101,116,324090,1,0,0:0:0:0:
356,109,324242,1,8,0:0:0:0:
69,136,324393,1,8,0:0:0:0:
388,126,324545,1,8,0:0:0:0:
170,125,324696,1,0,0:0:0:0:
101,116,324999,1,0,0:0:0:0:
356,109,325151,1,8,0:0:0:0:
69,136,325302,1,8,0:0:0:0:
388,126,325454,1,8,0:0:0:0:
170,125,325605,1,8,0:0:0:0:
119,126,325757,1,8,0:0:0:0:
130,123,325833,1,8,0:0:0:0:
130,123,325908,1,0,0:0:0:0:
319,134,325984,1,0,0:0:0:0:
130,123,326060,1,8,0:0:0:0:
130,123,326211,1,8,0:0:0:0:
115,191,326287,1,8,0:0:0:0:
130,123,326363,1,8,0:0:0:0:
130,123,326515,1,4,0:0:0:0:
101,116,326818,1,0,0:0:0:0:
356,109,326969,1,8,0:0:0:0:
69,136,327121,1,8,0:0:0:0:
388,126,327272,1,8,0:0:0:0:
170,125,327424,1,0,0:0:0:0:
101,116,327727,1,0,0:0:0:0:
356,109,327878,1,8,0:0:0:0:
69,136,328030,1,8,0:0:0:0:
388,126,328181,1,8,0:0:0:0:
170,125,328333,1,0,0:0:0:0:
207,175,328408,1,0,0:0:0:0:
239,158,328484,1,8,0:0:0:0:
250,167,328560,1,8,0:0:0:0:
101,116,328636,1,0,0:0:0:0:
192,128,328711,1,0,0:0:0:0:
356,109,328787,1,0,0:0:0:0:
256,224,328863,1,0,0:0:0:0:
69,136,328939,1,8,0:0:0:0:
250,167,329015,1,8,0:0:0:0:
388,126,329090,1,0,0:0:0:0:
170,125,329242,1,0,0:0:0:0:
256,224,329318,1,0,0:0:0:0:
132,145,329393,1,0,0:0:0:0:
192,145,329469,1,0,0:0:0:0:
132,145,329545,1,0,0:0:0:0:
132,145,329696,1,8,0:0:0:0:
192,96,329772,1,8,0:0:0:0:
192,96,329848,1,8,0:0:0:0:
192,96,329924,1,8,0:0:0:0:
143,198,329999,1,8,0:0:0:0:
162,92,330151,1,4,0:0:0:0:
256,192,330302,12,0,342878,0:0:0:0:
