osu file format v14

[General]
AudioFilename: Within Temptation - Iron.mp3
AudioLeadIn: 0
PreviewTime: 183787
Countdown: 0
SampleSet: Normal
StackLeniency: 0.7
Mode: 0
LetterboxInBreaks: 0
WidescreenStoryboard: 0
SamplesMatchPlaybackRate: 1

[Editor]
Bookmarks: 53807
DistanceSpacing: 1.4
BeatDivisor: 6
GridSize: 4
TimelineZoom: 2.1

[Metadata]
Title:Iron
TitleUnicode:Iron
Artist:Within Temptation
ArtistUnicode:Within Temptation
Creator:Baraatje123
Version:Corrosion
Source:
Tags:The Unforgiving Sharon den Adel Symphonic Metal Gothic
BeatmapID:746090
BeatmapSetID:337186

[Difficulty]
HPDrainRate:5
CircleSize:4
OverallDifficulty:9
ApproachRate:8.8
SliderMultiplier:2
SliderTickRate:3

[Events]
//Background and Video events
0,0,"Background.jpg",0,0
//Break Periods
2,144896,146795
//Storyboard Layer 0 (Background)
//Storyboard Layer 1 (Fail)
//Storyboard Layer 2 (Pass)
//Storyboard Layer 3 (Foreground)
//Storyboard Sound Samples

[TimingPoints]
6515,454.545454545455,4,1,1,70,1,0
82878,-83.3333333333333,4,1,1,70,0,0
97424,-66.6666666666667,4,1,1,70,0,1
122878,-88.8888888888889,4,1,1,100,0,1
126515,-76.9230769230769,4,1,1,70,0,0
130151,-100,4,1,1,70,0,1
131969,-153.846153846154,4,1,1,70,0,0
133787,-76.9230769230769,4,1,1,70,0,0
137424,-76.9230769230769,4,1,1,70,0,1
141060,-133.333333333333,4,1,1,70,0,0
141211,-133.333333333333,4,1,1,20,0,0
147424,-133.333333333333,4,1,1,50,0,0
148333,-100,4,1,1,70,0,0
170151,-83.3333333333333,4,1,1,70,0,0
184696,-66.6666666666667,4,1,1,70,0,1
213787,-200,4,2,1,70,0,0
241060,-400,4,2,1,20,0,0
242878,-100,4,1,1,70,0,0
257424,-57.1428571428571,4,1,1,70,0,1
271969,-83.3333333333333,4,1,1,70,0,0
286515,-50,4,1,1,100,0,1
315530,-50,4,1,1,70,0,0
315605,-76.9230769230769,4,1,1,100,0,1
330151,-76.9230769230769,4,1,1,70,0,0
331969,-76.9230769230769,4,1,1,60,0,0
333787,-76.9230769230769,4,1,1,50,0,0
335605,-76.9230769230769,4,1,1,40,0,0
337424,-76.9230769230769,4,1,1,30,0,0
339242,-76.9230769230769,4,1,1,20,0,0
341060,-76.9230769230769,4,1,1,15,0,0
342878,-76.9230769230769,4,1,1,10,0,0
344696,-76.9230769230769,4,1,1,5,0,0

[Colours]
Combo1 : 0,0,255
Combo2 : 255,0,0
Combo3 : 128,0,255
Combo4 : 255,0,128

[HitObjects]
128,52,10151,6,0,B|156:112|156:112|140:220,1,133.333333333333,4|0,0:0|0:0,0:0:0:0:
184,256,10605,2,0,L|168:328,2,66.6666666666667,8|0|0,0:0|0:0|0:0,0:0:0:0:
264,292,11060,2,0,B|292:232|292:232|276:124,1,133.333333333333
320,88,11514,2,0,L|304:16,2,66.6666666666667,8|0|0,0:0|0:0|0:0,0:0:0:0:
360,164,11969,6,0,B|372:228|372:228|336:328,1,133.333333333333
300,364,12423,1,8,0:0:0:0:
256,288,12575,1,0,0:0:0:0:
212,364,12726,1,0,0:0:0:0:
300,364,12878,2,0,B|332:368|332:368|376:356,2,66.6666666666667
256,288,13332,2,0,B|224:280|224:280|176:284,2,66.6666666666667,8|0|0,0:0|0:0|0:0,0:0:0:0:
336,252,13787,6,0,B|396:224|396:224|405:157,1,133.333333333333,4|0,0:0|0:0,0:0:0:0:
336,104,14241,2,0,L|336:32,2,66.6666666666667,8|0|0,0:0|0:0|0:0,0:0:0:0:
267,158,14696,2,0,B|276:224|276:224|336:252,1,133.333333333333
272,312,15151,1,8,0:0:0:0:
188,284,15302,1,0,0:0:0:0:
189,196,15454,1,0,0:0:0:0:
266,157,15605,6,0,B|332:144|332:144|408:144,1,133.333333333333
452,216,16060,1,8,0:0:0:0:
380,264,16211,1,8,0:0:0:0:
296,236,16363,1,8,0:0:0:0:
266,157,16514,2,8,L|280:84,2,66.6666666666667,12|8|12,0:0|0:0|0:0,0:0:0:0:
245,253,16969,2,8,L|301:301,2,66.6666666666667,8|12|8,0:0|0:0|0:0,0:0:0:0:
172,188,17424,6,0,B|122:143|122:143|42:123,1,133.333333333333,12|0,0:0|0:0,0:0:0:0:
78,219,17878,1,8,0:0:0:0:
66,303,18030,1,0,0:0:0:0:
148,272,18181,1,0,0:0:0:0:
172,188,18333,2,0,B|222:143|222:143|302:123,1,133.333333333333
266,219,18787,1,8,0:0:0:0:
278,303,18939,1,0,0:0:0:0:
342,359,19090,1,0,0:0:0:0:
428,368,19242,6,0,B|460:308|460:308|456:224,1,133.333333333333
424,160,19696,1,8,0:0:0:0:
368,92,19848,1,0,0:0:0:0:
332,172,19999,1,0,0:0:0:0:
424,160,20151,2,0,B|460:156|460:156|504:160,2,66.6666666666667
368,92,20605,1,8,0:0:0:0:
328,176,20757,1,0,0:0:0:0:
304,264,20908,1,0,0:0:0:0:
216,244,21060,6,0,B|148:248|148:248|88:200,1,133.333333333333,4|0,0:0|0:0,0:0:0:0:
176,160,21514,2,0,B|184:132|184:132|184:84,2,66.6666666666667,8|0|0,0:0|0:0|0:0,0:0:0:0:
216,244,21969,2,0,B|284:248|284:248|344:200,1,133.333333333333
360,124,22423,2,0,B|352:96|352:96|352:48,2,66.6666666666667,8|0|0,0:0|0:0|0:0,0:0:0:0:
440,88,22878,6,0,B|440:156|440:156|400:220,1,133.333333333333
400,352,23333,1,8,0:0:0:0:
400,352,23408,1,8,0:0:0:0:
400,352,23484,1,8,0:0:0:0:
324,64,23635,1,8,0:0:0:0:
324,320,23787,1,12,0:0:0:0:
256,104,23938,1,8,0:0:0:0:
256,280,24090,1,12,0:0:0:0:
188,140,24241,1,8,0:0:0:0:
188,244,24393,1,12,0:0:0:0:
112,212,24545,1,8,0:0:0:0:
40,316,24696,6,0,B|20:252|20:252|40:188,1,133.333333333333,12|0,0:0|0:0,0:0:0:0:
256,188,25151,2,0,B|276:252|276:252|256:316,1,133.333333333333,8|0,0:0|0:0,0:0:0:0:
192,168,25606,2,0,B|256:188|256:188|392:148,1,200,0|8,0:0|0:0,0:0:0:0:
352,40,26212,1,0,0:0:0:0:
332,256,26363,1,0,0:0:0:0:
204,80,26515,6,0,B|136:92|136:92|104:152,1,133.333333333333
192,168,26969,1,8,0:0:0:0:
352,40,27121,1,0,0:0:0:0:
332,256,27272,1,0,0:0:0:0:
204,80,27424,2,0,B|136:92|136:92|104:152,1,133.333333333333
224,296,27878,1,8,0:0:0:0:
320,144,28030,1,0,0:0:0:0:
403,303,28181,1,0,0:0:0:0:
224,296,28333,6,0,B|164:320|164:320|64:320,1,133.333333333333,4|0,0:0|0:0,0:0:0:0:
192,168,28787,2,0,B|252:144|252:144|352:144,1,133.333333333333,8|0,0:0|0:0,0:0:0:0:
380,68,29242,2,0,B|248:68|248:68|180:92,1,200,0|8,0:0|0:0,0:0:0:0:
256,248,29848,1,0,0:0:0:0:
380,68,29999,1,0,0:0:0:0:
256,248,30151,6,0,B|320:264|320:264|404:232,1,133.333333333333
380,68,30605,1,8,0:0:0:0:
380,68,30680,1,8,0:0:0:0:
380,68,30756,1,8,0:0:0:0:
304,356,30907,1,8,0:0:0:0:
304,100,31059,1,12,0:0:0:0:
236,316,31210,1,8,0:0:0:0:
236,140,31362,1,12,0:0:0:0:
168,176,31513,1,8,0:0:0:0:
80,212,31665,1,12,0:0:0:0:
92,117,31818,1,8,0:0:0:0:
168,176,31969,6,0,B|158:241|158:241|160:320,1,133.333333333333,12|0,0:0|0:0,0:0:0:0:
312,152,32424,1,8,0:0:0:0:
256,48,32575,1,0,0:0:0:0:
168,176,32727,1,0,0:0:0:0:
312,152,32878,2,0,B|322:217|322:217|320:296,1,133.333333333333,8|0,0:0|0:0,0:0:0:0:
168,176,33333,1,8,0:0:0:0:
226,37,33485,1,0,0:0:0:0:
312,152,33636,1,0,0:0:0:0:
168,176,33788,6,0,B|100:172|100:172|36:200,1,133.333333333333
108,264,34242,2,0,B|176:268|176:268|240:240,1,133.333333333333,8|0,0:0|0:0,0:0:0:0:
316,288,34697,2,0,B|192:344|192:344|108:340,1,200,0|8,0:0|0:0,0:0:0:0:
108,264,35303,1,0,0:0:0:0:
206,158,35454,1,0,0:0:0:0:
316,288,35606,6,0,B|326:223|326:223|302:147,1,133.333333333333,4|0,0:0|0:0,0:0:0:0:
196,288,36060,1,8,0:0:0:0:
256,384,36212,1,0,0:0:0:0:
316,288,36363,1,0,0:0:0:0:
196,288,36515,2,0,B|186:223|186:223|210:147,1,133.333333333333
316,288,36969,1,8,0:0:0:0:
256,384,37121,1,0,0:0:0:0:
196,288,37272,1,0,0:0:0:0:
316,288,37424,6,0,B|384:292|384:292|448:264,1,133.333333333333,4|4,0:0|0:0,0:0:0:0:
336,148,37879,1,8,0:0:0:0:
336,148,37954,1,8,0:0:0:0:
336,148,38030,1,12,0:0:0:0:
132,292,38182,1,8,0:0:0:0:
380,292,38333,1,12,0:0:0:0:
176,148,38485,1,8,0:0:0:0:
336,148,38636,1,12,0:0:0:0:
380,292,38788,1,8,0:0:0:0:
256,384,38939,1,12,0:0:0:0:
132,292,39090,1,8,0:0:0:0:
336,148,39242,6,0,B|404:152|404:152|448:212,1,133.333333333333,12|0,0:0|0:0,0:0:0:0:
199,114,39697,2,0,B|203:46|203:46|256:8,1,133.333333333333,8|0,0:0|0:0,0:0:0:0:
165,250,40151,2,0,B|96:246|96:246|58:193,1,133.333333333333
300,284,40606,2,0,B|296:352,1,66.6666666666667,8|0,0:0|0:0,0:0:0:0:
172,368,40909,1,0,0:0:0:0:
472,196,41060,6,0,B|472:144|472:144|472:112|444:84|404:84|404:84|352:84,2,200,0|8|0,0:0|0:0|0:0,0:0:0:0:
420,328,42121,1,0,0:0:0:0:
340,212,42273,1,0,0:0:0:0:
256,364,42424,1,8,0:0:0:0:
172,212,42576,1,0,0:0:0:0:
92,328,42727,1,0,0:0:0:0:
40,196,42879,6,0,B|40:144|40:144|40:112|68:84|100:84|100:84|160:84,2,200,4|8|0,0:0|0:0|0:0,0:0:0:0:
96,324,43939,1,0,0:0:0:0:
176,208,44091,1,0,0:0:0:0:
176,208,44242,2,0,L|204:144,2,66.6666666666667,8|0|0,0:0|0:0|0:0,0:0:0:0:
335,207,44696,1,4,0:0:0:0:
336,208,44999,1,8,0:0:0:0:
408,80,45151,5,8,0:0:0:0:
408,80,45227,1,8,0:0:0:0:
408,80,45303,1,8,0:0:0:0:
256,192,45455,1,8,0:0:0:0:
104,80,45606,1,12,0:0:0:0:
108,292,45758,1,8,0:0:0:0:
112,104,45909,1,12,0:0:0:0:
116,268,46061,1,12,0:0:0:0:
120,128,46212,1,8,0:0:0:0:
124,244,46364,1,8,0:0:0:0:
308,64,46515,6,0,B|376:64|376:64|424:112|424:112|492:112,2,200,12|8|0,0:0|0:0|0:0,0:0:0:0:
196,152,47576,1,0,0:0:0:0:
360,212,47727,1,0,0:0:0:0:
256,364,47879,1,8,0:0:0:0:
152,212,48030,1,0,0:0:0:0:
316,152,48182,1,0,0:0:0:0:
204,64,48333,6,0,B|136:64|136:64|88:112|88:112|23:112,2,200,0|8|0,0:0|0:0|0:0,0:0:0:0:
316,152,49393,1,0,0:0:0:0:
152,212,49544,1,0,0:0:0:0:
256,364,49696,1,8,0:0:0:0:
360,212,49847,1,0,0:0:0:0:
196,152,49999,1,0,0:0:0:0:
308,64,50152,6,0,B|376:64|376:64|424:112|424:112|488:112,2,200,0|8|0,0:0|0:0|0:0,0:0:0:0:
196,152,51211,1,0,0:0:0:0:
316,152,51363,1,0,0:0:0:0:
196,152,51514,2,0,L|172:216,2,66.6666666666667,8|0|0,0:0|0:0|0:0,0:0:0:0:
316,152,51969,5,4,0:0:0:0:
316,152,52272,1,8,0:0:0:0:
416,72,52423,1,8,0:0:0:0:
416,72,52499,1,8,0:0:0:0:
416,72,52575,1,8,0:0:0:0:
376,296,52726,1,8,0:0:0:0:
256,100,52878,1,8,0:0:0:0:
136,296,53030,1,8,0:0:0:0:
96,72,53181,1,8,0:0:0:0:
376,296,53333,1,8,0:0:0:0:
136,296,53484,1,8,0:0:0:0:
416,72,53636,1,8,0:0:0:0:
136,296,53787,6,0,P|88:292|188:172,1,333.333333333333,12|0,0:0|0:0,0:0:0:0:
208,204,54696,2,0,P|196:156|220:76,1,133.333333333333
300,148,55151,1,8,0:0:0:0:
300,148,55302,1,0,0:0:0:0:
300,148,55454,1,0,0:0:0:0:
304,224,55605,6,0,B|312:292|312:292|356:348,1,133.333333333333
436,304,56060,1,8,0:0:0:0:
440,212,56211,1,0,0:0:0:0:
388,136,56363,1,0,0:0:0:0:
392,44,56514,2,0,P|336:60|296:124,1,133.333333333333
215,120,56969,2,0,P|181:64|120:44,1,133.333333333333,8|0,0:0|0:0,0:0:0:0:
124,136,57423,6,0,B|128:204|128:204|104:272,1,133.333333333333
172,320,57878,1,8,0:0:0:0:
256,216,58030,1,0,0:0:0:0:
340,320,58181,1,0,0:0:0:0:
405,265,58333,2,0,B|384:204|384:204|388:136,1,133.333333333333
432,68,58787,1,8,0:0:0:0:
352,44,58939,1,0,0:0:0:0:
276,12,59090,1,0,0:0:0:0:
196,32,59242,6,0,P|204:56|176:156,1,133.333333333333
349,283,59696,1,8,0:1:0:0:
134,283,59848,1,8,0:3:0:0:
308,156,59999,1,8,0:3:0:0:
242,362,60151,1,8,0:3:0:0:
270,362,60454,5,8,0:3:0:0:
204,156,60605,1,8,0:1:0:0:
378,283,60757,1,8,0:3:0:0:
163,283,60908,1,8,0:3:0:0:
336,156,61060,6,0,P|365:97|356:32,1,133.333333333333,12|0,0:3|0:0,0:0:0:0:
412,228,61514,2,0,P|353:257|287:248,1,133.333333333333,8|0,0:0|0:0,0:0:0:0:
336,156,61969,2,0,B|400:136|400:136|420:56,2,133.333333333333
256,64,62726,1,0,0:0:0:0:
176,156,62878,6,0,B|112:136|112:136|92:56,1,133.333333333333
20,80,63333,2,0,L|52:224,1,133.333333333333,8|0,0:0|0:0,0:0:0:0:
104,300,63787,1,0,0:0:0:0:
184,228,63939,2,0,L|120:212,1,66.6666666666667
132,320,64242,1,8,0:0:0:0:
268,300,64393,2,0,L|259:233,1,66.6666666666667
328,364,64696,6,0,P|400:344|420:260,1,133.333333333333
356,165,65151,2,0,P|292:178|260:234,1,133.333333333333,8|0,0:0|0:0,0:0:0:0:
320,92,65605,2,0,P|264:108|200:176,2,133.333333333333
428,188,66363,1,0,0:0:0:0:
320,292,66515,6,0,P|264:276|200:208,1,133.333333333333
320,92,66969,1,8,0:1:0:0:
256,16,67121,1,8,0:3:0:0:
192,92,67272,1,8,0:3:0:0:
256,168,67424,1,8,0:3:0:0:
256,168,67727,5,8,0:3:0:0:
256,16,67878,1,8,0:1:0:0:
172,116,68030,1,8,0:3:0:0:
344,144,68181,1,8,0:3:0:0:
209,225,68333,6,0,P|192:256|204:360,1,133.333333333333,12|0,0:1|0:0,0:0:0:0:
313,350,68787,2,0,P|326:286|303:225,1,133.333333333333,8|0,0:0|0:0,0:0:0:0:
256,164,69242,2,0,P|320:177|381:153,2,133.333333333333
312,56,69999,1,0,0:0:0:0:
423,216,70151,6,0,P|364:245|298:253,1,133.333333333333
88,216,70606,2,0,P|147:245|213:253,1,133.333333333333,8|0,0:0|0:0,0:0:0:0:
300,163,71060,2,0,P|255:93|212:164,1,200,0|8,0:0|0:0,0:0:0:0:
256,296,71666,1,0,0:0:0:0:
300,163,71818,1,0,0:0:0:0:
256,296,71969,6,0,B|192:296|192:296|184:300|184:300|120:300,1,133.333333333333
256,296,72424,2,0,B|320:296|320:296|328:300|328:300|392:300,1,133.333333333333,8|0,0:0|0:0,0:0:0:0:
256,192,72878,2,0,B|256:132|256:132|260:132|260:132|252:132|252:132|256:132|256:132|256:56,2,133.333333333333
256,296,73636,1,0,0:0:0:0:
324,240,73787,6,0,B|340:216|340:176|328:160|328:160|328:148|328:148|332:128|332:128|327:111|327:111|328:100,1,133.333333333333
184,111,74242,2,0,B|180:128|180:128|184:148|184:148|184:160|184:160|172:176|172:216|188:240,1,133.333333333333,8|0,0:0|0:0,0:0:0:0:
256,296,74696,1,0,0:0:0:0:
256,296,74999,5,8,0:3:0:0:
324,240,75151,1,8,0:1:0:0:
184,112,75302,1,8,0:3:0:0:
328,112,75454,1,8,0:3:0:0:
188,240,75606,6,0,B|156:232|156:232|96:268|48:220,1,133.333333333333,12|0,0:1|0:0,0:0:0:0:
324,240,76060,2,0,B|356:232|356:232|416:268|464:220,1,133.333333333333,8|0,0:0|0:0,0:0:0:0:
324,320,76515,2,0,P|272:300|252:208,1,133.333333333333
328,112,76969,1,8,0:0:0:0:
256,40,77121,1,0,0:0:0:0:
184,112,77273,1,0,0:0:0:0:
328,112,77424,6,0,B|372:112|392:92|392:92|404:128|476:92|472:180,2,200,0|8|0,0:0|0:0|0:0,0:0:0:0:
188,196,78484,1,0,0:0:0:0:
316,284,78636,1,0,0:0:0:0:
256,116,78787,1,8,0:0:0:0:
196,284,78940,1,0,0:0:0:0:
324,196,79091,1,0,0:0:0:0:
184,112,79243,6,0,B|140:112|120:92|120:92|108:128|36:92|39:178,2,200,0|8|0,0:0|0:0|0:0,0:0:0:0:
276,116,80302,2,0,P|316:104|344:80,1,66.6666666666667
324,196,80605,2,0,P|388:203|460:192,1,133.333333333333,8|0,0:0|0:0,0:0:0:0:
320,300,81060,6,0,P|264:280|224:192,1,133.333333333333
324,196,81515,1,8,0:0:0:0:
156,104,81666,1,8,0:3:0:0:
256,32,81818,1,8,0:3:0:0:
356,104,81970,1,8,0:3:0:0:
324,196,82121,1,8,0:3:0:0:
256,360,82272,1,8,0:0:0:0:
188,196,82424,1,8,0:0:0:0:
356,288,82575,1,8,0:0:0:0:
156,288,82727,1,8,0:0:0:0:
324,196,82878,6,0,B|404:176|404:176|424:80,1,159.999995117188,12|0,0:0|0:0,0:0:0:0:
93,100,83333,2,0,B|108:176|108:176|188:196,1,159.999995117188,8|0,0:0|0:0,0:0:0:0:
336,112,83787,1,0,0:0:0:0:
256,48,83939,1,0,0:0:0:0:
176,112,84090,1,0,0:0:0:0:
324,196,84243,1,8,0:0:0:0:
256,48,84393,1,0,0:0:0:0:
188,196,84546,1,0,0:0:0:0:
336,112,84696,6,0,L|444:104,1,79.9999975585938
256,48,84999,1,0,0:0:0:0:
97,106,85152,2,0,L|176:112,1,79.9999975585938,8|0,0:0|0:0,0:0:0:0:
256,192,85454,1,0,0:0:0:0:
176,240,85605,2,0,B|200:280|256:308|312:280|336:240,1,159.999995117188
256,192,86059,1,8,0:0:0:0:
133,158,86210,1,8,0:0:0:0:
91,279,86362,1,8,0:0:0:0:
256,192,86515,6,0,P|280:160|404:156,1,159.999995117188,12|0,0:0|0:0,0:0:0:0:
256,192,86970,2,0,P|224:168|220:44,1,159.999995117188,8|0,0:0|0:0,0:0:0:0:
336,236,87423,2,0,P|312:268|264:284,1,79.9999975585938
256,192,87727,1,0,0:0:0:0:
244,76,87879,2,0,P|207:92|184:124,1,79.9999975585938,8|0,0:0|0:0,0:0:0:0:
256,192,88181,1,0,0:0:0:0:
112,188,88333,6,0,P|92:132|144:36,1,159.999995117188
400,188,88788,2,0,P|420:132|368:36,1,159.999995117188,8|0,0:0|0:0,0:0:0:0:
256,112,89242,2,0,L|256:284,1,159.999995117188
356,340,89696,1,8,0:0:0:0:
152,220,89848,1,8,0:0:0:0:
356,100,89999,1,8,0:0:0:0:
156,340,90151,6,0,P|96:356|116:288,1,159.999995117188,12|0,0:0|0:0,0:0:0:0:
356,340,90605,2,0,P|416:356|396:288,1,159.999995117188,8|0,0:0|0:0,0:0:0:0:
172,148,91060,1,0,0:0:0:0:
320,192,91211,1,0,0:0:0:0:
356,340,91363,1,0,0:0:0:0:
468,148,91515,1,8,0:0:0:0:
320,192,91666,1,0,0:0:0:0:
284,340,91818,1,0,0:0:0:0:
172,148,91969,6,0,B|136:32|136:32|136:80,1,159.999995117188
104,196,92424,2,8,P|136:224|244:184,1,159.999995117188,8|0,0:0|0:0,0:0:0:0:
344,80,92878,1,0,0:0:0:0:
316,264,93030,1,0,0:0:0:0:
172,148,93181,1,0,0:0:0:0:
344,80,93333,1,8,0:0:0:0:
196,264,93484,1,8,0:0:0:0:
344,80,93636,1,8,0:0:0:0:
344,80,93787,6,0,B|384:64|384:64|412:92|412:92|432:64|460:56|496:60|520:84|528:128|480:160,2,239.999992675781,12|8|0,0:0|0:0|0:0,0:0:0:0:
176,192,94848,1,0,0:0:0:0:
376,280,94999,1,0,0:0:0:0:
256,92,95151,1,8,0:0:0:0:
136,280,95302,1,0,0:0:0:0:
336,192,95453,1,0,0:0:0:0:
168,80,95605,6,8,B|128:72|128:72|96:84|96:84|68:60|32:56|-8:68|-36:112|-20:168,1,239.999992675781,12|8,0:0|0:0,0:0:0:0:
48,136,96136,1,8,0:0:0:0:
52,144,96211,1,8,0:0:0:0:
56,152,96287,1,8,0:0:0:0:
60,160,96363,1,8,0:0:0:0:
64,168,96439,1,8,0:0:0:0:
68,176,96515,5,12,0:0:0:0:
384,68,96666,1,8,0:0:0:0:
176,332,96818,1,8,0:0:0:0:
256,128,96969,1,8,0:0:0:0:
336,332,97121,1,8,0:0:0:0:
128,68,97272,1,8,0:0:0:0:
444,176,97424,6,0,P|504:156|416:120,1,200.000007629395,12|0,0:0|0:0,0:0:0:0:
68,176,97879,2,0,P|8:156|96:120,1,200.000007629395,8|0,0:0|0:0,0:0:0:0:
256,192,98333,2,0,L|256:308,1,100.000003814697
344,232,98636,1,0,0:0:0:0:
168,232,98787,1,8,0:0:0:0:
416,296,98939,1,0,0:0:0:0:
96,296,99090,1,0,0:0:0:0:
344,232,99242,6,0,P|424:204|512:276,1,200.000007629395
436,205,99697,2,0,P|408:125|480:37,1,200.000007629395,8|0,0:0|0:0,0:0:0:0:
409,113,100151,2,0,P|329:141|241:69,1,200.000007629395
337,40,100605,1,8,0:0:0:0:
256,232,100757,1,8,0:0:0:0:
175,40,100909,1,8,0:0:0:0:
268,76,101060,6,0,P|195:139|103:113,1,200.000007629395,8|0,0:0|0:0,0:0:0:0:
39,39,101515,2,0,P|102:112|75:205,1,200.000007629395,8|0,0:0|0:0,0:0:0:0:
2,268,101969,2,0,P|75:205|168:232,1,200.000007629395
368,312,102424,1,8,0:0:0:0:
368,71,102575,1,0,0:0:0:0:
256,304,102727,1,0,0:0:0:0:
256,80,102878,6,0,B|164:40|164:40|52:40,1,200.000007629395
64,344,103333,2,0,B|164:344|164:344|256:304,1,200.000007629395,8|0,0:0|0:0,0:0:0:0:
384,192,103787,1,8,0:0:0:0:
384,192,103863,1,8,0:0:0:0:
384,192,103939,1,8,0:0:0:0:
256,80,104090,1,8,0:0:0:0:
151,279,104242,1,8,0:0:0:0:
320,44,104393,1,8,0:0:0:0:
20,176,104545,1,8,0:0:0:0:
255,241,104696,6,8,P|227:324|152:280,1,200.000007629395,12|0,0:0|0:0,0:0:0:0:
255,142,105152,2,0,P|227:59|152:104,1,200.000007629395,8|0,0:0|0:0,0:0:0:0:
255,241,105605,1,0,0:0:0:0:
512,158,105757,1,0,0:0:0:0:
351,288,105908,1,0,0:0:0:0:
512,158,106061,1,8,0:0:0:0:
351,288,106211,1,0,0:0:0:0:
318,83,106363,1,0,0:0:0:0:
172,194,106515,6,0,B|132:50|132:50|132:130,1,200.000007629395
88,242,106969,2,0,P|136:282|260:230,1,200.000007629395,8|0,0:0|0:0,0:0:0:0:
352,96,107424,1,0,0:0:0:0:
256,344,107575,1,0,0:0:0:0:
160,96,107727,1,0,0:0:0:0:
254,240,107878,2,0,P|337:288|420:242,1,200.000007629395,8|8,0:0|0:0,0:0:0:0:
377,100,108333,6,0,B|377:50|377:50|337:194,1,200.000007629395,8|0,0:0|0:0,0:0:0:0:
145,98,108787,2,0,B|94:98|94:98|238:138,1,200.000007629395,8|0,0:0|0:0,0:0:0:0:
142,330,109242,2,0,B|142:380|142:380|182:236,1,200.000007629395
374,333,109696,2,0,B|424:333|424:333|280:293,1,200.000007629395,8|0,0:0|0:0,0:0:0:0:
392,98,110151,5,0,0:0:0:0:
236,132,110302,1,0,0:0:0:0:
342,250,110454,1,0,0:0:0:0:
428,124,110606,5,8,0:0:0:0:
240,88,110757,1,0,0:0:0:0:
301,268,110909,1,0,0:0:0:0:
453,167,111061,5,8,0:0:0:0:
264,45,111212,1,8,0:0:0:0:
252,268,111364,1,8,0:0:0:0:
463,228,111515,5,8,0:0:0:0:
312,5,111667,1,8,0:0:0:0:
194,246,111818,1,8,0:0:0:0:
463,228,111969,6,0,B|452:380|452:380|420:316,1,200.000007629395,12|0,0:0|0:0,0:0:0:0:
212,268,112424,2,0,B|190:225|190:225|179:377,1,200.000007629395,8|0,0:0|0:0,0:0:0:0:
463,228,112878,1,0,0:0:0:0:
346,106,113030,1,0,0:0:0:0:
300,268,113181,1,0,0:0:0:0:
463,228,113333,2,0,P|484:192|436:48,1,200.000007629395,8|0,0:0|0:0,0:0:0:0:
71,51,113788,6,0,P|21:134|49:228,1,200.000007629395
212,268,114242,1,8,0:0:0:0:
166,106,114393,1,0,0:0:0:0:
49,228,114545,1,0,0:0:0:0:
212,268,114696,2,8,L|316:268,2,100.000003814697,0|0|0,0:0|0:0|0:0,0:0:0:0:
212,115,115151,1,8,0:0:0:0:
343,192,115302,2,8,L|291:102,1,100.000003814697
144,292,115605,6,0,P|72:332|120:256,1,200.000007629395,8|0,0:0|0:0,0:0:0:0:
428,253,116060,2,0,P|436:334|368:292,1,200.000007629395,8|0,0:0|0:0,0:0:0:0:
367,91,116515,2,0,P|436:49|428:130,1,200.000007629395
292,104,116969,2,0,P|296:64|324:8,2,100.000003814697,8|0|0,0:0|0:0|0:0,0:0:0:0:
328,272,117424,5,4,0:0:0:0:
160,272,117575,1,0,0:0:0:0:
48,132,117727,1,0,0:0:0:0:
188,20,117878,2,0,P|213:62|220:111,1,100.000003814697,8|0,0:0|0:0,0:0:0:0:
420,124,118182,2,0,P|378:149|329:156,1,100.000003814697,0|8,0:0|0:0,0:0:0:0:
120,104,118484,1,8,0:0:0:0:
120,104,118560,1,8,0:0:0:0:
120,104,118636,1,8,0:0:0:0:
196,276,118787,1,8,0:0:0:0:
256,44,118939,1,8,0:0:0:0:
316,276,119091,1,8,0:0:0:0:
392,104,119242,6,0,B|439:192|439:192|392:280,1,200.000007629395,12|0,0:0|0:0,0:0:0:0:
120,280,119697,2,0,B|73:192|73:192|120:104,1,200.000007629395,8|0,0:0|0:0,0:0:0:0:
336,162,120151,2,0,P|255:264|176:162,1,300.000011444092,0|8,0:0|0:0,0:0:0:0:
252,12,120757,1,0,0:0:0:0:
256,181,120908,1,0,0:0:0:0:
424,204,121060,6,0,P|384:296|288:348,1,200.000007629395
87,203,121515,2,0,P|125:293|210:345,1,200.000007629395,8|0,0:0|0:0,0:0:0:0:
256,68,121969,1,0,0:0:0:0:
172,192,122121,1,0,0:0:0:0:
340,192,122272,1,0,0:0:0:0:
256,68,122424,1,8,0:0:0:0:
88,298,122575,1,8,0:0:0:0:
424,298,122727,1,8,0:0:0:0:
256,192,122878,5,12,0:0:0:0:
256,192,122954,12,4,124696,0:0:0:0:
172,192,124999,5,8,0:3:0:0:
256,108,125151,1,8,0:1:0:0:
256,108,125227,1,8,0:3:0:0:
256,108,125302,1,8,0:3:0:0:
340,192,125454,1,8,0:3:0:0:
112,304,125605,1,8,0:3:0:0:
120,72,125757,1,8,0:3:0:0:
340,192,125908,1,8,0:3:0:0:
172,192,126061,1,8,0:1:0:0:
392,72,126211,1,8,0:3:0:0:
400,304,126364,1,8,0:3:0:0:
256,192,126515,6,0,L|256:12,1,173.333325398763,4|0,0:0|0:0,0:0:0:0:
172,192,126969,2,0,P|180:236|212:268,2,86.6666626993817,8|0|0,0:0|0:0|0:0,0:0:0:0:
92,184,127424,2,0,P|100:252|180:344,1,173.333325398763
340,192,127878,1,8,0:0:0:0:
256,28,128030,1,0,0:0:0:0:
172,192,128180,1,0,0:0:0:0:
349,333,128333,6,0,P|405:268|420:184,1,173.333325398763
339,191,128788,2,0,P|332:234|304:265,2,86.6666626993817,8|0|0,0:0|0:0|0:0,0:0:0:0:
256,192,129242,2,0,L|256:12,1,173.333325398763
172,191,129696,2,0,P|179:234|207:265,2,86.6666626993817,8|0|0,0:0|0:0|0:0,0:0:0:0:
88,196,130151,6,0,B|82:258|128:336|220:356,1,200,4|0,0:0|0:0,0:0:0:0:
256,192,130757,1,0,0:0:0:0:
256,192,130908,1,0,0:0:0:0:
316,348,131060,2,0,B|384:336|429:258|424:196,1,200,4|0,0:0|0:0,0:0:0:0:
256,192,131666,1,0,0:0:0:0:
424,198,131818,1,0,0:0:0:0:
256,192,131969,5,12,0:0:0:0:
232,280,132121,1,8,0:3:0:0:
256,288,132196,1,8,0:3:0:0:
280,280,132273,1,8,0:3:0:0:
80,192,132424,1,8,0:0:0:0:
232,76,132575,1,8,0:3:0:0:
256,68,132650,1,8,0:3:0:0:
280,76,132727,1,8,0:3:0:0:
256,288,132878,1,8,0:3:0:0:
348,192,133030,1,8,0:3:0:0:
80,192,133181,1,8,0:3:0:0:
256,368,133333,1,8,0:1:0:0:
432,192,133484,1,8,0:3:0:0:
80,192,133636,1,8,0:3:0:0:
256,192,133787,6,0,L|256:12,1,173.333325398763,4|0,0:0|0:0,0:0:0:0:
340,192,134242,2,0,P|332:236|300:268,2,86.6666626993817,8|0|0,0:0|0:0|0:0,0:0:0:0:
420,184,134696,2,0,P|412:252|332:344,1,173.333325398763
172,192,135150,1,8,0:0:0:0:
256,28,135302,1,0,0:0:0:0:
340,192,135454,1,0,0:0:0:0:
162,333,135605,6,0,P|106:268|92:184,1,173.333325398763
172,191,136060,2,0,P|179:234|207:265,2,86.6666626993817,8|0|0,0:0|0:0|0:0,0:0:0:0:
256,192,136514,2,0,L|256:12,1,173.333325398763
339,191,136968,2,0,P|332:234|304:265,2,86.6666626993817,8|0|0,0:0|0:0|0:0,0:0:0:0:
213,118,137424,5,4,0:0:0:0:
213,265,137575,1,0,0:0:0:0:
340,192,137727,1,0,0:0:0:0:
181,136,137879,5,8,0:0:0:0:
244,284,138030,1,0,0:0:0:0:
341,155,138182,1,0,0:0:0:0:
157,165,138333,5,0,0:0:0:0:
282,290,138485,1,0,0:0:0:0:
328,119,138636,1,0,0:0:0:0:
144,207,138788,5,8,0:0:0:0:
325,280,138939,1,0,0:0:0:0:
298,87,139091,1,0,0:0:0:0:
149,253,139242,5,4,0:0:0:0:
362,253,139394,1,8,0:0:0:0:
256,68,139545,1,0,0:0:0:0:
174,300,139697,5,8,0:0:0:0:
390,208,139848,1,0,0:0:0:0:
202,66,140000,1,8,0:0:0:0:
217,336,140151,5,4,0:0:0:0:
400,153,140303,1,8,0:0:0:0:
150,86,140454,1,0,0:0:0:0:
278,354,140605,5,12,0:0:0:0:
385,90,140757,1,0,0:0:0:0:
103,130,140909,1,8,0:0:0:0:
256,192,141060,5,4,0:0:0:0:
256,192,141211,12,0,144696,0:0:0:0:
256,64,147424,5,8,0:3:0:0:
224,264,147575,1,8,0:3:0:0:
256,272,147651,1,8,0:3:0:0:
288,264,147727,1,8,0:3:0:0:
256,64,147878,1,8,0:3:0:0:
124,248,148030,1,8,0:3:0:0:
350,271,148181,1,8,0:3:0:0:
256,64,148333,6,0,B|189:55|189:55|116:64,1,133.333333333333,4|0,0:0|0:0,0:0:0:0:
340,144,148788,2,0,B|406:152|406:152|480:148,1,133.333333333333,8|0,0:0|0:0,0:0:0:0:
256,64,149242,2,0,P|232:116|244:212,1,133.333333333333
350,271,149696,1,8,0:0:0:0:
162,271,149848,1,0,0:0:0:0:
256,348,150000,1,0,0:0:0:0:
276,190,150151,6,0,P|281:124|256:64,1,133.333333333333
39,152,150605,2,0,B|106:152|106:152|172:144,1,133.333333333333,8|0,0:0|0:0,0:0:0:0:
388,55,151060,2,0,B|323:55|323:55|256:64,1,133.333333333333
156,192,151515,1,8,0:0:0:0:
256,260,151666,1,0,0:0:0:0:
356,192,151818,1,0,0:0:0:0:
356,192,151969,6,0,B|420:168|420:168|500:196,1,133.333333333333
224,268,152424,2,0,B|160:292|160:292|80:264,1,133.333333333333,8|0,0:0|0:0,0:0:0:0:
156,192,152878,1,0,0:0:0:0:
344,276,153030,1,0,0:0:0:0:
156,360,153181,1,0,0:0:0:0:
256,184,153333,1,8,0:0:0:0:
356,360,153483,1,0,0:0:0:0:
168,276,153636,1,0,0:0:0:0:
356,192,153787,6,0,P|400:208|424:304,1,133.333333333333
413,221,154242,2,0,P|429:177|525:153,1,133.333333333333,8|0,0:0|0:0,0:0:0:0:
442,164,154696,2,0,P|398:148|374:52,1,133.333333333333
448,83,155151,1,8,0:0:0:0:
256,172,155302,1,8,0:0:0:0:
64,83,155454,1,8,0:0:0:0:
144,72,155605,6,0,P|127:134|70:164,1,133.333333333333,12|0,0:0|0:0,0:0:0:0:
7,146,156060,2,0,P|69:163|99:221,1,133.333333333333,8|0,0:0|0:0,0:0:0:0:
112,300,156515,2,0,B|120:336|120:336|160:316|192:356|236:308,2,133.333333333333
184,240,157272,1,0,0:0:0:0:
276,228,157424,6,0,B|332:264|332:264|416:264,1,133.333333333333
398,120,157879,2,0,B|332:120|332:120|276:156,1,133.333333333333,8|0,0:0|0:0,0:0:0:0:
184,240,158333,2,0,B|164:272|164:272|148:168,1,133.333333333333
184,80,158787,1,8,0:0:0:0:
256,192,158939,1,0,0:0:0:0:
328,80,159090,1,0,0:0:0:0:
362,177,159242,6,0,B|348:272|348:272|328:240,1,133.333333333333
328,80,159696,2,8,P|396:76|448:120,1,133.333333333333,8|0,0:0|0:0,0:0:0:0:
448,196,160151,1,0,0:0:0:0:
160,320,160454,1,0,0:0:0:0:
196,8,160757,1,0,0:0:0:0:
448,196,161060,6,0,B|448:264|448:264|392:320,1,133.333333333333
356,224,161515,1,8,0:0:0:0:
256,92,161666,1,0,0:0:0:0:
156,224,161818,1,0,0:0:0:0:
110,310,161969,2,0,B|64:264|64:264|64:196,1,133.333333333333
156,144,162424,1,8,0:0:0:0:
256,342,162575,1,8,0:0:0:0:
356,144,162727,1,8,0:0:0:0:
368,56,162878,6,0,P|408:72|444:156,1,133.333333333333,12|0,0:0|0:0,0:0:0:0:
67,149,163333,2,0,P|87:87|144:56,1,133.333333333333,8|0,0:0|0:0,0:0:0:0:
288,196,163787,2,0,P|256:242|223:196,1,133.333333333333
368,228,164242,2,0,P|348:276|312:296,1,66.6666666666667,8|0,0:0|0:0,0:0:0:0:
174,284,164546,2,0,P|152:259|144:228,1,66.6666666666667
174,276,165000,6,0,P|152:251|143:219,1,66.6666666666667,0|8,0:0|0:0,0:0:0:0:
329,264,165453,2,0,P|351:239|360:207,1,66.6666666666667
360,208,165908,1,0,0:0:0:0:
192,80,166060,1,8,0:0:0:0:
320,80,166212,1,0,0:0:0:0:
152,208,166364,1,0,0:0:0:0:
256,288,166515,6,0,B|272:352|272:352|344:368,1,133.333333333333
174,366,166970,2,0,B|240:352|240:352|256:288,1,133.333333333333,8|0,0:0|0:0,0:0:0:0:
360,208,167424,1,0,0:0:0:0:
192,80,167575,1,0,0:0:0:0:
320,80,167727,1,0,0:0:0:0:
152,208,167878,1,8,0:0:0:0:
256,288,168030,1,0,0:0:0:0:
320,80,168181,1,0,0:0:0:0:
152,208,168333,6,0,P|88:208|104:152,1,133.333333333333
360,208,168788,2,0,P|424:208|408:152,1,133.333333333333,8|0,0:0|0:0,0:0:0:0:
256,288,169242,1,8,0:3:0:0:
220,52,169393,1,8,0:3:0:0:
256,40,169469,1,8,0:3:0:0:
292,52,169545,1,8,0:3:0:0:
152,208,169696,1,8,0:1:0:0:
360,208,169848,1,8,0:3:0:0:
152,208,169999,1,8,0:3:0:0:
360,208,170151,6,0,B|440:188|440:188|460:92,1,159.999995117188,4|0,0:0|0:0,0:0:0:0:
56,112,170605,2,0,B|72:188|72:188|152:208,1,159.999995117188,8|0,0:0|0:0,0:0:0:0:
336,112,171060,1,0,0:0:0:0:
256,48,171211,1,0,0:0:0:0:
176,112,171363,1,0,0:0:0:0:
324,196,171515,1,8,0:0:0:0:
256,48,171666,1,0,0:0:0:0:
188,196,171819,1,0,0:0:0:0:
336,112,171969,6,0,L|444:104,1,79.9999975585938
176,112,172272,2,0,L|68:104,1,79.9999975585938,0|8,0:0|0:0,0:0:0:0:
256,48,172575,1,0,0:0:0:0:
256,192,172727,1,0,0:0:0:0:
176,240,172878,2,0,B|200:280|256:308|312:280|336:240,1,159.999995117188
256,192,173332,1,8,0:0:0:0:
91,279,173483,1,8,0:0:0:0:
176,112,173635,1,8,0:0:0:0:
256,192,173788,6,0,P|280:160|404:156,1,159.999995117188,12|0,0:0|0:0,0:0:0:0:
120,147,174242,2,0,P|197:140|256:192,1,159.999995117188,8|0,0:0|0:0,0:0:0:0:
336,236,174696,2,0,P|312:268|264:284,1,79.9999975585938
256,192,175000,1,0,0:0:0:0:
335,147,175152,2,0,P|312:116|275:100,1,79.9999975585938,8|0,0:0|0:0,0:0:0:0:
184,124,175454,1,0,0:0:0:0:
112,188,175606,6,0,P|92:132|144:36,1,159.999995117188
380,44,176061,2,0,P|419:112|400:188,1,159.999995117188,8|0,0:0|0:0,0:0:0:0:
256,272,176515,2,0,L|256:112,1,159.999995117188
152,220,176969,1,8,0:0:0:0:
356,340,177121,1,8,0:0:0:0:
356,100,177272,1,8,0:0:0:0:
156,340,177424,6,0,P|96:356|116:288,1,159.999995117188,12|0,0:0|0:0,0:0:0:0:
356,340,177879,2,0,P|416:356|396:288,1,159.999995117188,8|0,0:0|0:0,0:0:0:0:
156,340,178333,1,0,0:0:0:0:
192,192,178484,1,0,0:0:0:0:
340,148,178636,1,0,0:0:0:0:
504,268,178788,1,8,0:0:0:0:
356,224,178939,1,0,0:0:0:0:
320,76,179091,1,0,0:0:0:0:
172,148,179242,6,0,B|136:32|136:32|136:80,1,159.999995117188
104,196,179697,2,0,P|136:224|244:184,1,159.999995117188,8|0,0:0|0:0,0:0:0:0:
344,80,180151,1,0,0:0:0:0:
316,264,180303,1,0,0:0:0:0:
172,148,180454,1,0,0:0:0:0:
344,80,180606,1,8,0:0:0:0:
196,264,180757,1,8,0:0:0:0:
344,80,180909,1,8,0:0:0:0:
344,80,181060,6,0,B|384:72|384:72|424:84|424:84|464:56|512:64|552:120|520:180,2,239.999992675781,12|8|0,0:0|0:0|0:0,0:0:0:0:
176,192,182121,1,0,0:0:0:0:
344,304,182272,1,0,0:0:0:0:
256,356,182424,1,8,0:0:0:0:
168,304,182575,1,0,0:0:0:0:
336,192,182726,1,0,0:0:0:0:
168,304,182878,6,8,B|128:312|128:312|96:300|96:300|68:324|32:328|-8:316|-36:272|-20:216,1,239.999992675781,12|8,0:0|0:0,0:0:0:0:
48,248,183409,1,8,0:0:0:0:
52,240,183484,1,8,0:0:0:0:
56,232,183560,1,8,0:0:0:0:
60,224,183636,1,8,0:0:0:0:
64,216,183712,1,8,0:0:0:0:
68,208,183788,5,12,0:0:0:0:
384,316,183939,1,8,0:0:0:0:
176,52,184091,1,8,0:0:0:0:
256,360,184242,1,8,0:0:0:0:
336,52,184394,1,8,0:0:0:0:
128,316,184545,1,8,0:0:0:0:
336,52,184696,6,0,B|488:16|488:16|440:44,1,200.000007629395,4|0,0:0|0:0,0:0:0:0:
176,52,185151,2,0,B|24:16|24:16|72:44,1,200.000007629395,8|0,0:0|0:0,0:0:0:0:
332,160,185605,1,0,0:0:0:0:
136,248,185757,1,0,0:0:0:0:
364,328,185908,1,0,0:0:0:0:
256,112,186060,1,8,0:0:0:0:
148,328,186212,1,0,0:0:0:0:
376,248,186363,1,0,0:0:0:0:
180,160,186515,6,0,P|108:156|36:256,1,200.000007629395
248,220,186969,2,0,P|264:188|252:104,1,100.000003814697,8|0,0:0|0:0,0:0:0:0:
192,60,187272,1,0,0:0:0:0:
324,172,187424,2,0,P|319:136|262:73,1,100.000003814697
188,70,187727,1,0,0:0:0:0:
363,91,187878,2,8,P|340:63|258:40,1,100.000003814697
184,80,188181,1,8,0:0:0:0:
324,172,188333,6,0,B|344:176|364:204|364:204|404:168|444:172|484:196|496:232,1,200.000007629395
188,172,188788,2,0,B|168:176|148:204|148:204|108:168|68:172|28:196|16:232,1,200.000007629395,8|0,0:0|0:0,0:0:0:0:
91,257,189242,1,0,0:0:0:0:
192,296,189393,1,0,0:0:0:0:
272,372,189545,1,0,0:0:0:0:
324,172,189697,1,8,0:0:0:0:
404,248,189847,1,0,0:0:0:0:
505,287,189999,1,0,0:0:0:0:
188,172,190151,6,0,B|136:168|136:168|164:112|160:64|116:24,1,200.000007629395
284,240,190605,2,0,P|300:208|288:124,1,100.000003814697,8|0,0:0|0:0,0:0:0:0:
123,31,190908,1,0,0:0:0:0:
360,192,191060,2,8,P|355:156|298:93,1,100.000003814697
123,31,191363,1,8,0:0:0:0:
399,111,191514,2,8,P|376:83|294:60,1,100.000003814697
123,31,191817,1,8,0:0:0:0:
257,241,191969,6,0,P|285:324|360:280,1,200.000007629395,4|0,0:0|0:0,0:0:0:0:
257,142,192425,2,0,P|285:59|360:104,1,200.000007629395,8|0,0:0|0:0,0:0:0:0:
257,241,192878,1,0,0:0:0:0:
160,288,193030,1,0,0:0:0:0:
96,372,193181,1,0,0:0:0:0:
0,158,193334,1,8,0:0:0:0:
64,242,193484,1,0,0:0:0:0:
161,288,193637,1,0,0:0:0:0:
339,194,193788,6,0,B|379:50|379:50|379:130,1,200.000007629395
423,242,194242,2,0,P|375:282|251:230,1,200.000007629395,8|0,0:0|0:0,0:0:0:0:
160,96,194697,1,0,0:0:0:0:
256,344,194848,1,0,0:0:0:0:
352,96,195000,1,0,0:0:0:0:
256,240,195151,2,8,P|173:288|90:242,1,200.000007629395
173,194,195606,6,0,B|133:50|133:50|133:100,1,200.000007629395,8|0,0:0|0:0,0:0:0:0:
272,138,196060,2,0,B|416:98|416:98|365:98,1,200.000007629395,8|0,0:0|0:0,0:0:0:0:
328,236,196515,2,0,B|368:380|368:380|368:330,1,200.000007629395
230,293,196969,2,0,B|86:333|86:333|136:333,1,200.000007629395,8|0,0:0|0:0,0:0:0:0:
392,286,197424,5,0,0:0:0:0:
342,134,197575,1,0,0:0:0:0:
236,252,197727,1,0,0:0:0:0:
428,260,197879,5,8,0:0:0:0:
301,116,198030,1,0,0:0:0:0:
240,296,198182,1,0,0:0:0:0:
453,217,198334,5,8,0:0:0:0:
252,116,198485,1,8,0:0:0:0:
264,339,198637,1,8,0:0:0:0:
463,156,198788,5,8,0:0:0:0:
194,138,198940,1,8,0:0:0:0:
312,379,199091,1,8,0:0:0:0:
463,156,199242,6,0,B|476:104|476:104|428:108|428:108|404:60|348:48,1,200.000007629395,4|0,0:0|0:0,0:0:0:0:
49,156,199697,2,0,B|36:104|36:104|84:108|84:108|108:60|164:48,1,200.000007629395,8|0,0:0|0:0,0:0:0:0:
172,148,200151,1,0,0:0:0:0:
340,148,200302,1,0,0:0:0:0:
256,293,200454,1,0,0:0:0:0:
195,118,200606,1,8,0:0:0:0:
350,184,200758,1,0,0:0:0:0:
216,284,200909,1,0,0:0:0:0:
127,157,201060,6,0,B|108:104|140:68|140:68|196:68|196:68|195:118,1,200.000007629395
384,156,201515,2,0,B|404:104|372:68|372:68|316:68|316:68|316:118,1,200.000007629395,8|0,0:0|0:0,0:0:0:0:
216,284,201969,2,0,P|248:316|312:324,1,100.000003814697
296,228,202272,1,0,0:0:0:0:
160,205,202424,2,8,P|128:236|120:300,1,100.000003814697
300,326,202727,1,8,0:0:0:0:
296,228,202878,6,0,B|316:176|376:184|376:184|360:128|408:68,1,200.000007629395,8|0,0:0|0:0,0:0:0:0:
257,64,203333,2,0,B|237:116|177:108|177:108|193:164|145:224,1,200.000007629395,8|0,0:0|0:0,0:0:0:0:
184,328,203787,1,0,0:0:0:0:
353,203,203939,1,0,0:0:0:0:
84,136,204090,1,0,0:0:0:0:
256,64,204242,1,8,0:0:0:0:
428,136,204394,1,8,0:0:0:0:
159,203,204545,1,8,0:0:0:0:
344,276,204696,6,0,P|405:324|328:328,1,200.000007629395
353,203,205151,2,0,P|416:212|456:244,1,100.000003814697,8|0,0:0|0:0,0:0:0:0:
328,328,205454,1,0,0:0:0:0:
272,160,205605,2,8,P|324:120|373:116,1,100.000003814697
328,328,205908,1,8,0:0:0:0:
176,180,206061,2,8,P|184:117|217:77,1,100.000003814697
328,328,206364,1,8,0:0:0:0:
200,257,206515,6,0,P|100:208|140:109,1,200.000007629395,12|0,0:0|0:0,0:0:0:0:
312,257,206970,2,0,P|412:208|372:109,1,200.000007629395,8|0,0:0|0:0,0:0:0:0:
176,180,207424,1,0,0:0:0:0:
336,180,207576,1,0,0:0:0:0:
256,43,207727,1,0,0:0:0:0:
256,201,207878,1,8,0:0:0:0:
334,63,208030,1,0,0:0:0:0:
176,63,208181,1,0,0:0:0:0:
336,180,208333,6,0,P|280:280|200:260,1,200.000007629395
336,180,208787,2,0,P|399:189|439:221,1,100.000003814697,8|0,0:0|0:0,0:0:0:0:
464,328,209090,1,0,0:0:0:0:
255,137,209241,2,0,P|307:97|356:93,1,100.000003814697
464,328,209544,1,0,0:0:0:0:
159,157,209697,2,8,P|167:94|200:54,1,100.000003814697
464,328,210000,1,8,0:0:0:0:
159,157,210151,5,12,0:0:0:0:
256,192,210227,12,4,211969,0:0:0:0:
340,192,212272,5,8,0:3:0:0:
256,276,212424,1,8,0:1:0:0:
256,276,212500,1,8,0:3:0:0:
256,276,212575,1,8,0:3:0:0:
256,144,212727,1,8,0:3:0:0:
400,80,212878,1,8,0:3:0:0:
392,312,213030,1,8,0:3:0:0:
172,192,213181,1,8,0:3:0:0:
340,192,213334,1,8,0:1:0:0:
120,312,213484,1,8,0:3:0:0:
112,80,213637,1,8,0:3:0:0:
256,276,213787,6,0,P|298:301|347:304,1,100,4|0,0:0|0:0,0:0:0:0:
347,304,214696,1,8,0:0:0:0:
372,124,215454,1,0,0:0:0:0:
372,124,215605,2,0,L|264:124,2,100,0|0|8,0:0|0:0|0:0,0:0:0:0:
436,76,216969,2,0,P|452:116|444:160,1,66.6666666666667
440,164,217424,6,0,P|480:176|400:248,1,200,4|8,0:0|0:0,0:0:0:0:
264,296,219242,2,0,L|156:296,2,100,0|0|8,0:0|0:0|0:0,0:0:0:0:
328,344,220606,2,0,P|344:304|336:260,1,66.6666666666667
332,256,221061,6,0,P|372:244|292:172,1,200,4|8,0:0|0:0,0:0:0:0:
236,156,222424,1,8,0:3:0:0:
212,148,222575,1,8,0:3:0:0:
188,140,222727,1,8,0:3:0:0:
164,132,222878,2,0,P|160:176|136:240,2,100,0|0|8,0:0|0:0|0:0,0:0:0:0:
116,68,224242,2,0,P|168:52|192:56,1,66.6666666666667
204,68,224696,6,0,P|220:28|304:100,1,200,4|8,0:0|0:0,0:0:0:0:
328,248,226515,2,0,P|332:292|356:356,2,100,0|0|8,0:0|0:0|0:0,0:0:0:0:
376,184,227879,2,0,P|324:168|300:172,1,66.6666666666667
288,184,228333,6,0,P|272:144|188:216,1,200,4|8,0:0|0:0,0:0:0:0:
68,316,230151,1,0,0:0:0:0:
56,236,230605,1,0,0:0:0:0:
76,160,231060,1,8,0:0:0:0:
136,108,231515,1,8,0:3:0:0:
136,108,231666,1,8,0:3:0:0:
136,108,231818,1,8,0:3:0:0:
136,108,231969,6,0,B|160:64|220:64|220:64|232:128|304:104,1,200,4|8,0:0|0:0,0:0:0:0:
364,88,233333,2,0,L|380:160,1,66.6666666666667
364,176,233787,2,0,P|404:168|472:184,2,100,0|0|8,0:0|0:0|0:0,0:0:0:0:
320,244,235151,1,8,0:3:0:0:
300,224,235302,1,8,0:3:0:0:
288,200,235454,1,8,0:3:0:0:
280,176,235605,6,0,P|244:192|200:76,1,200,4|8,0:0|0:0,0:0:0:0:
112,84,236969,2,0,L|96:156,1,66.6666666666667
112,172,237423,2,0,P|72:164|4:180,2,100,0|0|8,0:0|0:0|0:0,0:0:0:0:
156,240,238787,1,0,0:0:0:0:
176,220,238938,1,0,0:0:0:0:
188,196,239090,1,0,0:0:0:0:
196,172,239241,6,4,P|232:188|276:72,1,200,4|8,0:0|0:0,0:0:0:0:
229,77,241060,6,8,P|225:167|316:172,1,200,8|12,0:3|0:0,0:3:0:0:
364,148,243030,5,8,0:3:0:0:
416,132,243181,1,8,0:3:0:0:
468,140,243333,2,2,B|440:204|484:252|484:252|472:216|408:236,1,200,6|2,0:0|0:3,0:3:0:0:
256,260,244242,1,8,0:3:0:0:
196,172,244393,1,8,0:3:0:0:
302,164,244545,1,8,0:3:0:0:
257,278,244696,5,8,0:3:0:0:
179,164,244847,1,8,0:3:0:0:
317,153,244999,1,8,0:3:0:0:
256,280,245151,2,2,B|236:308|236:308|260:344|260:344|236:332|236:332|200:348|180:335|136:344,1,200,6|10,0:1|0:3,0:3:0:0:
112,272,245757,1,8,0:3:0:0:
180,156,245908,1,8,0:3:0:0:
317,153,246060,2,2,B|345:173|345:173|381:149|381:149|369:173|369:173|385:209|385:209|412:232|456:228,1,200,6|10,0:1|0:3,0:3:0:0:
448,116,246666,5,8,0:3:0:0:
184,36,246818,1,8,0:3:0:0:
220,248,246969,2,2,B|240:232|208:224|176:248|196:272|196:272|224:296|254:280|254:280|280:268|320:280,1,200,6|2,0:1|0:3,0:3:0:0:
256,330,247878,1,8,0:3:0:0:
133,151,248029,1,8,0:3:0:0:
349,135,248181,1,8,0:3:0:0:
258,367,248332,5,8,0:3:0:0:
100,135,248483,1,8,0:3:0:0:
380,113,248635,1,8,0:3:0:0:
256,376,248787,2,10,B|165:372|149:288|149:288|172:296|204:284,1,200,14|10,0:0|0:3,0:3:0:0:
152,252,249318,1,8,0:3:0:0:
156,220,249393,1,8,0:3:0:0:
168,188,249469,1,8,0:3:0:0:
188,160,249545,1,8,0:3:0:0:
315,286,249696,2,10,B|340:296|363:288|363:288|347:372|256:376,1,200,14|10,0:0|0:3,0:3:0:0:
188,160,250302,5,8,0:3:0:0:
315,286,250454,1,8,0:3:0:0:
244,84,250605,2,2,B|272:32|272:32|272:48|272:48|320:40|368:64|368:64|340:68,1,200,6|2,0:0|0:3,0:3:0:0:
180,324,251515,1,8,0:3:0:0:
244,84,251666,1,8,0:3:0:0:
316,324,251818,1,8,0:3:0:0:
244,84,251970,5,8,0:3:0:0:
180,324,252122,1,8,0:3:0:0:
40,116,252273,1,8,0:3:0:0:
336,196,252424,2,10,B|372:216|448:192|448:192|464:236|443:243|404:232,1,200,14|10,0:0|0:3,0:3:0:0:
124,96,253030,1,8,0:3:0:0:
388,96,253181,1,8,0:3:0:0:
176,196,253333,2,10,B|140:216|64:192|64:192|48:236|68:243|108:232,1,200,14|10,0:0|0:3,0:3:0:0:
388,96,253939,5,8,0:3:0:0:
124,96,254091,1,8,0:3:0:0:
256,152,254242,2,2,L|256:368,1,200,14|10,0:0|0:3,0:3:0:0:
424,120,255151,1,8,0:3:0:0:
256,256,255302,1,8,0:3:0:0:
88,120,255455,1,8,0:3:0:0:
424,120,255605,5,8,0:3:0:0:
432,180,255681,1,8,0:3:0:0:
424,240,255757,1,8,0:3:0:0:
256,96,255908,1,8,0:3:0:0:
256,256,256060,5,8,0:3:0:0:
206,258,256135,1,8,0:3:0:0:
160,239,256211,1,8,0:3:0:0:
127,202,256287,1,8,0:3:0:0:
112,155,256363,1,8,0:3:0:0:
119,106,256438,1,8,0:3:0:0:
146,64,256514,5,8,0:3:0:0:
256,256,256666,1,8,0:3:0:0:
424,120,256818,1,8,0:3:0:0:
316,344,256969,5,8,0:3:0:0:
312,328,257121,1,8,0:3:0:0:
308,312,257272,1,8,0:3:0:0:
304,296,257424,5,0,0:0:0:0:
283,258,257499,1,0,0:0:0:0:
287,215,257575,1,0,0:0:0:0:
314,182,257651,1,0,0:0:0:0:
355,170,257727,1,0,0:0:0:0:
398,170,257802,1,0,0:0:0:0:
433,145,257878,5,8,0:0:0:0:
448,104,257954,1,0,0:0:0:0:
436,63,258030,1,0,0:0:0:0:
402,36,258105,1,0,0:0:0:0:
359,34,258181,1,0,0:0:0:0:
319,52,258256,1,0,0:0:0:0:
276,61,258332,5,8,0:0:0:0:
233,60,258408,1,0,0:0:0:0:
190,50,258484,1,0,0:0:0:0:
152,29,258559,1,0,0:0:0:0:
109,33,258635,1,0,0:0:0:0:
74,60,258711,1,0,0:0:0:0:
58,100,258787,5,8,0:0:0:0:
66,142,258863,1,0,0:0:0:0:
94,175,258938,1,0,0:0:0:0:
112,216,259015,1,0,0:0:0:0:
116,260,259090,1,8,0:0:0:0:
128,302,259166,1,0,0:0:0:0:
152,340,259242,5,12,0:0:0:0:
190,359,259317,1,0,0:0:0:0:
233,355,259393,1,0,0:0:0:0:
266,328,259469,1,0,0:0:0:0:
278,286,259545,1,0,0:0:0:0:
266,245,259621,1,0,0:0:0:0:
265,202,259697,5,8,0:0:0:0:
283,162,259772,1,0,0:0:0:0:
317,136,259848,1,0,0:0:0:0:
360,127,259924,1,0,0:0:0:0:
402,138,259999,1,0,0:0:0:0:
434,167,260075,1,0,0:0:0:0:
451,207,260151,5,8,0:0:0:0:
447,250,260227,1,0,0:0:0:0:
425,287,260302,1,0,0:0:0:0:
392,316,260377,1,0,0:0:0:0:
351,329,260453,1,0,0:0:0:0:
307,324,260529,1,0,0:0:0:0:
270,302,260605,5,8,0:0:0:0:
244,267,260680,1,0,0:0:0:0:
219,232,260756,1,0,0:0:0:0:
184,207,260832,1,0,0:0:0:0:
141,197,260908,1,8,0:0:0:0:
98,203,260984,1,0,0:0:0:0:
60,224,261060,5,12,0:0:0:0:
42,263,261135,1,0,0:0:0:0:
41,307,261211,1,0,0:0:0:0:
58,347,261287,1,0,0:0:0:0:
90,376,261363,1,0,0:0:0:0:
131,391,261438,1,0,0:0:0:0:
174,388,261514,5,8,0:0:0:0:
213,368,261590,1,0,0:0:0:0:
240,335,261666,1,0,0:0:0:0:
252,293,261741,1,0,0:0:0:0:
254,248,261817,1,8,0:0:0:0:
274,209,261893,1,0,0:0:0:0:
307,182,261969,5,8,0:0:0:0:
349,170,262045,1,0,0:0:0:0:
392,175,262120,1,0,0:0:0:0:
430,197,262196,1,0,0:0:0:0:
455,232,262272,1,0,0:0:0:0:
465,274,262348,1,0,0:0:0:0:
457,317,262423,5,8,0:0:0:0:
433,353,262499,1,0,0:0:0:0:
394,370,262574,1,0,0:0:0:0:
353,359,262650,1,0,0:0:0:0:
327,324,262726,1,8,0:0:0:0:
330,282,262802,1,0,0:0:0:0:
359,250,262877,5,8,0:0:0:0:
384,214,262953,1,0,0:0:0:0:
397,173,263029,1,0,0:0:0:0:
397,129,263105,1,0,0:0:0:0:
383,88,263181,1,8,0:0:0:0:
356,53,263256,1,0,0:0:0:0:
321,28,263332,5,8,0:0:0:0:
279,15,263408,1,0,0:0:0:0:
236,16,263484,1,0,0:0:0:0:
194,30,263559,1,0,0:0:0:0:
160,56,263635,1,8,0:0:0:0:
135,92,263711,1,0,0:0:0:0:
122,134,263787,5,8,0:0:0:0:
157,108,263862,1,0,0:0:0:0:
199,96,263938,1,0,0:0:0:0:
242,101,264014,1,0,0:0:0:0:
281,120,264090,1,8,0:0:0:0:
310,153,264165,1,0,0:0:0:0:
325,194,264241,5,8,0:0:0:0:
324,237,264317,1,0,0:0:0:0:
308,277,264393,1,8,0:0:0:0:
278,309,264468,1,0,0:0:0:0:
239,328,264545,1,8,0:0:0:0:
196,336,264620,1,0,0:0:0:0:
152,336,264696,6,0,B|95:321|95:321|39:337|39:337|79:289|71:245|71:245|72:208|100:172,1,291.666669448217,8|0,0:0|3:0,0:0:0:0:
152,240,265151,5,8,0:0:0:0:
176,64,265302,1,0,0:0:0:0:
360,240,265454,1,0,0:0:0:0:
256,36,265605,5,8,0:0:0:0:
152,240,265758,1,0,0:0:0:0:
336,64,265909,1,8,0:0:0:0:
256,132,266060,5,8,0:0:0:0:
256,144,266136,1,0,0:0:0:0:
256,156,266211,1,0,0:0:0:0:
256,168,266287,1,0,0:0:0:0:
256,180,266363,1,0,0:0:0:0:
256,192,266439,1,0,0:0:0:0:
256,204,266515,6,0,L|272:268,1,58.3333338896433,12|0,0:0|0:0,0:0:0:0:
305,346,266667,2,0,L|352:300,1,58.3333338896433
404,232,266818,2,0,L|340:213,1,58.3333338896433,4|0,0:0|0:0,0:0:0:0:
256,204,266970,6,0,L|235:284,1,58.3333338896433,8|0,0:0|0:0,0:0:0:0:
193,383,267121,2,0,L|132:324,1,58.3333338896433,4|0,0:0|0:0,0:0:0:0:
68,238,267273,2,0,L|147:213,1,58.3333338896433,8|0,0:0|0:0,0:0:0:0:
161,160,267424,5,12,0:0:0:0:
158,131,267499,1,0,0:0:0:0:
165,102,267575,1,0,0:0:0:0:
179,77,267651,1,0,0:0:0:0:
200,57,267727,1,12,0:0:0:0:
227,44,267802,1,0,0:0:0:0:
255,40,267878,5,8,0:0:0:0:
284,43,267954,1,0,0:0:0:0:
310,56,268030,1,4,0:0:0:0:
332,75,268105,1,0,0:0:0:0:
347,100,268181,1,8,0:0:0:0:
354,128,268257,1,0,0:0:0:0:
352,156,268333,6,0,B|408:170|408:170|464:154|464:154|424:202|432:246|432:246|432:284|404:320,1,291.666669448217,12|0,0:0|3:0,0:0:0:0:
396,320,268787,1,8,0:0:0:0:
292,260,268939,1,0,0:0:0:0:
176,280,269090,1,8,0:0:0:0:
80,220,269242,6,0,B|94:163|94:163|78:107|78:107|126:147|170:139|170:139|208:140|244:168,1,291.666669448217,8|0,0:0|3:0,0:0:0:0:
244,176,269696,1,8,0:0:0:0:
256,284,269848,1,0,0:0:0:0:
260,292,269999,1,0,0:0:0:0:
149,253,270151,5,12,0:0:0:0:
362,253,270303,1,8,0:0:0:0:
256,68,270454,1,8,0:0:0:0:
174,300,270606,5,8,0:0:0:0:
390,208,270757,1,8,0:0:0:0:
390,208,270833,1,8,0:0:0:0:
390,208,270909,1,8,0:0:0:0:
217,336,271060,5,12,0:0:0:0:
400,153,271212,1,8,0:0:0:0:
150,86,271363,1,8,0:0:0:0:
278,354,271515,5,12,0:0:0:0:
385,90,271666,1,8,0:0:0:0:
103,130,271818,1,8,0:0:0:0:
313,225,271969,6,0,B|393:205|393:205|409:130,1,159.999995117188,12|0,0:0|0:0,0:0:0:0:
103,130,272424,2,0,B|118:205|118:205|198:225,1,159.999995117188,8|0,0:0|0:0,0:0:0:0:
336,112,272878,1,0,0:0:0:0:
176,112,273029,1,0,0:0:0:0:
256,48,273181,1,0,0:0:0:0:
324,296,273333,1,8,0:0:0:0:
256,176,273484,1,0,0:0:0:0:
188,296,273637,1,0,0:0:0:0:
336,112,273787,6,0,L|444:104,1,79.9999975585938
176,112,274090,2,0,L|68:104,1,79.9999975585938,0|8,0:0|0:0,0:0:0:0:
256,48,274393,1,0,0:0:0:0:
256,192,274545,1,0,0:0:0:0:
184,260,274696,2,0,B|204:284|256:304|308:284|328:260,1,159.999995117188
256,192,275150,1,8,0:0:0:0:
120,147,275301,1,8,0:0:0:0:
91,279,275453,1,8,0:0:0:0:
256,192,275606,6,0,P|280:160|404:156,1,159.999995117188,12|0,0:0|0:0,0:0:0:0:
120,147,276060,2,0,P|197:140|256:192,1,159.999995117188,8|0,0:0|0:0,0:0:0:0:
336,236,276514,2,0,P|312:268|264:284,1,79.9999975585938
256,192,276818,1,0,0:0:0:0:
335,147,276970,2,0,P|312:116|275:100,1,79.9999975585938,8|0,0:0|0:0,0:0:0:0:
184,124,277272,1,0,0:0:0:0:
112,188,277424,5,4,0:0:0:0:
296,331,277575,1,0,0:0:0:0:
224,168,277727,1,0,0:0:0:0:
256,8,277878,1,12,0:0:0:0:
288,169,278030,1,8,0:0:0:0:
216,332,278181,1,8,0:0:0:0:
400,187,278333,5,12,0:0:0:0:
356,340,278484,1,8,0:0:0:0:
245,225,278636,1,8,0:0:0:0:
356,100,278787,1,8,0:0:0:0:
356,340,278939,1,8,0:0:0:0:
152,220,279090,1,8,0:0:0:0:
398,288,279242,6,0,P|421:350|356:340,1,159.999995117188,12|0,0:0|0:0,0:0:0:0:
113,288,279697,2,0,P|90:350|155:340,1,159.999995117188,8|0,0:0|0:0,0:0:0:0:
304,308,280151,1,0,0:0:0:0:
340,148,280302,1,0,0:0:0:0:
192,192,280454,1,0,0:0:0:0:
468,236,280606,1,8,0:0:0:0:
320,192,280757,1,0,0:0:0:0:
284,44,280909,1,0,0:0:0:0:
172,148,281060,6,0,B|136:32|136:32|136:80,1,159.999995117188
104,196,281515,2,0,P|136:224|244:184,1,159.999995117188,8|0,0:0|0:0,0:0:0:0:
344,80,281969,1,0,0:0:0:0:
316,264,282121,1,0,0:0:0:0:
172,148,282272,1,0,0:0:0:0:
344,80,282424,1,8,0:0:0:0:
196,264,282575,1,8,0:0:0:0:
344,80,282727,1,8,0:0:0:0:
344,80,282878,5,12,0:0:0:0:
141,145,283030,1,0,0:0:0:0:
299,289,283181,1,0,0:0:0:0:
305,43,283333,5,8,0:0:0:0:
128,197,283484,1,0,0:0:0:0:
351,274,283636,1,0,0:0:0:0:
253,22,283787,5,0,0:0:0:0:
136,252,283939,1,0,0:0:0:0:
394,239,284090,1,0,0:0:0:0:
190,23,284242,5,8,0:0:0:0:
169,307,284393,1,0,0:0:0:0:
425,182,284545,1,0,0:0:0:0:
189,23,284696,5,12,0:3:0:0:
155,42,284771,1,8,0:3:0:0:
125,68,284847,1,8,0:3:0:0:
102,101,284923,1,8,0:3:0:0:
87,138,284999,1,8,0:3:0:0:
81,178,285074,1,8,0:3:0:0:
84,217,285150,5,8,0:1:0:0:
96,255,285226,1,8,0:3:0:0:
117,290,285302,1,8,0:3:0:0:
144,319,285377,1,8,0:3:0:0:
178,340,285453,1,8,0:3:0:0:
215,354,285529,1,8,0:3:0:0:
255,358,285605,5,12,0:1:0:0:
295,354,285680,1,8,0:3:0:0:
332,341,285756,1,8,0:3:0:0:
366,319,285832,1,8,0:3:0:0:
394,290,285908,1,8,0:1:0:0:
414,256,285983,1,8,0:3:0:0:
427,218,286059,5,8,0:1:0:0:
430,178,286135,1,8,0:3:0:0:
424,139,286211,1,8,0:1:0:0:
409,102,286286,1,8,0:3:0:0:
387,69,286362,1,8,0:1:0:0:
357,42,286438,1,8,0:3:0:0:
322,23,286515,6,0,L|43:24,1,266.666666666667,6|0,0:0|0:0,0:0:0:0:
112,192,286969,2,0,L|392:192,1,266.666666666667,10|0,0:0|0:0,0:0:0:0:
72,112,287424,2,0,P|28:164|48:256,1,133.333333333333,2|0,0:0|0:0,0:0:0:0:
128,328,287727,1,0,0:0:0:0:
260,48,287878,2,0,P|192:53|141:132,1,133.333333333333,10|0,0:0|0:0,0:0:0:0:
128,328,288181,1,2,0:0:0:0:
332,264,288333,6,0,B|392:292|392:292|416:128|416:128|360:160,1,266.666666666667,4|2,0:0|0:0,0:0:0:0:
180,264,288788,2,0,B|120:292|120:292|96:128|96:128|152:160,1,266.666666666667,8|0,0:0|0:0,0:0:0:0:
332,264,289242,1,10,0:0:0:0:
128,376,289393,1,8,0:0:0:0:
116,64,289545,1,8,0:0:0:0:
256,192,289696,1,10,0:0:0:0:
396,64,289849,1,8,0:0:0:0:
384,376,289999,1,8,0:0:0:0:
180,264,290151,6,0,B|148:240|148:240|120:244|120:244|52:232|40:184|68:128|128:128|140:164,1,266.666666666667,14|0,0:0|0:0,0:0:0:0:
332,264,290606,2,0,B|364:240|364:240|392:244|392:244|460:232|472:184|444:128|384:128|372:164,1,266.666666666667,10|0,0:0|0:0,0:0:0:0:
160,360,291060,1,2,0:0:0:0:
139,163,291211,1,0,0:0:0:0:
352,56,291363,1,0,0:0:0:0:
256,232,291515,1,10,0:0:0:0:
160,56,291667,1,0,0:0:0:0:
372,163,291819,1,2,0:0:0:0:
160,360,291969,6,0,B|112:360|112:360|64:360|64:304|120:268|168:268|168:268|188:208,1,266.666666666667,4|0,0:0|0:0,0:0:0:0:
352,360,292424,2,0,B|400:360|400:360|448:360|448:304|392:268|344:268|344:268|324:208,1,266.666666666667,8|0,0:0|0:0,0:0:0:0:
208,84,292878,1,10,0:0:0:0:
256,52,292954,1,8,0:0:0:0:
304,84,293030,1,8,0:0:0:0:
256,292,293181,1,8,0:0:0:0:
190,43,293333,1,10,0:0:0:0:
256,20,293409,1,8,0:0:0:0:
321,43,293485,1,8,0:0:0:0:
256,329,293636,1,8,0:0:0:0:
190,43,293787,6,0,B|152:52|128:40|128:40|144:88|140:128|96:168|96:168|164:168,1,266.666666666667,14|0,0:0|0:0,0:0:0:0:
321,43,294243,2,0,B|360:52|384:40|384:40|368:88|372:128|416:168|416:168|348:168,1,266.666666666667,10|0,0:0|0:0,0:0:0:0:
196,236,294696,2,0,P|168:260|148:352,1,133.333333333333,2|0,0:0|0:0,0:0:0:0:
256,329,294999,1,0,0:0:0:0:
316,236,295151,2,0,P|344:260|364:352,1,133.333333333333,8|0,0:0|0:0,0:0:0:0:
256,329,295455,1,2,0:0:0:0:
196,236,295605,6,0,B|192:196|192:196|148:216|112:204|84:164|88:120|120:92|176:72|200:136,1,266.666666666667,6|0,0:0|0:0,0:0:0:0:
316,236,296060,2,0,B|320:196|320:196|364:216|400:204|428:164|424:120|392:92|336:72|312:136,1,266.666666666667,10|0,0:0|0:0,0:0:0:0:
196,236,296515,1,10,0:0:0:0:
100,336,296666,1,8,0:0:0:0:
24,96,296818,1,8,0:0:0:0:
316,236,296970,1,10,0:0:0:0:
412,336,297121,1,8,0:0:0:0:
488,96,297273,1,10,0:0:0:0:
196,236,297424,6,2,B|196:304|196:304|124:312|88:204|176:164,1,266.666666666667,6|2,0:0|0:0,0:0:0:0:
342,164,297879,2,2,B|424:201|388:309|316:301|316:301|316:236,1,266.666666666667,10|2,0:0|0:0,0:0:0:0:
368,100,298333,2,2,P|436:156|416:336,1,266.666666666667,10|2,0:0|0:0,0:0:0:0:
83,322,298787,2,2,P|58:195|144:100,1,266.666666666667,10|2,0:0|0:0,0:0:0:0:
373,227,299242,5,12,0:0:0:0:
166,275,299394,1,8,0:3:0:0:
228,71,299545,1,8,0:3:0:0:
360,278,299697,5,8,0:1:0:0:
129,237,299848,1,8,0:3:0:0:
280,57,300000,1,8,0:3:0:0:
326,323,300151,5,10,0:0:0:0:
106,186,300303,1,8,0:3:0:0:
335,64,300454,1,8,0:3:0:0:
271,354,300606,5,10,0:1:0:0:
107,121,300757,1,8,0:0:0:0:
391,97,300909,1,8,0:0:0:0:
271,354,301060,6,0,B|136:344|136:344|28:232,1,266.666666666667,14|0,0:0|0:0,0:0:0:0:
240,29,301515,2,0,B|376:40|376:40|484:152,1,266.666666666667,10|0,0:0|0:0,0:0:0:0:
107,121,301969,2,0,B|96:92|96:92|204:104,1,133.333333333333,10|0,0:0|0:0,0:0:0:0:
320,192,302272,1,0,0:0:0:0:
196,280,302424,2,0,B|96:292|96:292|107:262,1,133.333333333333,10|0,0:0|0:0,0:0:0:0:
320,192,302727,1,10,0:0:0:0:
436,280,302878,6,0,B|340:376|340:376|204:376,1,266.666666666667,12|2,0:0|0:0,0:0:0:0:
320,192,303333,1,8,0:0:0:0:
236,88,303484,1,0,0:0:0:0:
187,212,303636,1,0,0:0:0:0:
326,222,303787,1,10,0:0:0:0:
282,67,303938,1,8,0:0:0:0:
170,181,304090,1,8,0:0:0:0:
320,258,304243,1,10,0:0:0:0:
343,67,304394,1,8,0:0:0:0:
166,140,304546,1,8,0:0:0:0:
160,360,304696,6,0,B|128:336|128:336|100:340|100:340|32:328|20:280|48:224|108:224|120:260,1,266.666666666667,14|0,0:0|0:0,0:0:0:0:
320,258,305151,2,0,B|352:234|352:234|380:238|380:238|448:226|460:178|432:122|372:122|360:158,1,266.666666666667,10|0,0:0|0:0,0:0:0:0:
160,360,305605,1,10,0:0:0:0:
152,157,305757,1,0,0:0:0:0:
352,56,305908,1,0,0:0:0:0:
256,232,306060,1,10,0:0:0:0:
160,56,306212,1,0,0:0:0:0:
360,157,306364,1,10,0:0:0:0:
256,232,306515,6,0,P|268:320|420:304,1,266.666666666667,12|8,0:0|0:0,0:0:0:0:
96,312,306970,2,0,P|213:345|256:232,1,266.666666666667,8|8,0:0|0:0,0:0:0:0:
160,56,307424,1,10,0:1:0:0:
349,239,307575,1,8,0:1:0:0:
96,312,307727,1,8,0:1:0:0:
352,56,307878,1,10,0:1:0:0:
163,239,308029,1,8,0:1:0:0:
416,312,308181,1,8,0:1:0:0:
145,117,308333,6,0,B|164:164|164:164|152:200|104:216|104:216|160:256|72:312|144:368,1,266.666666666667,14|0,0:0|0:0,0:0:0:0:
392,340,308787,2,0,B|441:311|353:255|409:215|409:215|361:199|349:163|349:163|367:116,1,266.666666666667,10|0,0:0|0:0,0:0:0:0:
72,104,309242,1,10,0:0:0:0:
204,308,309393,1,0,0:0:0:0:
311,37,309545,1,0,0:0:0:0:
256,360,309696,1,8,0:0:0:0:
200,37,309848,1,0,0:0:0:0:
308,308,310000,1,8,0:0:0:0:
440,104,310151,6,8,B|460:96|480:56|480:56|484:128|432:168|432:168|484:188|484:188|448:220|452:260|488:284|488:284|497:305|496:344,2,400,14|10|10,0:0|0:0|0:0,0:0:0:0:
324,228,311211,1,0,0:0:0:0:
72,104,311363,1,0,0:0:0:0:
256,40,311515,1,10,0:0:0:0:
440,104,311667,1,0,0:0:0:0:
244,372,311818,1,10,0:0:0:0:
256,40,311969,5,14,0:0:0:0:
256,192,312045,12,10,313787,0:0:0:0:
180,84,314242,5,10,0:0:0:0:
256,56,314318,1,8,0:0:0:0:
332,84,314393,1,8,0:0:0:0:
256,312,314545,1,8,0:0:0:0:
168,67,314697,5,10,0:0:0:0:
256,35,314773,1,8,0:0:0:0:
343,67,314849,1,8,0:0:0:0:
256,329,315000,1,8,0:0:0:0:
158,52,315152,5,10,0:0:0:0:
256,16,315227,1,8,0:0:0:0:
354,52,315302,1,8,0:0:0:0:
256,348,315455,1,10,0:0:0:0:
256,192,315605,6,4,L|256:12,1,173.333325398763,4|0,0:0|0:0,0:0:0:0:
172,192,316060,1,8,0:0:0:0:
256,348,316211,1,0,0:0:0:0:
340,192,316363,1,0,0:0:0:0:
419,183,316515,2,0,P|404:268|349:333,1,173.333325398763,12|0,0:0|0:0,0:0:0:0:
92,184,316969,1,8,0:0:0:0:
256,28,317120,1,8,0:0:0:0:
420,184,317272,1,8,0:0:0:0:
162,333,317423,6,0,P|106:268|92:184,1,173.333325398763,4|0,0:0|0:0,0:0:0:0:
256,18,317878,1,10,0:0:0:0:
420,208,318030,1,0,0:0:0:0:
173,255,318181,1,0,0:0:0:0:
256,18,318332,2,0,L|256:192,1,173.333325398763,6|0,0:0|0:0,0:0:0:0:
88,192,318787,1,10,0:0:0:0:
322,250,318939,1,8,0:0:0:0:
256,18,319090,1,10,0:0:0:0:
88,192,319241,6,0,B|84:240|120:316|184:372|256:325|256:325|328:372|392:316|428:240|424:192,2,519.99997619629,14|8|12,0:0|0:0|0:0,0:0:0:0:
256,192,321362,5,8,0:3:0:0:
218,12,321514,1,10,0:1:0:0:
256,0,321589,1,8,0:3:0:0:
293,12,321666,1,8,0:3:0:0:
432,192,321817,1,8,0:3:0:0:
256,368,321968,1,10,0:3:0:0:
80,192,322120,1,8,0:3:0:0:
432,192,322271,1,8,0:3:0:0:
132,40,322424,1,10,0:3:0:0:
380,40,322575,1,8,0:3:0:0:
132,344,322727,1,10,0:3:0:0:
256,192,322877,6,0,L|256:12,1,173.333325398763,4|0,0:0|0:0,0:0:0:0:
420,184,323333,1,8,0:0:0:0:
256,344,323484,1,0,0:0:0:0:
92,184,323636,1,0,0:0:0:0:
420,184,323786,2,0,P|412:252|332:344,1,173.333325398763,4|0,0:0|0:0,0:0:0:0:
92,184,324242,1,8,0:0:0:0:
256,28,324392,1,8,0:0:0:0:
420,184,324545,1,8,0:0:0:0:
162,333,324695,6,0,P|106:268|92:184,1,173.333325398763,12|0,0:0|0:0,0:0:0:0:
339,191,325151,1,2,0:0:0:0:
256,360,325302,1,0,0:0:0:0:
173,191,325454,1,0,0:0:0:0:
256,18,325605,2,0,L|256:192,1,173.333325398763,6|0,0:0|0:0,0:0:0:0:
207,265,326060,1,10,0:0:0:0:
365,179,326211,1,8,0:0:0:0:
340,36,326363,1,10,0:0:0:0:
204,85,326514,5,14,0:0:0:0:
207,265,326665,1,0,0:0:0:0:
365,179,326817,1,0,0:0:0:0:
163,108,326969,1,8,0:0:0:0:
243,295,327120,1,0,0:0:0:0:
365,179,327272,1,0,0:0:0:0:
132,144,327423,1,12,0:0:0:0:
291,303,327575,1,0,0:0:0:0:
350,86,327726,1,0,0:0:0:0:
116,198,327878,1,8,0:0:0:0:
345,290,328029,1,0,0:0:0:0:
311,46,328181,1,0,0:0:0:0:
122,256,328333,5,14,0:1:0:0:
393,256,328484,1,10,0:3:0:0:
258,21,328636,1,14,0:0:0:0:
154,316,328788,1,10,0:1:0:0:
428,199,328938,1,14,0:0:0:0:
189,19,329090,1,10,0:3:0:0:
208,362,329241,1,14,0:1:0:0:
441,129,329393,1,10,0:3:0:0:
124,45,329544,1,10,0:3:0:0:
286,384,329696,1,14,0:1:0:0:
422,49,329847,1,10,0:3:0:0:
63,100,329999,1,10,0:1:0:0:
256,192,330150,5,14,0:0:0:0:
256,192,330302,12,0,344696,0:0:0:0:
