osu file format v5

[General]
AudioFilename: Within Temptation - Final Destination.mp3
AudioLeadIn: 2294
PreviewTime: -1
Countdown: 1
SampleSet: Soft

[Metadata]
Title:Final Destination
Artist:Within Temptation
Creator:xerious
Version:Normal

[Difficulty]
HPDrainRate:4
CircleSize:4
OverallDifficulty:5
SliderMultiplier:1.4
SliderTickRate:1

[Events]
//Background and Video events
//Break Periods
2,20965,40644
2,99722,110645
2,165843,176870
2,193948,200518
2,208420,229200
//Storyboard Layer 0 (Background)
//Storyboard Layer 1 (Failing)
//Storyboard Layer 2 (Passing)
//Storyboard Layer 3 (Foreground)
//Storyboard Sound Samples
//Background Colour Transformations
3,100,163,162,255

[TimingPoints]
22758,209.739966976671,4,2,0,100

[HitObjects]
128,192,682,1,0
192,192,997,1,0
224,192,1312,1,0
256,192,1626,1,0
128,192,3042,1,0
160,192,3357,1,0
192,192,3671,1,0
224,192,4143,1,0
96,192,5664,5,0
160,192,6031,1,0
192,192,6345,1,0
224,192,6660,1,0
256,192,7027,1,0
96,192,8705,5,0
128,192,9020,1,0
192,192,9387,1,0
224,192,9754,1,0
96,160,11536,5,0
128,192,11851,1,0
160,224,12218,1,0
192,256,12480,1,0
64,128,14053,5,0
96,192,14368,1,0
160,224,14683,1,0
224,224,15050,1,0
64,128,16885,5,0
128,128,17252,1,0
160,128,17619,1,0
224,128,17933,1,0
64,128,19716,5,0
128,128,20083,1,0
224,128,20398,1,0
288,128,20765,1,0
96,128,41844,5,0
224,128,42473,1,0
352,128,43050,1,0
352,256,43731,1,0
64,128,45042,5,0
128,128,45724,1,0
160,128,45986,1,0
224,128,46301,1,0
256,128,46511,1,0
288,128,46825,1,0
320,128,47035,1,0
352,128,47559,1,0
96,96,48293,5,0
128,96,48608,1,0
160,96,49080,1,0
192,96,49237,1,0
224,96,49657,1,0
256,96,49814,1,0
96,128,51072,5,0
128,128,51335,1,0
128,128,51492,1,0
160,128,51859,1,0
160,128,52016,1,0
224,128,52488,1,0
288,128,53170,1,0
96,192,53956,5,0
128,192,54586,1,0
64,128,56526,5,0
96,128,56788,1,0
128,128,56945,1,0
160,128,57312,1,0
160,128,57469,1,0
224,128,57837,1,0
224,128,58046,1,0
320,128,58623,5,0
96,128,59462,5,0
128,128,59672,1,0
128,128,59777,1,0
160,128,60091,1,0
160,128,60249,1,0
192,128,60616,1,0
192,128,60773,1,0
96,160,62136,5,0
128,160,62398,1,0
160,160,62870,1,0
192,160,63237,1,0
256,160,63552,1,0
64,160,64496,1,0
128,160,64915,1,0
160,160,65649,1,0
64,160,67170,5,0
128,160,67694,1,0
192,160,68324,1,0
256,160,69320,5,0
288,160,69739,1,0
320,160,70316,1,0
96,160,71155,5,0
128,160,71470,1,0
160,160,71784,1,0
96,128,72885,5,0
128,160,73200,1,0
160,192,73777,1,0
192,224,74354,1,0
192,224,74721,1,0
192,224,74930,1,0
224,256,75245,1,0
224,256,75612,1,0
256,288,75979,1,0
320,320,76661,1,0
64,192,77080,5,0
160,192,77709,1,0
224,192,78496,1,0
320,192,79597,5,0
320,192,79912,1,0
384,192,80384,1,0
480,192,81537,1,0
32,160,82271,5,0
64,192,82586,1,0
160,160,82900,1,0
256,160,83635,5,0
320,160,84211,1,0
128,192,84945,5,0
224,224,85627,1,0
288,192,86309,1,0
160,128,86990,1,0
224,192,87777,5,0
64,160,88668,5,0
160,160,89455,1,0
224,160,90451,1,0
256,160,90766,1,0
288,160,91395,1,0
352,160,92234,1,0
128,160,93335,5,0
160,160,93650,1,0
224,160,93912,1,0
288,128,94646,5,0
320,160,95170,1,0
384,192,95904,1,0
128,192,96691,5,0
224,192,97372,1,0
320,192,98002,1,0
384,192,98736,1,0
416,192,99155,1,0
448,192,99522,1,0
128,192,111845,5,0
128,192,112107,1,0
160,192,112421,1,0
192,192,112684,1,0
192,192,112998,1,0
224,192,113313,1,0
256,192,113994,1,0
96,160,114624,5,0
160,160,114886,1,0
224,160,115253,1,0
256,160,115463,1,0
288,160,115830,1,0
288,160,116039,1,0
96,192,117298,5,0
160,192,117508,1,0
192,192,117665,1,0
256,160,118032,1,0
288,160,118242,1,0
320,160,118609,1,0
352,160,118766,1,0
416,160,119343,1,0
96,160,120024,5,0
160,160,120811,1,0
224,192,121440,5,0
96,224,122803,5,0
160,224,123013,1,0
224,224,123538,1,0
288,224,123747,1,0
320,224,124114,1,0
352,224,124324,1,0
384,224,124796,1,0
64,224,125530,5,0
128,224,125792,1,0
160,224,125950,1,0
224,224,126317,1,0
224,224,126474,1,0
288,224,126789,1,0
288,224,126998,1,0
64,192,128414,5,0
96,192,128886,1,0
128,192,129148,1,0
160,192,129410,1,0
192,192,129672,1,0
288,192,130669,5,0
192,192,131036,1,0
256,160,131508,1,0
288,160,132399,1,0
288,160,132609,1,0
288,160,132714,1,0
288,160,132871,1,0
96,192,133395,5,0
192,192,133867,1,0
256,192,134496,1,0
64,192,135545,5,0
160,192,135860,1,0
192,192,136122,1,0
224,192,136384,1,0
288,192,137276,1,0
320,192,137538,1,0
320,192,137957,1,0
96,192,138901,5,0
160,192,139320,1,0
224,192,139950,1,0
288,192,140317,1,0
352,192,140684,1,0
384,192,140998,1,0
64,192,141628,5,0
160,192,142204,1,0
224,192,142467,1,0
288,192,142729,1,0
320,192,142939,1,0
320,192,143096,1,0
352,192,143201,1,0
352,192,143306,1,0
352,192,143463,1,0
32,192,143935,1,0
96,192,144721,1,0
224,192,145613,5,0
256,192,145927,1,0
288,192,146557,1,0
64,192,147658,1,0
288,224,148444,1,0
224,224,148706,1,0
160,224,149073,1,0
96,192,149807,5,0
224,192,150437,1,0
352,192,151118,1,0
96,192,151800,5,0
224,192,152482,1,0
320,192,153111,1,0
96,192,153897,1,0
192,192,154736,5,0
192,224,155733,1,0
192,256,156676,1,0
192,256,156991,1,0
224,256,157673,1,0
256,256,158512,1,0
96,160,159613,5,0
128,160,159927,1,0
160,160,160190,1,0
192,160,160819,1,0
224,160,161448,1,0
256,160,162130,1,0
288,160,162916,1,0
320,160,163598,1,0
96,224,164332,5,0
128,224,164856,1,0
160,224,165328,1,0
192,224,165643,1,0
96,192,178070,5,0
96,192,178385,1,0
128,192,178804,1,0
160,192,179381,1,0
256,192,180010,1,0
288,192,180692,1,0
320,192,181373,1,0
352,192,181793,1,0
384,192,182107,1,0
64,192,183628,5,0
96,192,183943,1,0
128,192,184257,1,0
224,192,184886,1,0
256,192,185516,1,0
288,192,186197,1,0
352,192,186879,1,0
352,192,186984,1,0
352,192,187299,1,0
384,192,187718,1,0
64,192,189029,5,0
96,192,189343,1,0
128,192,189658,1,0
160,192,190078,1,0
224,192,190445,1,0
64,192,191441,5,0
96,192,191808,1,0
160,192,192437,1,0
192,192,192857,1,0
224,192,193224,1,0
256,192,193748,1,0
96,160,201718,1,0
160,160,201980,1,0
192,160,202347,1,0
224,160,202714,1,0
96,160,204497,5,0
128,160,204759,1,0
160,160,205126,1,0
224,160,205441,1,0
96,192,207224,5,0
128,192,207538,1,0
192,192,207853,1,0
224,192,208220,1,0
192,192,230400,1,0
128,192,230977,1,0
64,128,231711,5,0
128,160,232183,1,0
192,192,232969,1,0
192,224,233966,5,0
224,256,234280,1,0
288,256,234857,1,0
352,256,235958,1,0
96,192,236797,5,0
160,192,237007,1,0
192,192,237374,1,0
288,192,238056,1,0
320,192,238685,1,0
352,192,239419,1,0
160,224,240101,1,0
224,224,240835,5,0
256,224,241516,1,0
288,224,242146,1,0
64,192,243089,5,0
96,192,244033,1,0
128,192,244820,1,0
160,192,245187,1,0
192,192,246026,5,0
224,192,246865,1,0
96,192,247861,5,0
96,192,248123,1,0
160,192,248438,1,0
192,192,249014,1,0
224,192,249749,1,0
256,192,250535,1,0
288,192,251164,1,0
160,192,251794,5,0
192,192,252528,1,0
224,192,253104,1,0
256,192,253471,1,0
192,192,253891,1,0
256,192,255149,12,0,264326
128,192,265532,1,0
224,192,266161,1,0
96,192,268101,1,0
192,192,269045,1,0
96,192,270670,5,0
192,192,271981,1,0
96,192,273659,5,0
192,192,274708,1,0
288,192,276490,1,4
288,192,277382,1,4
288,192,278378,1,4
