osu file format v9

[General]
AudioFilename: Within Temptation - Angels .mp3
AudioLeadIn: 0
PreviewTime: 116081
Countdown: 2
SampleSet: Normal
StackLeniency: 0.7
Mode: 0
LetterboxInBreaks: 1

[Editor]
Bookmarks: 74864
DistanceSpacing: 1
BeatDivisor: 4
GridSize: 8

[Metadata]
Title:Angels
Artist:Within Temptation
Creator:Louis Cyphre
Version:Normal
Source:
Tags:IceBeam

[Difficulty]
HPDrainRate:4
CircleSize:3
OverallDifficulty:4
ApproachRate:5
SliderMultiplier:1.7
SliderTickRate:2

[Events]
//Background and Video events
0,0,"BG.jpg"
//Break Periods
2,150958,168024
//Storyboard Layer 0 (Background)
//Storyboard Layer 1 (Fail)
//Storyboard Layer 2 (Pass)
//Storyboard Layer 3 (Foreground)
//Storyboard Sound Samples
//Background Colour Transformations
3,100,163,162,255

[TimingPoints]
50516,659.48560123104,4,1,1,20,1,0
50958,-100,4,1,1,30,0,0
51618,-100,4,1,1,40,0,0
52277,-100,4,1,1,50,0,0
52937,-100,4,1,1,60,0,0
53596,-100,4,1,1,70,0,0
54256,-100,4,1,1,80,0,0
54915,-100,4,1,1,90,0,0
55791,-100,4,1,1,100,0,1
58954,-100,4,2,2,100,0,1
59119,-100,4,1,1,100,0,1
60849,-100,4,1,2,75,0,1
61179,-100,4,1,1,75,0,1
66178,-100,4,1,1,75,0,0
66343,-100,4,1,1,75,0,1
69506,-100,4,2,2,75,0,1
69671,-100,4,1,1,75,0,1
76101,-100,4,2,2,75,0,1
76266,-100,4,1,1,75,0,1
76895,-100,4,1,1,60,0,0
81377,-100,4,2,2,60,0,0
81542,-100,4,1,1,60,0,0
89291,-100,4,2,2,60,0,0
89456,-100,4,1,1,60,0,0
102480,-100,4,2,2,60,0,0
102645,-100,4,1,1,60,0,0
105118,-100,4,2,2,60,0,0
105283,-100,4,1,1,60,0,0
113608,-100,4,1,1,20,0,0
114267,-100,4,1,1,30,0,0
114927,-100,4,1,1,40,0,0
115586,-100,4,1,1,50,0,0
116246,-100,4,1,1,60,0,0
116905,-100,4,1,1,70,0,0
117565,-100,4,1,1,80,0,0
118554,-100,4,1,1,90,0,0
119102,-100,4,1,1,75,0,1
123584,-100,4,2,2,75,0,1
123749,-100,4,1,1,75,0,1
134930,-100,4,1,1,75,0,0
150675,-100,4,1,1,75,0,0
169170,-100,4,1,1,30,0,0
169664,-100,4,1,1,45,0,0
170324,-100,4,1,1,60,0,0
170983,-100,4,1,1,75,0,0
171774,-100,4,1,1,60,0,0
175565,-100,4,1,1,60,0,0
175895,-100,4,2,0,60,0,0
176918,-100,4,1,1,45,0,0
177908,-100,4,2,1,45,0,0
178203,-100,4,1,1,60,0,0
178532,-100,4,2,0,60,0,0
179556,-100,4,1,1,60,0,0
179886,-100,4,2,0,60,0,0
181005,-100,4,1,1,65,0,0
181664,-100,4,2,2,70,0,0
181784,-100,4,1,1,70,0,0
182324,-100,4,2,0,70,0,0
183477,-100,4,1,1,70,0,0
184137,-100,4,2,0,70,0,0
184832,-100,4,1,2,70,0,0
185162,-100,4,2,0,70,0,0
186280,-100,4,1,1,70,0,0
186774,-100,4,2,0,70,0,0
187470,-100,4,1,1,70,0,0
187800,-100,4,1,1,70,0,0
188752,-100,4,1,1,100,0,0
189203,-100,4,2,0,100,0,0
193862,-100,4,2,0,5,0,0
194933,-100,4,1,1,50,0,0
196664,-100,4,1,1,55,0,0
198240,-100,4,1,1,70,0,1
208627,-100,4,1,1,55,0,0
208792,-100,4,1,1,55,0,1
214068,-100,4,1,1,55,0,0
216571,-100,4,1,2,55,0,0
216736,-100,4,1,1,55,0,0

[Colours]
Combo1 : 0,91,136
Combo2 : 210,171,243
Combo3 : 81,81,255
Combo4 : 128,0,128

[HitObjects]
208,48,50515,2,0,B|120:96|96:192|120:288|208:336|304:336|392:288|416:192|392:96|304:48,2,680,0|0|4
256,192,56451,1,8
400,240,57110,2,0,B|422:285|400:330|354:353|309:330,1,170,0|8
160,344,58429,6,0,B|200:312|208:256|208:256|144:232|112:168|144:96|208:80,1,340
256,144,60078,1,0
304,80,60409,2,0,B|368:96|400:168|368:232|304:256|304:256|312:312|352:344,1,340,8|8
456,232,62386,2,0,B|456:152|456:152|456:112|424:64,1,170,0|8
304,168,63706,6,0,B|304:224|256:256|208:224|208:168,2,170,4|8|8
304,88,65355,1,0
256,24,65685,1,0
208,88,66014,2,0,B|160:72,2,42.5,0|0|8
216,240,67004,6,0,B|200:296|256:328|312:296|296:240,2,170,8|0|8
368,200,68982,2,0,B|360:96|256:56|152:96|144:200,1,340
160,272,70631,2,0,B|168:320|208:344,1,85,0|8
256,280,71290,1,0
312,344,71620,2,0,B|348:322|356:274,2,85,4|0|8
336,192,72939,5,0
256,208,73269,1,0
176,192,73598,2,0,B|128:192|96:160,2,85,8|0|0
256,208,74588,1,0
336,192,74917,2,0,B|384:192|408:240,2,85,8|0|0
328,272,75907,2,0,B|328:336|304:360|256:384|208:360|184:328|184:272,1,255,0|4
256,232,77226,6,0,B|256:184,2,42.5,0|0|8
248,64,78215,2,0,B|327:103|327:103|322:161|374:181,1,170,0|8
411,109,79204,1,0
455,40,79534,2,0,B|499:62|518:124|488:173|440:185,1,170,0|8
400,312,80853,6,0,B|304:336|256:251|256:251|208:336|112:312,1,340
120,232,82502,2,0,B|72:200,2,42.5,0|0|8
192,96,83491,6,0,B|208:48|256:32|304:48|320:96,1,170,0|8
256,144,84480,1,0
192,192,84810,2,0,B|208:240|256:256|304:240|320:192,1,170,0|8
400,320,86129,5,0
256,360,86788,1,8
112,320,87448,1,0
112,240,87777,2,0,B|64:192,2,42.5
216,128,88767,6,0,B|176:112|168:80|176:40|200:0|256:-16|312:0|336:40|344:80|336:112|296:128,1,340
256,280,90745,1,8
400,232,91405,6,0,B|376:144|424:160|400:64,1,170,0|8
328,96,92394,1,0
256,64,92724,2,0,B|232:159|280:143|256:231,1,170,0|8
184,200,93713,1,0
136,264,94043,6,0,B|96:256|70:200|96:144|136:136,2,170,0|8|0
256,192,96021,1,8
374,135,96680,2,0,B|416:144|442:200|416:256|376:264,2,170,0|8|4
304,104,98329,1,0
256,40,98659,1,8
152,152,99318,6,0,B|152:200|152:232|152:232|160:288|208:304,1,170,0|8
256,240,100308,1,0
309,301,100637,2,0,B|352:288|360:232|360:232|360:200|360:152,1,170,0|8
424,104,101627,1,0
361,55,101956,6,0,B|320:56|328:120|328:120|272:96|256:142|256:142|240:96|184:120|184:120|192:56|152:56,1,340
104,120,103605,2,0,B|40:184,1,85,0|8
192,232,104594,6,0,B|160:264|160:304|184:360|256:384|328:360|352:304|352:264|320:232,1,340
256,184,106243,1,0
256,104,106573,1,8
408,80,107232,6,0,B|472:16,2,85,0|0|8
344,40,108221,2,0,B|320:88|328:152|392:176|456:168|488:96,1,255,0|8
400,232,109870,5,0
256,168,110530,2,0,B|256:64,2,85,8|0|0
112,232,111849,1,8
184,96,112508,1,0
256,64,112838,1,0
328,96,113168,1,8
256,232,113827,5,0
256,192,113992,12,4,119103
296,152,119762,6,0,B|360:88,2,85,8|0|0
216,152,120752,2,0,B|152:88,1,85,0|8
256,224,121741,6,0,B|256:312,2,85,0|0|8
376,136,123060,2,0,B|264:128|256:38|256:38|248:128|136:136,1,340,0|4
200,280,125038,5,8
256,336,125368,1,0
312,280,125698,1,0
256,136,126357,1,8
408,120,127017,6,0,B|481:193|402:272,1,170
256,272,128336,1,4
256,192,128666,2,0,B|256:96,3,85,0|0|0|4
104,120,130314,6,0,B|64:152|48:192|64:232|104:264,2,170,0|0|8
256,160,132293,2,0,B|232:248|280:248|256:328,1,170,0|8
392,264,133612,1,0
424,192,133941,1,0
392,120,134271,1,8
256,56,134931,5,0
256,136,135260,2,0,B|256:224,2,85,0|8|0
256,56,136250,1,0
144,160,136909,6,0,B|144:240|144:240|184:264|184:328,1,170,8|0
256,280,137898,1,0
328,316,138228,2,0,B|328:264|368:240|368:240|368:160,1,170,8|0
256,56,139547,2,0,B|256:224,1,170,8|4
408,248,140866,5,0
440,176,141196,1,0
408,104,141526,1,8
256,96,142185,5,0
256,176,142515,1,0
256,256,142844,1,8
104,248,143504,5,0
72,176,143834,1,0
104,104,144162,1,8
256,96,144823,5,0
256,176,145153,1,0
328,192,145482,1,4
256,192,145647,12,4,148120
256,192,148285,12,4,150758
256,192,169224,12,4,171862
408,352,173181,5,0
408,48,174500,1,4
104,48,175819,5,0
104,352,177138,1,0
408,344,178457,5,0
303,55,179776,2,0,B|344:128|328:192|255:223|184:192|168:128|208:56,2,340,4|8|4
392,352,183733,5,0
256,280,184392,1,0
120,352,185052,1,0
160,48,186371,5,0
256,168,187030,1,0
352,48,187690,1,0
256,336,189008,5,0
256,184,189668,1,0
256,32,190327,1,0
256,192,190492,12,4,194284
256,192,195603,5,4
256,192,195768,12,4,198241
256,192,198901,5,0
336,192,199231,1,0
384,128,199560,2,0,B|432:144|448:192|432:240|384:256,1,170,0|8
256,168,200879,6,0,B|256:64,2,85,0|0|8
110,255,202198,2,0,B|64:240|48:192|64:144|112:128,2,170,0|8|4
256,312,204177,5,8
256,232,204506,1,0
192,184,204836,2,0,B|208:136|256:125|304:136|320:184,1,170,0|8
448,104,206155,6,0,B|424:192|472:192|448:272,1,170,8|8
320,192,207474,1,8
256,240,207804,1,0
192,192,208134,1,0
256,56,208793,1,4
104,88,209453,6,0,B|40:152,1,85,8|0
112,192,210112,2,0,B|80:232|32:232|32:232|32:320,1,170,0|8
184,336,211431,2,0,B|208:304|256:272|304:304|328:336,1,170,0|8
368,192,212750,5,0
320,128,213080,1,0
256,80,213409,1,8
144,192,214069,5,4
256,304,214728,1,8
368,192,215388,1,0
408,48,216047,6,0,B|312:24|256:98|256:98|200:24|104:48,1,340,8|8
192,176,218026,1,0
256,224,218356,1,0
320,176,218685,1,8
256,40,219345,5,4
344,160,220004,1,0
344,160,220334,1,0
344,160,220664,1,8
256,288,221323,5,0
256,288,221653,1,0
256,288,221983,1,8
168,160,222642,5,0
168,160,222972,1,0
168,160,223302,1,8
171,312,223961,6,0,B|339:312,1,170,0|4
256,192,224786,12,4,227259
256,192,227424,12,4,229897
