osu file format v9

[General]
AudioFilename: Within Temptation - Angels .mp3
AudioLeadIn: 0
PreviewTime: 116081
Countdown: 2
SampleSet: Normal
StackLeniency: 0.7
Mode: 0
LetterboxInBreaks: 1

[Editor]
DistanceSpacing: 0.8
BeatDivisor: 4
GridSize: 8

[Metadata]
Title:Angels
Artist:Within Temptation
Creator:Louis Cyphre
Version:Hard
Source:
Tags:IceBeam

[Difficulty]
HPDrainRate:5
CircleSize:4
OverallDifficulty:6
ApproachRate:6
SliderMultiplier:2.2
SliderTickRate:2

[Events]
//Background and Video events
0,0,"BG.jpg"
//Break Periods
2,150957,168173
//Storyboard Layer 0 (Background)
//Storyboard Layer 1 (Fail)
//Storyboard Layer 2 (Pass)
//Storyboard Layer 3 (Foreground)
//Storyboard Sound Samples
//Background Colour Transformations
3,100,163,162,255

[TimingPoints]
50516,659.48560123104,4,1,1,20,1,0
50958,-100,4,1,1,30,0,0
51618,-100,4,1,1,40,0,0
52277,-100,4,1,1,50,0,0
52937,-100,4,1,1,60,0,0
53596,-100,4,1,1,70,0,0
54256,-100,4,1,1,80,0,0
54915,-100,4,1,1,90,0,0
55791,-100,4,1,1,100,0,1
60849,-100,4,1,2,75,0,1
61179,-100,4,1,1,75,0,1
66178,-100,4,1,1,75,0,0
66343,-100,4,1,1,75,0,1
71401,-100,4,1,2,75,0,1
71731,-100,4,1,1,75,0,1
76895,-100,4,1,2,60,0,0
77006,-100,4,1,1,60,0,0
113608,-100,4,1,1,20,0,0
114267,-100,4,1,1,30,0,0
114927,-100,4,1,1,40,0,0
115586,-100,4,1,1,50,0,0
116246,-100,4,1,1,60,0,0
116905,-100,4,1,1,70,0,0
117565,-100,4,1,1,80,0,0
118554,-100,4,1,1,90,0,0
119102,-100,4,1,1,75,0,1
124160,-100,4,1,2,75,0,1
124489,-100,4,1,1,75,0,1
134930,-100,4,1,1,75,0,0
150675,-100,4,1,1,75,0,0
169170,-100,4,1,1,30,0,0
169664,-100,4,1,1,45,0,0
170324,-100,4,1,1,60,0,0
170983,-100,4,1,1,75,0,0
171774,-100,4,2,1,60,0,0
175565,-100,4,1,1,60,0,0
175895,-100,4,2,0,60,0,0
176918,-100,4,1,1,45,0,0
177908,-100,4,2,1,45,0,0
178203,-100,4,1,1,60,0,0
178532,-100,4,2,0,60,0,0
179556,-100,4,1,1,60,0,0
179886,-100,4,2,0,60,0,0
181005,-100,4,1,1,65,0,0
181664,-100,4,1,1,70,0,0
182324,-100,4,2,0,70,0,0
183477,-100,4,1,1,70,0,0
184137,-100,4,2,0,70,0,0
184832,-100,4,1,2,70,0,0
185162,-100,4,2,0,70,0,0
186280,-100,4,1,1,70,0,0
186774,-100,4,2,0,70,0,0
187470,-100,4,1,1,70,0,0
187800,-100,4,1,1,70,0,0
188752,-100,4,1,1,70,0,0
193862,-100,4,2,0,5,0,0
194933,-100,4,2,0,50,0,0
196664,-100,4,1,1,55,0,0
198240,-100,4,1,1,70,0,1
203298,-100,4,1,2,70,0,1
203628,-100,4,1,1,70,0,1
208627,-100,4,1,1,55,0,0
208792,-100,4,1,1,55,0,1
214016,-100,4,1,2,55,0,0
214179,-100,4,1,1,55,0,0

[Colours]
Combo1 : 0,91,136
Combo2 : 210,171,243
Combo3 : 81,81,255
Combo4 : 128,0,128

[HitObjects]
216,312,50516,1,0
352,232,50845,1,0
296,80,51175,1,0
160,160,51505,1,0
296,312,51834,5,0
352,152,52164,1,0
216,80,52494,1,0
160,232,52824,1,0
336,248,53153,5,0
312,88,53483,1,0
160,144,53813,1,0
184,304,54143,1,0
352,176,54472,5,0
222,79,54802,1,0
154,226,55132,1,0
284,323,55462,1,0
352,176,55791,1,4
432,312,56451,6,0,B|432:272|408:248|360:248,1,110,8|0
360,160,57110,2,0,B|366:225|312:262|246:269|209:214,1,220,0|8
264,144,58100,1,0
328,80,58429,6,0,B|290:24|224:31|170:68|177:133,2,220,0|8|0
408,48,60078,1,0
448,128,60408,1,8
368,160,60738,2,0,B|416:192|416:232|416:232|464:256|472:296|464:344,1,220
384,304,61727,6,0,B|321:303|303:240,1,110,8|0
224,272,62386,2,0,B|288:256|312:192|288:128|224:112,1,220,0|8
184,192,63375,1,0
144,272,63705,6,0,B|80:256|56:192|80:128|144:112,1,220,4|8
320,128,65024,1,4
448,88,65354,1,0
456,216,65684,1,0
448,224,65849,1,0
440,232,66013,1,0
432,240,66178,1,0
424,248,66343,1,4
488,312,66673,5,0
400,328,67003,2,0,B|400:264|344:240,1,110,8|0
112,328,67662,2,0,B|112:264|168:240,1,110
200,320,68322,1,8
256,248,68651,1,0
168,176,68981,6,0,B|140:125|172:69,1,110
256,80,69641,1,8
256,168,69970,1,0
344,176,70300,2,0,B|371:125|341:71,2,110,0|0|8
400,240,71289,6,0,B|352:304|256:336|160:304|112:240,1,330,0|8
96,328,72608,1,0
32,264,72938,2,0,B|160:216|112:88,1,220,0|8
40,136,73927,1,0
0,56,74257,1,0
80,16,74587,6,0,B|112:64|176:56,1,110,0|8
256,24,75246,2,0,B|168:40|128:104|168:184,1,220
256,192,76235,1,8
343,199,76565,6,0,B|384:280|344:344|256:360,1,220
216,344,77390,2,0,B|248:296,1,55,0|8
200,224,77884,1,0
112,240,78214,6,0,B|96:200|112:128|184:104|248:152,1,220,0|8
264,64,79203,2,0,B|242:108|240:168|272:216|352:224,1,220
336,264,80027,2,0,B|248:296,1,55,0|8
416,304,80852,5,0
336,344,81182,1,0
256,304,81511,1,8
176,344,81841,2,0,B|152:288|164:220|232:200|288:224,1,220
288,176,82665,1,0
256,144,82830,2,0,B|255:81|311:57,1,110,8|0
400,48,83490,5,0
344,120,83820,2,0,B|344:182|288:206,1,110,0|8
344,280,84479,2,0,B|320:216|264:192|200:208|168:256,1,220
96,200,85468,1,8
32,136,85798,1,0
136,56,86128,6,0,B|204:55|208:120,1,110
272,56,86787,1,8
296,144,87117,2,0,B|209:112|145:192|169:264,1,220
128,248,87941,2,0,B|128:312,1,55,0|8
304,288,88766,5,0
312,280,88931,1,0
320,272,89095,1,0
360,192,89425,1,8
432,136,89755,2,0,B|400:88|336:104,1,110
256,64,90414,1,0
256,72,90579,1,0
256,80,90744,1,8
192,136,91074,1,0
128,192,91404,6,0,B|168:264|168:264|248:248|280:320,1,220,0|8
352,272,92393,2,0,B|320:208|264:192|264:192|288:144|264:96,1,220
256,88,93217,1,0
248,80,93382,1,8
112,192,94042,6,0,B|152:248|152:248|152:344|256:336,1,220,0|8
240,248,95031,1,0
232,160,95361,2,0,B|325:152|325:248|325:248|365:305,1,220,0|8
416,232,96350,1,0
496,192,96679,6,0,B|464:128|392:152|392:152|360:128|360:64,1,220,0|8
272,40,97669,2,0,B|264:80|272:120|296:152,1,110
360,200,98328,2,0,B|304:176|248:200,1,110,0|8
304,272,98988,5,0
296,272,99153,1,0
288,272,99317,2,0,B|232:264|232:264|192:256|168:208|176:152|224:136,1,220,0|8
307,130,100307,1,0
317,42,100636,2,0,B|381:42|397:98|397:98|412:42|486:41,1,220,0|8
472,128,101626,5,0
472,136,101791,1,0
472,144,101955,2,0,B|472:208|416:232,1,110,8|0
384,152,102615,6,0,B|320:160|296:104,1,110,8|0
128,152,103274,2,0,B|192:160|216:104,1,110,8|0
256,184,103934,1,4
256,272,104264,6,0,B|256:328,2,55
336,232,104923,2,0,B|387:260|440:232,1,110,0|8
388,160,105583,2,0,B|428:120|484:144|484:144|500:80|452:40,1,220
368,80,106572,1,8
296,128,106902,5,0
288,136,107066,1,0
280,144,107231,1,8
200,104,107561,1,0
168,24,107891,2,0,B|104:40|112:104,1,110,8|0
24,128,108550,2,0,B|64:160|112:136|112:136|192:152|192:240,1,220,8|4
103,220,109539,5,0
101,230,109704,1,0
99,240,109869,1,0
168,296,110199,2,0,B|213:284|213:284|230:256|258:239,1,110,0|8
336,272,110858,2,0,B|272:256|248:200|256:128|312:96,1,220
232,56,111848,1,8
312,16,112177,6,0,B|296:152|448:160,1,220
480,240,113167,1,8
392,232,113496,1,0
392,320,113826,6,0,B|328:312|312:248,1,110
120,320,114486,2,0,B|184:312|200:248,1,110
392,64,115145,2,0,B|328:72|312:136,1,110
120,64,115805,2,0,B|184:72|200:136,1,110
256,192,116464,5,0
168,208,116794,2,0,B|168:256|168:256|176:288|208:304,1,110
344,176,117453,2,0,B|344:128|344:128|336:96|304:80,1,110
232,136,118113,2,0,B|184:112|184:112|168:80|176:56,1,110
280,248,118772,2,0,B|328:272|328:272|344:304|336:328,1,110,0|4
168,264,119761,6,0,B|104:256|96:192,1,110,8|0
184,176,120421,2,0,B|240:176|288:136|296:72|248:16,1,220,0|8
184,80,121410,1,0
160,0,121740,6,0,B|127:11|110:29|81:68|103:115|103:115|57:119|32:169,1,220,0|8
120,200,122729,1,0
128,208,122894,1,0
136,216,123059,2,0,B|176:256|240:248,1,110
248,160,123718,1,8
264,72,124048,2,0,B|312:72|328:112|328:144|328:144|328:176|344:224|392:224,1,220
472,256,125037,6,0,B|456:320|384:312,1,110,8|0
344,240,125697,2,0,B|312:248|280:240|256:192|256:192|232:240|200:248|168:240,1,220,0|8
200,320,126686,1,0
112,296,127016,2,0,B|168:256|176:216|168:168|144:136|96:128,1,220,8|8
208,56,128170,6,0,B|232:104,1,55,0|8
272,24,128665,2,0,B|304:88|304:88|312:144|280:168|248:192|208:184|176:152|176:152|144:88,1,330,0|4
56,88,129984,1,0
56,176,130313,6,0,B|32:232|56:288,1,110,8|0
232,312,130973,2,0,B|253:260|229:204,1,110
144,240,131632,1,8
152,152,131962,1,0
96,80,132292,6,0,B|160:48|224:64|248:120|232:192,2,220,0|8|0
152,152,133940,1,0
72,192,134270,2,0,B|128:240|128:240|176:232|232:248|256:304,1,220,8|4
336,272,135259,1,0
416,232,135589,2,0,B|386:178|322:185,2,110,8|0|0
488,280,136578,1,0
488,192,136908,6,0,B|469:152|424:104|352:96|295:107,1,220,8|4
256,32,137897,1,0
176,72,138227,2,0,B|112:88|80:136|80:192|128:248,1,220,8|0
208,176,139216,1,0
240,272,139546,2,0,B|304:256|336:208|336:152|288:96,1,220,8|4
376,72,140535,5,0
480,248,140865,2,0,B|424:152,2,110,8|0|4
312,144,141854,5,0
368,336,142184,2,0,B|336:232,2,110,8|0|4
200,144,143173,5,0
144,336,143503,2,0,B|176:232,2,110,8|0|4
136,72,144492,5,0
32,248,144822,2,0,B|88:152,2,110,8|0|4
256,192,145646,12,4,148119
256,192,148284,12,4,150757
376,192,169223,5,0
256,312,169553,1,0
136,192,169882,1,0
256,72,170212,1,0
340,276,170542,5,0
171,276,170872,1,0
171,107,171201,1,0
340,107,171531,1,0
376,192,171861,6,0,B|400:344|256:384|112:344|136:192,2,440,4|0|4
256,64,175158,1,0
256,152,175488,1,0
208,224,175818,2,0,B|192:256|200:304|256:336|312:304|320:256|304:224,2,220,0|0|4
472,192,178126,5,0
464,104,178456,2,0,B|384:112|384:192|384:192|296:192,1,220
48,104,179775,6,0,B|128:112|128:192|128:192|216:192,1,220
288,248,180764,1,0
328,328,181094,2,0,B|376:296|376:232,1,110,8|0
184,56,181753,2,0,B|136:88|136:152,1,110,8|0
360,64,182413,6,0,B|416:75|461:109|461:109|408:176|461:245|461:245|410:352|320:329,1,440,4|0
152,64,184391,2,0,B|95:75|50:109|50:109|104:176|50:245|50:245|101:352|191:329,1,440
256,272,186040,1,0
208,192,186370,6,0,B|208:152|208:152|208:120|256:86|304:120|304:152|304:152|304:192,1,220
128,192,187689,2,0,B|128:248|152:320|255:351|255:351|360:320|384:248|384:192,1,440,4|8
256,72,189667,5,0
384,192,190326,5,0
344,272,190656,1,0
256,296,190986,1,0
168,272,191316,1,0
128,192,191645,1,4
256,64,192305,6,0,B|232:104|222:175|289:175|280:232|256:272,1,220,8|4
256,192,193129,12,0,194283
256,192,195273,6,0,B|256:232,4,27.5
256,152,195767,1,0
384,192,196262,5,0
256,320,196592,1,0
256,272,196756,2,0,B|256:240,2,27.5
168,248,197251,5,0
128,232,197416,1,0
104,192,197581,1,0
128,152,197746,1,0
168,136,197911,1,0
256,112,198240,1,4
296,192,198570,5,0
360,128,198900,2,0,B|392:192|360:264,1,110,8|0
440,288,199559,2,0,B|336:224|232:296,1,220,0|8
184,224,200548,1,0
104,256,200878,6,0,B|88:208|104:136|168:120|232:144,2,220,0|8|0
184,224,202527,2,0,B|216:256|248:240|280:272,1,110
288,360,203186,2,0,B|272:312|288:239|352:224|415:247,1,220
472,184,204176,6,0,B|464:128|408:96,1,110,8|0
360,24,204835,2,0,B|312:56|320:112|320:112|272:160|208:128,1,220,0|8
208,40,205824,1,0
128,72,206154,2,0,B|104:184|160:176|136:296,1,220,8|8
264,264,207308,6,0,B|314:247,1,55,0|8
286,331,207803,2,0,B|353:308|353:308|399:274|393:234|387:195|353:172|308:172|308:172|240:195,1,330,0|4
192,264,209122,1,0
160,344,209452,6,0,B|104:320|104:256,1,110,8|0
160,56,210111,2,0,B|104:80|104:144,1,110
176,192,210771,1,8
264,192,211100,1,0
344,152,211430,6,0,B|384:136|432:144|456:192|432:240|384:248|344:232,2,220,0|8|0
256,128,213079,1,0
192,192,213408,1,8
256,256,213738,6,0,B|200:320|80:296|46:192|80:88|200:64|256:128,1,440
320,192,215387,1,0
360,272,215717,6,0,B|408:240|408:176,1,110,0|8
280,112,216376,2,0,B|232:144|232:208,1,110,0|4
104,205,217036,6,0,B|104:144|152:112,1,110,0|8
279,178,217695,2,0,B|280:240|232:272,1,110
192,192,218355,1,0
136,264,218684,2,0,B|200:248|288:280|288:376,1,220,8|4
256,192,219674,5,0
336,136,220003,2,0,B|360:192|336:248,1,110,8|0
256,192,220663,1,4
152,136,220993,6,0,B|128:192|152:248,2,110,0|8|0
256,192,221982,1,4
392,136,222311,6,0,B|416:192|392:248,2,110,0|8|0
256,192,223301,1,4
88,248,223630,6,0,B|64:192|88:136,2,110,0|8|0
256,192,224620,1,4
256,192,224785,12,8,227258
256,192,227423,12,4,229896
