osu file format v9

[General]
AudioFilename: Within Temptation - Angels .mp3
AudioLeadIn: 0
PreviewTime: 116081
Countdown: 2
SampleSet: Normal
StackLeniency: 0.7
Mode: 0
LetterboxInBreaks: 1

[Editor]
DistanceSpacing: 1
BeatDivisor: 4
GridSize: 4

[Metadata]
Title:Angels
Artist:Within Temptation
Creator:Louis Cyphre
Version:Beamsy
Source:
Tags:IceBeam

[Difficulty]
HPDrainRate:1
CircleSize:3
OverallDifficulty:1
ApproachRate:2
SliderMultiplier:0.999999999999999
SliderTickRate:2

[Events]
//Background and Video events
0,0,"BG.jpg"
//Break Periods
2,77095,86546
2,150957,167663
2,193164,196680
//Storyboard Layer 0 (Background)
//Storyboard Layer 1 (Fail)
//Storyboard Layer 2 (Pass)
//Storyboard Layer 3 (Foreground)
//Storyboard Sound Samples
//Background Colour Transformations
3,100,163,162,255

[TimingPoints]
50516,659.48560123104,4,1,0,20,1,0
50958,-100,4,1,0,30,0,0
51618,-100,4,1,0,40,0,0
52277,-100,4,1,0,50,0,0
52937,-100,4,1,0,60,0,0
53596,-100,4,1,0,70,0,0
54256,-100,4,1,0,80,0,0
54915,-100,4,1,0,90,0,0
55791,-100,4,1,0,100,0,1
60849,-100,4,1,2,65,0,1
61179,-100,4,1,0,65,0,1
66178,-100,4,1,0,65,0,0
66343,-100,4,1,0,65,0,1
71401,-100,4,1,2,65,0,1
71731,-100,4,1,0,65,0,1
76895,-100,4,1,2,60,0,0
77006,-100,4,1,0,60,0,0
113608,-100,4,1,1,20,0,0
114267,-100,4,1,1,30,0,0
114927,-100,4,1,1,40,0,0
115586,-100,4,1,1,50,0,0
116246,-100,4,1,1,60,0,0
116905,-100,4,1,1,70,0,0
117565,-100,4,1,1,80,0,0
118554,-100,4,1,1,90,0,0
119102,-100,4,1,0,65,0,1
124160,-100,4,1,2,65,0,1
124489,-100,4,1,0,65,0,1
134930,-100,4,1,0,75,0,0
150675,-100,4,1,1,75,0,0
169170,-100,4,1,1,30,0,0
169664,-100,4,1,1,45,0,0
170324,-100,4,1,1,60,0,0
170983,-100,4,1,1,75,0,0
171774,-100,4,2,1,60,0,0
172797,-100,4,1,1,60,0,0
173456,-100,4,2,1,60,0,0
175565,-100,4,1,1,60,0,0
175895,-100,4,2,0,60,0,0
176918,-100,4,1,1,45,0,0
177908,-100,4,2,1,45,0,0
178203,-100,4,1,1,60,0,0
178532,-100,4,2,0,60,0,0
179556,-100,4,1,1,60,0,0
179886,-100,4,2,0,60,0,0
181005,-100,4,1,1,65,0,0
181664,-100,4,1,1,70,0,0
182324,-100,4,2,0,70,0,0
183477,-100,4,1,1,70,0,0
184137,-100,4,2,0,70,0,0
184832,-100,4,1,2,70,0,0
185162,-100,4,2,0,70,0,0
185986,-100,4,1,1,70,0,0
186774,-100,4,2,0,70,0,0
187470,-100,4,1,1,70,0,0
187800,-100,4,1,1,70,0,0
188752,-100,4,1,1,70,0,0
193862,-100,4,2,0,5,0,0
194933,-100,4,2,0,50,0,0
196664,-100,4,1,0,55,0,0
198240,-100,4,1,0,65,0,1
203298,-100,4,1,2,65,0,1
203628,-100,4,1,0,65,0,1
208627,-100,4,1,0,55,0,0
208792,-100,4,1,0,65,0,1
214068,-100,4,1,0,65,0,0
214179,-100,4,1,0,65,0,0

[Colours]
Combo1 : 0,91,136
Combo2 : 210,171,243
Combo3 : 81,81,255
Combo4 : 128,0,128

[HitObjects]
112,108,50516,2,0,B|80:156|112:216,1,99.9999999999999,0|0
188,260,51834,2,0,B|220:212|188:152,1,99.9999999999999,0|0
208,64,53153,2,0,B|324:64,3,99.9999999999999,0|0|0|0
380,132,55791,6,0,B|352:184|376:232,1,99.9999999999999,4|8
468,264,57110,2,0,B|356:212|284:288,1,200,0|0
196,336,59089,1,8
104,300,59748,2,0,B|96:192,1,99.9999999999999,0|8
40,116,61067,6,0,B|56:64|124:64,1,99.9999999999999,4|8
164,152,62386,2,0,B|220:84|292:220|344:144,1,200,0|4
444,144,64365,2,0,B|460:44,2,99.9999999999999,8|0|8
396,232,66343,6,0,B|356:276|384:336,1,99.9999999999999,4|8
472,296,67662,2,0,B|372:240|276:312,1,200
188,328,69641,1,8
92,296,70300,2,0,B|68:244|100:196,1,99.9999999999999,0|8
64,108,71619,5,4
156,68,72279,2,0,B|376:68,1,200,8|8
448,112,74257,2,0,B|480:160|448:220,1,99.9999999999999,4|8
368,260,75576,2,0,B|336:212|368:152,1,99.9999999999999,0|8
356,64,76895,5,4
48,60,88106,6,0,B|92:32|148:48,1,99.9999999999999,8|0
208,124,89425,2,0,B|164:152|108:136,1,99.9999999999999,8|0
48,212,90744,2,0,B|60:324,1,99.9999999999999,8|0
156,340,92063,1,8
172,240,92723,6,0,B|216:240|256:288|256:288|292:240|352:240,1,200
356,340,94701,1,8
453,311,95361,2,0,B|464:212,1,99.9999999999999,0|8
404,132,96679,2,0,B|351:146|307:118,1,99.9999999999999,0|8
207,118,97998,6,0,B|163:145|111:130,1,99.9999999999999,4|8
52,52,99317,1,0
148,32,99977,2,0,B|236:120|152:232,1,200,8|8
204,304,101955,2,0,B|316:304,1,99.9999999999999,0|8
347,213,103274,6,0,B|276:120|364:32,1,200
456,64,105253,1,8
404,148,105912,2,0,B|440:188|424:248,1,99.9999999999999,0|8
356,312,107231,2,0,B|320:272|336:212,1,99.9999999999999,0|8
348,120,108550,6,0,B|296:88|256:124|256:124|216:88|160:124,1,200
177,218,110529,2,0,B|192:272|156:312,1,99.9999999999999,8|0
86,241,111848,2,0,B|72:188|108:148,1,99.9999999999999,8|0
112,48,113167,1,8
204,92,113826,6,0,B|324:92,1,99.9999999999999
304,192,115145,2,0,B|196:192,1,99.9999999999999
204,292,116464,2,0,B|324:292,3,99.9999999999999
376,220,119102,6,0,B|352:176|376:116,1,99.9999999999999,4|8
460,72,120421,2,0,B|384:144|272:88,1,200
180,60,122399,1,8
100,120,123059,2,0,B|64:172|100:232,1,99.9999999999999,0|8
172,272,124378,6,0,B|208:220|172:160,1,99.9999999999999,4|8
100,120,125697,2,0,B|180:196|292:140,1,200,0|4
384,140,127675,2,0,B|396:32,2,99.9999999999999,8|0|8
456,212,129654,6,0,B|468:272|416:308,1,99.9999999999999,4|8
344,240,130973,2,0,B|288:172|216:308|164:232,1,200
64,240,132951,2,0,B|52:348,2,99.9999999999999,8|0|8
64,140,134930,5,4
164,120,135589,2,0,B|216:152|256:116|256:116|296:152|352:116,1,200,8|8
448,140,137568,1,4
440,240,138227,2,0,B|468:348,2,99.9999999999999,8|0|8
340,244,140206,6,0,B|296:244|256:292|256:292|220:244|160:244,2,200,4|0|0
352,144,143503,1,8
256,168,144162,1,0
160,144,144822,1,8
256,192,145481,12,4,150757
256,240,169223,6,0,B|256:140,3,99.9999999999999
176,92,171861,6,0,B|196:40|256:24|312:36|336:100,1,200,4|8
336,292,174499,2,0,B|316:344|256:360|200:348|176:284,1,200,2|8
256,80,177137,2,0,B|192:136|336:204|248:268,2,200,4|8|0
372,244,181094,1,8
440,316,181753,1,0
344,340,182413,6,0,B|292:308|252:344|252:344|212:308|156:344,1,200,4|8
44,180,185051,2,0,B|92:216|164:192|184:120|148:72,1,200,0|8
355,86,187689,2,0,B|328:120|348:192|420:216|468:180,1,200,4|8
256,192,190326,12,4,192964
256,96,198240,6,0,B|220:124|292:160|244:200,1,99.9999999999999,4|8
176,244,199559,2,0,B|196:296|256:312|312:300|336:236,1,200,0|0
424,284,201538,1,8
468,192,202197,2,0,B|484:140|440:100,1,99.9999999999999,0|8
344,84,203516,6,0,B|328:136|372:176,1,99.9999999999999,4|8
468,192,204835,2,0,B|372:132|280:208,1,200,0|4
208,272,206814,1,8
120,224,207473,2,0,B|92:180|120:128,1,99.9999999999999,0|8
208,80,208792,6,0,B|236:124|208:176,1,99.9999999999999,4|8
120,224,210111,2,0,B|196:152|312:204,1,200
408,200,212089,2,0,B|428:320,2,99.9999999999999,8|0|8
436,104,214068,5,4
340,80,214727,2,0,B|296:80|256:128|256:128|220:80|160:80,1,200,8|8
84,132,216706,2,0,B|51:92|79:36,2,99.9999999999999,4|8|0
76,232,218684,1,8
160,288,219344,6,0,B|212:320|252:284|252:284|292:320|348:284,2,200,4|0|0
196,192,222641,1,8
256,112,223301,1,0
316,192,223960,1,8
256,192,224620,12,4,229896
