osu file format v8

[General]
AudioFilename: withintemptation-angels.mp3
AudioLeadIn: 0
PreviewTime: 116227
Countdown: 0
SampleSet: Normal
StackLeniency: 0.7
Mode: 0
LetterboxInBreaks: 1

[Editor]
Bookmarks: 46667
DistanceSpacing: 1.10000002384186
BeatDivisor: 4
GridSize: 8

[Metadata]
Title:Angels
Artist:Within Temptation
Creator:EnPassant
Version:Hard
Source:
Tags:

[Difficulty]
HPDrainRate:6
CircleSize:5
OverallDifficulty:5
ApproachRate:5
SliderMultiplier:1.4
SliderTickRate:1

[Events]
//Background and Video events
0,0,"Angels-Within-Temptation-angels-5255467-1631-1423.jpg"
Video,833,"Within_Temptation_-_Angels_xvid.avi"
//Break Periods
2,156164,167954
//Storyboard Layer 0 (Background)
//Storyboard Layer 1 (Fail)
//Storyboard Layer 2 (Pass)
//Storyboard Layer 3 (Foreground)
//Storyboard Sound Samples
//Background Colour Transformations
3,100,163,162,255

[TimingPoints]
1636,329.760923330585,4,2,0,100,1,0
14496,-200,4,2,0,100,0,0
50275,-100,4,1,0,100,0,0
75502,-100,4,2,0,100,0,0
77316,-100,4,1,0,100,0,0
123812,-100,4,1,0,0,0,0
124142,-100,4,1,0,100,0,0
150852,-200,4,2,0,100,0,0
168824,-200,4,1,0,100,0,0
187950,-200,4,1,0,0,0,0
188610,-200,4,1,0,100,0,0
193227,-200,4,1,0,0,0,0
195205,-100,4,1,0,100,0,0
198503,-100,4,1,0,100,0,1
202955,-100,4,1,0,0,0,1
203284,-100,4,1,0,100,0,1
229830,-100,4,1,0,100,0,0

[Colours]
Combo1 : 0,0,0
Combo2 : 0,0,160
Combo3 : 192,192,192
Combo4 : 0,0,255

[HitObjects]
256,192,14826,2,0,B|256:256|176:256|176:184,1,140
256,192,15815,2,0,B|256:128|336:128|336:200,1,140
256,192,16805,1,8
104,192,17464,2,0,B|160:168|200:216|256:184,1,140
304,144,18453,2,0,B|240:160|176:112|72:144,1,210,0|8
224,224,20102,6,0,B|296:224,2,70
296,192,21091,2,0,B|136:192,1,140
256,312,22410,2,0,B|256:232,3,70
216,176,23729,2,0,B|240:120|304:120|416:192|264:240|296:168,1,210,0|8
256,320,25378,6,0,B|256:176,1,140
256,104,26368,2,0,B|424:104,1,140
304,224,27687,1,0
256,288,28016,2,0,B|104:288,1,140
112,200,29006,2,0,B|336:200,1,210,0|8
328,48,30654,6,0,B|328:200,1,140
256,232,31644,2,0,B|256:80,1,140
104,56,32963,1,0
104,136,33293,1,0
104,216,33622,1,0
176,248,33952,1,0
256,256,34282,2,0,B|256:32,1,210,0|8
176,48,35601,5,0
176,128,35931,2,0,B|320:128,1,140
320,208,36920,2,0,B|96:208,1,210,0|8
112,128,38239,1,0
192,128,38569,2,0,B|192:216,1,70
192,128,39228,2,0,B|192:48,1,70
192,128,39888,2,0,B|360:128,1,140,0|8
328,208,40877,5,0
248,208,41207,2,0,B|96:208,1,140
104,288,42196,1,0
112,136,42856,2,0,B|288:136,1,140
248,216,43845,1,0
168,216,44175,1,0
168,296,44504,1,0
248,296,44834,2,0,B|248:72,1,210,0|8
388,85,46483,6,0,B|244:85,1,140
280,160,47472,2,0,B|128:160,2,140
424,224,49451,1,0
344,224,49781,1,0
264,224,50110,1,0
216,152,50440,6,0,B|216:80|144:80|144:152,1,140
296,152,51100,2,0,B|368:152|368:80|296:80,1,140
296,232,51759,2,0,B|296:304|368:304|368:232,1,140
216,232,52419,2,4,B|144:232|144:304|216:304,1,140,0|8
320,200,53078,6,6,B|32:200,1,280
160,96,54067,2,2,B|328:96,2,140
304,144,55057,1,0
344,288,55387,1,0
208,224,55716,1,4
352,192,56046,6,2,B|256:136|256:248,1,140
144,344,56706,1,0
160,192,57035,2,2,B|256:136|256:248,1,140
360,344,57695,1,8
256,232,58025,5,8
256,80,58354,2,10,B|256:368,2,280
208,224,60003,2,0,B|336:144,1,140
326,149,60663,1,4
40,256,61322,6,0,B|176:176|104:256,1,140
192,120,61982,1,0
264,256,62312,2,0,B|160:200|160:200|160:296|160:296|96:240,1,280
104,96,63301,5,0
256,56,63631,2,2,B|336:192|240:352,1,280
88,64,64950,1,0
216,152,65279,2,0,B|216:160|288:224,2,70
88,64,65939,2,4,B|16:144|136:192,1,140
216,64,66598,5,0
336,160,66928,1,0
232,272,67258,1,0
112,176,67588,1,0
216,64,67917,1,0
64,328,68577,5,0
176,224,68907,1,4
456,344,69566,1,4
424,40,70226,1,4
176,224,70885,1,4
328,248,71215,2,0,B|328:192|296:192|272:256|272:256|256:192|224:192|200:240|184:312|176:216,1,280,0|4
104,192,73194,5,0
256,192,73523,1,0
384,280,73853,2,2,B|72:280,1,280
248,224,74842,2,2,B|248:80,1,140
80,344,75832,1,0
256,112,76161,1,0
432,344,76491,2,2,B|368:232|368:232|312:272|312:272|256:192|256:192,1,280,4|0
256,48,77481,5,0
256,352,78140,2,0,B|192:216|320:216|256:64,1,280
352,208,79129,2,0,B|352:312|152:312|152:200,1,280
40,320,80119,1,8
320,192,80778,6,0,B|232:192|232:192|312:120|312:120|224:120,1,280
232,272,81767,6,0,B|144:272|144:272|224:200|224:200|136:200,1,280
136,256,82757,1,8
288,256,83086,1,0
440,256,83416,2,0,B|192:192|464:120,1,280
296,176,84405,2,0,B|544:112|272:40,1,280
328,200,85395,1,8
352,352,85725,2,2,B|424:272|472:368,1,140
320,296,86384,2,2,B|392:216|440:312,1,140
280,296,87044,6,4,B|248:312|248:312|192:224|192:224|400:248|400:248|336:144|336:144|248:192,1,560,4|12
272,32,88692,2,0,B|480:-8|248:208,1,280
120,184,89682,2,0,B|80:392|296:160,1,280
384,288,90671,1,8
208,32,91330,2,0,B|-2:-1|232:208,1,280
360,184,92320,2,0,B|400:392|184:160,1,280
88,280,93309,1,0
256,48,93969,6,0,B|256:224,2,140
400,112,94958,2,0,B|104:112,1,280
272,160,95947,1,8
378,68,96277,2,2,B|258:172,1,140
167,252,96936,2,2,B|279:156,1,140
378,68,97596,1,4
392,256,98915,5,0
256,192,99245,2,0,B|384:192|392:352|248:352,1,280
256,192,100234,2,0,B|128:192|120:32|264:32,1,280
256,192,101223,1,8
254,333,101553,2,0,B|254:173,1,140
408,193,102213,2,0,B|408:353,2,140
256,192,103202,1,0
480,192,103861,5,8
328,192,104191,1,0
168,192,104521,2,0,B|168:136|272:136|272:208,1,140
112,192,105180,2,0,B|112:248|216:248|216:176,1,140
480,352,106170,1,0
256,136,106829,2,0,B|312:136|312:240|240:240,2,140
256,288,107819,2,0,B|200:288|200:184|272:184,1,140
384,112,108478,2,0,B|456:112,2,70
256,32,109138,1,8
256,352,109797,5,0
376,72,110457,2,0,B|328:152|288:72|240:152,1,140
40,344,111446,2,0,B|40:48,2,280
192,344,113095,1,0
328,264,113424,1,0
464,192,113754,6,0,B|464:144|368:104|368:160,1,140
216,192,114414,2,0,B|216:240|312:280|312:224,1,140
464,192,115073,2,0,B|464:240|368:280|368:224,1,140
216,192,115733,2,0,B|216:144|312:104|312:160,1,140,0|8
160,192,116392,1,4
464,192,117052,5,0
312,192,117382,1,0
256,48,117711,1,4
120,112,118041,1,4
120,264,118371,1,0
256,336,118701,1,4
120,56,119360,6,2,B|232:168,1,140
152,296,120020,2,2,B|272:176,1,140
368,304,120679,1,0
472,192,121009,1,8
368,72,121339,5,0
256,192,121668,2,2,B|504:240|360:64,1,280
200,336,122988,2,0,B|136:240|192:192,1,140
328,232,123647,2,0,B|392:136|336:88,2,140,4|0|4
256,96,124636,5,0
352,216,124966,2,0,B|352:296|288:296|288:200,1,140
256,72,125626,1,0
168,200,125955,2,0,B|168:280|232:280|232:184,1,140
256,48,126615,1,0
396,110,126945,2,0,B|247:190,1,140
152,248,127604,2,0,B|300:159,1,140
144,264,128264,5,0
192,200,128429,1,0
256,160,128593,1,0
320,200,128758,1,0
360,264,128923,1,0
256,328,129253,2,0,B|208:264|272:176,1,140
256,56,129912,6,0,B|256:208,1,140
256,56,130572,2,0,B|400:56,1,140
256,56,131232,2,0,B|104:56,1,140,0|8
256,128,131891,1,0
328,264,132221,1,4
96,56,132880,1,4
400,88,133540,1,4
128,232,134199,1,4
256,144,134529,2,0,B|440:248|440:248|248:344,1,420,0|4
208,192,135848,5,0
256,48,136178,1,8
304,192,136508,1,0
256,336,136837,1,0
120,264,137167,2,2,B|408:264,1,280
256,200,138157,1,0
120,136,138486,2,2,B|432:136,2,280,0|0|4
256,208,140135,6,0,B|256:136,2,70
256,56,140795,1,0
256,208,141124,1,0
104,208,141454,2,0,B|24:208,2,70
256,208,142114,1,0
408,208,142443,1,0
256,208,142773,6,0,B|328:208,2,70
176,344,143433,1,0
328,344,143762,1,0
256,200,144092,2,0,B|256:280,1,70
256,352,144422,1,0
256,200,144752,1,0
256,48,145082,1,0
256,200,145411,1,0
256,192,145576,12,0,148049
280,200,148379,5,0
432,200,148709,1,0
336,80,149039,1,0
184,80,149368,1,0
88,200,149698,1,0
240,200,150028,1,0
288,144,150193,1,0
336,80,150358,1,0
432,200,150687,1,4
280,208,151017,6,0,B|280:288,1,70,0|2
192,280,151677,2,0,B|192:200,1,70,0|2
192,136,152336,2,0,B|280:136,1,70,0|2
336,136,152996,2,0,B|336:216,1,70,0|2
256,208,153655,5,0
176,208,153985,1,0
176,128,154315,2,0,B|176:40,1,70,0|2
256,56,154974,2,0,B|256:144,1,70,0|2
336,128,155634,1,0
336,208,155964,1,4
256,192,169154,5,0
192,152,169484,1,0
256,112,169814,1,0
320,152,170143,1,0
256,192,170473,1,0
320,232,170803,1,0
256,272,171133,1,4
192,232,171462,1,12
144,168,171792,6,2,B|256:16|368:176,1,280
256,280,173771,1,0
256,200,174100,2,2,B|256:56,1,140
184,192,175420,1,0
256,216,175749,2,2,B|376:192|248:152,2,140
80,64,178058,1,0
80,64,178387,6,0,B|136:200,1,140,0|8
256,288,179706,2,0,B|120:192|72:160|72:160|72:160,1,210
120,96,181025,2,0,B|192:96,1,70
192,176,181685,2,0,B|264:176,1,70
256,256,182344,6,2,B|496:192|256:120,1,280
128,192,184323,1,0
208,192,184653,2,2,B|360:192,1,140
256,312,185972,1,0
256,232,186302,2,2,B|256:88,4,140
104,192,189599,5,4
256,192,190259,2,4,B|320:264|320:264|320:192|320:192|256:128|256:128|192:192|192:192|192:272,1,420
112,136,192897,2,0,B|400:136,1,280
32,192,195205,1,0
184,192,195535,1,0
464,328,196194,1,0
328,264,196524,1,0
184,192,196854,5,0
328,128,197184,1,0
464,48,197513,1,0
408,192,197843,1,0
264,240,198173,1,0
392,328,198503,6,2,B|280:216,1,140
352,88,199163,2,2,B|232:208,1,140
144,80,199822,1,0
40,200,200152,1,8
152,304,200482,5,0
248,184,200811,2,2,B|32:96|157:314,1,280
320,48,202131,2,0,B|384:144|328:192,1,140
192,152,202790,2,0,B|128:248|184:296,2,140,4|0|4
256,288,203779,5,0
160,168,204109,2,0,B|160:88|224:88|224:184,1,140
256,312,204769,1,0
344,184,205098,2,0,B|344:104|280:104|280:200,1,140
256,336,205758,1,0
112,272,206088,2,0,B|256:184,1,140
376,144,206747,2,0,B|232:232,1,140
376,144,207406,5,0
224,128,207736,1,0
376,144,208066,1,0
256,56,208396,2,0,B|304:120|240:208,1,140
256,328,209055,6,0,B|256:176,1,140
256,328,209715,2,0,B|112:328,1,140
256,328,210375,2,0,B|408:328,1,140,0|8
256,256,211034,1,0
184,120,211364,1,4
416,328,212023,1,4
112,296,212683,1,4
384,152,213342,1,4
256,240,213672,2,0,B|72:152|72:152|272:40,1,420,0|4
304,192,214991,5,0
256,336,215321,1,8
208,192,215651,1,0
256,48,215980,1,0
392,120,216310,2,2,B|104:120,1,280
256,184,217300,1,0
392,248,217629,2,2,B|80:248,2,280,0|0|4
256,176,219278,6,0,B|256:248,2,70
256,328,219938,1,0
256,176,220267,1,0
408,176,220597,2,0,B|488:176,2,70
256,176,221257,1,0
104,176,221586,1,0
256,176,221916,6,0,B|184:176,2,70
336,40,222576,1,0
184,40,222905,1,0
256,184,223235,2,0,B|256:104,1,70
256,32,223565,1,0
256,184,223895,1,0
256,336,224225,1,0
256,184,224554,1,0
256,192,224719,12,0,227192
232,184,227522,5,0
80,184,227852,1,0
176,304,228182,1,0
328,304,228511,1,0
424,184,228841,1,0
272,184,229171,1,0
224,240,229336,1,0
176,304,229501,1,0
80,184,229830,1,4
