osu file format v6

[General]
AudioFilename: witches -there she is!!! .mp3
AudioLeadIn: 0
PreviewTime: 77777
Countdown: 1
SampleSet: Normal
StackLeniency: 0.7
Mode: 0
LetterboxInBreaks: 1

[Editor]
Bookmarks: 10972,21265,34115,43673,54706,77777,101692,113619,125185,142058,148278,158437,181512,189279,203431
DistanceSpacing: 0.800000011920929
BeatDivisor: 4
GridSize: 16

[Metadata]
Title:There She is (step 1)
Artist:Witches
Creator:roxkyuubiforever
Version:Forbidden Passion
Source:
Tags:GbL

[Difficulty]
HPDrainRate:5
CircleSize:4
OverallDifficulty:7
SliderMultiplier:2
SliderTickRate:2

[Events]
//Background and Video events
0,0,"There she.png"
Video,-5600,"There She Is Step 1.flv"
//Break Periods
2,33581,44770
2,101892,112719
2,180865,189343
//Storyboard Layer 0 (Background)
//Storyboard Layer 1 (Fail)
//Storyboard Layer 2 (Pass)
//Storyboard Layer 3 (Foreground)
//Storyboard Sound Samples
//Background Colour Transformations
3,100,0,0,0

[TimingPoints]
10973,361.432719299302,4,1,0,100,1,0
75579,-100,4,1,1,100,0,0
75850,-100,4,1,0,100,0,0
78922,-100,4,1,0,100,0,1
98168,-100,4,1,1,100,0,1
98530,-100,4,1,0,100,0,1
101873,-100,4,1,0,100,0,0
112174,-100,4,2,0,100,0,0
123378,-100,4,1,0,100,0,0
143498,-100,4,1,1,100,0,0
143739,-100,4,1,0,100,0,0
155064,-100,4,1,1,100,0,0
155305,-100,4,1,0,100,0,0
158437,-100,4,1,0,100,0,1
180665,-100,4,1,0,100,0,0

[Colours]
Combo1 : 255,198,226
Combo2 : 204,204,255
Combo3 : 239,243,163

[HitObjects]
256,48,10972,1,0
336,192,11334,1,8
176,192,11695,1,0
304,272,12057,5,8
256,336,12238,1,0
208,272,12418,1,0
208,112,12780,1,8
256,48,12960,1,0
304,112,13141,1,0
256,336,13503,5,8
400,272,13864,5,0
400,112,14225,1,8
256,192,14587,1,0
96,144,14948,5,8
32,192,15129,1,0
96,240,15310,1,0
416,240,15671,1,8
480,192,15852,1,0
416,144,16033,1,0
256,192,16394,5,8
336,320,16755,5,0
176,320,17117,1,8
336,320,17478,1,0
352,160,17840,5,8
416,112,18020,1,0
352,64,18201,2,0,B|240:64,1,100
176,64,18563,1,8
112,112,18743,1,0
176,160,18924,2,0,B|288:160,1,100
320,224,19285,5,8
320,224,19466,1,0
320,224,19647,2,0,B|368:336|224:400|136:288|200:208,1,300
256,80,20550,5,0
256,80,20731,1,0
256,80,20912,1,0
256,80,21093,1,0
256,208,21183,12,4,22177
256,336,22538,5,0
192,288,22719,1,0
128,336,22900,1,8
64,288,23080,2,0,B|64:224|128:224,1,100
192,176,23442,1,0
128,128,23623,6,0,B|80:80|144:32,1,100,8|0
384,40,23984,2,0,B|432:88|384:136,1,100
304,128,24346,1,8
256,64,24526,1,0
208,128,24707,1,0
256,192,24888,5,0
256,192,24978,1,0
256,192,25068,1,8
256,192,25249,1,0
336,192,25430,6,0,B|400:192|400:256,1,100
320,272,25791,1,8
320,272,25972,1,0
400,304,26153,2,0,B|400:368|320:368,1,100
256,336,26514,5,8
176,336,26695,1,0
160,256,26876,1,0
240,256,27056,1,0
192,176,27237,2,0,B|256:176|256:96,2,100,8|0|0
112,176,27779,1,0
112,176,27869,1,0
112,176,27960,1,8
112,176,28141,1,0
48,224,28321,5,0
80,304,28502,1,0
144,256,28683,2,0,B|192:224|240:272,1,100,8|0
176,320,29044,2,0,B|224:368|288:320,1,100
336,304,29406,5,8
384,240,29586,1,0
384,160,29767,1,0
336,96,29948,1,0
176,96,30128,5,8
112,160,30309,1,0
112,256,30490,1,0
176,304,30671,1,0
256,272,30851,5,8
256,272,31032,1,0
256,272,31213,2,0,B|288:240|288:240|224:240|224:240|288:176|288:176|224:176|224:176|256:144|256:144,1,300
416,144,32116,5,0
400,64,32297,1,0
320,32,32477,1,0
256,80,32658,5,4
416,320,33020,1,4
96,320,33381,1,4
256,320,45670,5,0
176,336,45851,1,0
96,304,46031,1,8
64,224,46212,2,0,B|64:96|208:96,1,200
272,96,46754,1,8
352,96,46935,1,0
480,192,47296,1,0
400,192,47477,1,8
400,352,47839,6,0,B|272:352|272:224,1,200,0|8
272,64,48562,1,0
112,64,48923,1,8
48,112,49104,2,0,B|48:320,1,200
112,352,49646,1,8
176,312,49827,2,0,B|176:104,1,200
256,80,50369,1,8
256,240,50730,1,0
296,240,50820,1,8
336,240,50911,5,0
400,192,51092,1,8
432,112,51272,1,0
384,48,51453,2,0,B|256:32|208:128,1,200,0|8
288,160,51995,2,0,B|208:256|96:192,1,200,0|0
64,128,52537,1,8
64,48,52718,1,0
224,48,53079,5,0
304,48,53260,2,0,B|432:48,1,100,8|0
368,128,53622,2,0,B|464:224,1,100
480,256,53983,1,8
464,272,54073,1,0
448,288,54164,1,0
368,320,54344,2,8,B|304:320|304:256,2,100
256,208,54887,12,0,57236
112,48,58862,6,2,B|16:192|112:352,1,300
256,336,59766,1,0
256,176,60127,1,4
400,48,61754,6,2,B|496:192|400:352,1,300
336,336,62477,1,0
256,304,62657,1,8
224,224,62838,1,0
176,160,63019,6,8,B|112:256|176:352,1,200,4|8
336,160,63561,2,0,B|400:256|336:352,1,200,0|0
256,336,64103,1,8
256,256,64284,1,0
160,48,64645,5,0
80,48,64826,2,0,B|48:96|80:160,1,100,8|0
144,144,65187,2,0,B|176:192|144:240,1,100,0|0
64,240,65549,1,8
96,320,65730,1,0
176,320,65910,5,0
464,48,66272,1,8
64,128,66633,1,0
400,320,66995,1,8
400,320,67175,1,0
208,48,67717,5,8
480,224,68079,1,0
160,320,68440,1,8
112,256,68621,1,0
64,192,68802,6,0,B|127:141|176:224|224:96,1,200
448,192,69344,2,0,B|360:144|326:226|288:88,2,200
256,96,70609,5,8
416,304,70970,1,0
96,304,71332,1,8
96,144,71693,6,0,B|112:32|240:32,1,200,0|0
400,48,72416,2,0,B|496:112|512:208|480:288|400:352|320:368|224:336,1,500
80,64,74043,5,0
80,144,74223,1,8
80,224,74404,1,0
80,304,74585,2,0,B|160:384|272:304,1,200,0|8
256,224,75127,2,0,B|336:160|448:224,2,200
384,320,76211,5,0
320,272,76392,1,8
256,320,76573,1,0
192,272,76753,1,0
128,224,76934,1,0
64,176,77115,6,8,B|80:112|160:128,2,100
256,48,78922,5,8
320,96,79103,2,0,B|320:320,1,200,0|8
256,336,79645,1,8
192,296,79825,2,0,B|192:88,1,200,0|0
256,48,80368,2,0,B|256:176,1,100,8|0
256,224,80729,2,0,B|256:332,1,100,0|8
256,324,81090,1,8
256,324,81271,1,0
464,48,81813,5,8
464,128,81994,1,0
384,128,82175,1,0
384,208,82355,1,8
304,208,82536,1,8
304,288,82717,5,0
240,240,82898,1,0
192,304,83078,1,0
128,256,83259,1,8
80,320,83440,1,0
32,256,83620,5,0
32,176,83801,1,8
32,96,83982,1,8
32,16,84163,1,0
256,48,84705,5,8
192,96,84886,2,0,B|192:320,1,200,0|8
256,336,85428,1,8
320,296,85608,2,0,B|320:88,1,200,0|0
256,48,86151,2,0,B|256:176,1,100,8|0
256,224,86512,2,0,B|256:332,1,100,0|8
256,324,86873,1,8
256,324,87054,1,0
48,48,87596,5,8
48,128,87777,1,0
128,128,87958,1,0
128,208,88138,1,8
208,208,88319,1,8
208,288,88500,5,0
272,240,88681,1,0
320,304,88861,1,0
384,256,89042,1,8
432,320,89223,1,0
480,256,89403,5,0
480,176,89584,1,8
480,96,89765,1,8
480,16,89946,1,0
256,112,90488,5,8
320,64,90668,1,0
256,16,90849,1,0
192,64,91030,1,8
128,16,91211,2,2,B|128:224,1,200,10|2
256,272,91933,5,8
192,320,92114,1,0
256,368,92295,1,0
320,320,92476,1,8
384,368,92656,2,2,B|384:160,1,200,10|2
256,64,93379,6,0,B|128:64,1,100,8|0
96,112,93741,1,0
96,112,93921,1,8
32,160,94102,2,0,B|0:112|48:48,2,100,8|0|0
96,208,94644,1,0
160,256,94825,6,0,B|288:256,1,100,8|0
256,336,95186,2,0,B|368:336,2,100,0|8|8
400,56,96271,5,8
368,128,96451,2,0,B|160:128,1,200,0|8
112,192,96993,1,8
168,256,97174,2,0,B|376:256,1,200
400,320,97716,2,0,B|483:318|482:187|385:191,2,200,8|0|8
352,256,98620,1,0
112,288,99162,5,8
112,288,99343,1,0
160,224,99524,1,0
160,224,99704,1,8
208,160,99885,1,8
208,160,100066,1,0
256,96,100246,1,0
256,96,100427,1,0
256,96,100608,6,0,B|384:112|368:240,1,200,4|0
336,304,101150,2,0,B|240:368|112:304|112:192,1,300,4|4
368,336,113619,5,4
448,192,113981,1,0
464,112,114162,2,2,B|384:32|256:144|192:192|80:96,1,400
48,256,115246,6,0,B|64:336|144:368|208:352,1,200
272,320,115788,1,2
320,256,115969,1,0
304,176,116149,1,2
256,112,116330,1,0
176,96,116511,2,2,B|80:96|48:176|80:256,1,200
96,304,117053,2,2,B|128:352|256:408|376:368|472:256|472:104|376:8|232:8,1,700
256,272,118860,5,2
176,240,119041,1,2
160,160,119222,1,0
208,96,119402,2,2,B|304:48|400:128,1,200
432,192,119944,2,2,B|448:320|320:384|176:352|144:256,1,400
48,48,121029,5,0
128,48,121209,1,2
208,48,121390,1,0
288,48,121571,1,2
368,48,121752,1,0
448,48,121932,2,0,B|496:96|448:144,2,100,2|0|2
256,192,123740,5,4
432,336,125185,5,0
352,336,125366,1,0
272,336,125547,1,8
192,336,125727,2,0,B|64:336|64:192,1,200
64,128,126270,1,8
144,128,126450,1,0
288,48,126812,1,0
368,48,126992,1,8
432,192,127354,5,0
272,192,127715,1,8
352,336,128077,1,0
192,336,128438,1,8
264,312,128619,2,0,B|240:256|176:232|104:280|120:352,1,200
48,320,129161,1,8
72,240,129342,2,0,B|120:176|208:160|272:208,1,200
312,248,129884,1,8
464,192,130245,1,0
464,152,130336,1,8
464,112,130426,5,0
400,160,130607,1,8
336,208,130787,1,0
272,256,130968,2,0,B|160:352|160:352|112:304,1,200,0|8
80,256,131510,2,0,B|32:192|32:192|128:96,1,200
176,64,132052,1,8
256,64,132233,1,0
256,224,132595,5,0
320,272,132775,1,8
320,272,132956,1,0
304,352,133137,1,0
304,352,133317,1,0
208,352,133498,1,8
208,352,133679,1,0
192,272,133860,1,8
192,272,134040,1,8
192,272,134221,1,8
288,48,134943,5,8
288,48,135125,2,0,B|208:256,1,200
296,232,135667,2,0,B|216:40,2,200,8|8|12
256,208,136751,12,0,138378
256,208,139643,12,0,141269
336,352,141992,5,0
384,288,142173,1,8
432,224,142353,1,0
480,160,142534,2,0,B|384:80|288:160,1,200,0|8
368,192,143076,2,0,B|272:256|176:192,2,200
256,80,144160,5,0
256,80,144341,1,8
192,32,144522,1,0
192,32,144703,1,0
128,80,144883,1,0
128,80,145064,1,8
64,128,145245,1,0
64,128,145425,6,0,B|64:336,2,200,0|8|0
144,128,146329,1,0
144,208,146510,1,8
144,288,146690,1,0
448,128,147233,6,0,B|448:336,2,200,8|0|8
368,128,148136,1,0
368,208,148317,6,0,B|368:320|224:320,1,200,4|0
144,320,148859,2,0,B|48:288|32:192|48:112|144:16|272:80,1,400
352,272,150124,5,2
256,144,150486,1,0
160,272,150847,1,2
64,144,151208,6,4,B|96:32|240:48,2,200
464,192,153558,5,0
464,272,153738,1,8
464,352,153919,1,0
384,352,154100,2,0,B|256:352|272:208,1,200,0|8
352,224,154642,2,0,B|352:96|208:112,2,200
224,304,155726,5,0
144,304,155907,1,8
96,240,156088,1,0
96,240,156268,1,0
144,176,156449,1,0
224,176,156630,1,8
272,240,156811,1,0
272,240,156991,1,4
256,48,158437,5,8
192,96,158618,2,0,B|192:320,1,200,0|8
256,336,159160,1,8
320,296,159340,2,0,B|320:88,1,200,0|0
256,48,159883,2,0,B|256:176,1,100,8|0
256,224,160244,2,0,B|256:332,1,100,0|8
256,324,160605,1,8
256,324,160786,1,0
48,48,161328,5,8
48,128,161509,1,0
128,128,161690,1,0
128,208,161870,1,8
208,208,162051,1,8
208,288,162232,5,0
272,240,162413,1,0
320,304,162593,1,0
384,256,162774,1,8
432,320,162955,1,0
480,256,163135,5,0
480,176,163316,1,8
480,96,163497,1,8
480,16,163678,1,0
256,48,164220,5,8
320,96,164401,2,0,B|320:320,1,200,0|8
256,336,164943,1,8
192,296,165123,2,0,B|192:88,1,200,0|0
256,48,165666,2,0,B|256:176,1,100,8|0
256,224,166027,2,0,B|256:332,1,100,0|8
256,324,166388,1,8
256,324,166569,1,0
464,48,167111,5,8
464,128,167292,1,0
384,128,167473,1,0
384,208,167653,1,8
304,208,167834,1,8
304,288,168015,5,0
240,240,168196,1,0
192,304,168376,1,0
128,256,168557,1,8
80,320,168738,1,0
32,256,168918,5,0
32,176,169099,1,8
32,96,169280,1,8
32,16,169461,1,0
432,48,170003,6,0,B|368:48|368:112,1,100,8|0
448,112,170364,2,0,B|448:176|384:176,1,100,0|8
304,176,170726,2,2,B|272:144|256:48|336:0,1,200,10|2
80,336,171449,6,0,B|144:336|144:272,1,100,8|0
64,272,171810,2,0,B|64:208|128:208,1,100,0|8
208,192,172171,2,2,B|256:224|272:336|176:384,1,200,10|2
256,48,172894,5,8
320,112,173075,1,0
384,176,173256,1,0
448,240,173437,1,8
448,320,173617,5,8
368,320,173798,1,0
288,320,173979,1,0
208,320,174159,1,0
256,256,174340,5,8
192,208,174521,1,0
256,160,174702,1,0
192,112,174882,1,8
256,64,175063,1,8
48,48,175786,5,8
48,128,175967,1,0
464,128,176509,1,8
464,208,176689,1,0
48,208,177232,5,8
48,208,177412,1,0
48,288,177593,1,8
48,288,177774,1,0
48,368,177954,1,8
48,368,178135,1,0
480,368,178677,5,0
416,320,178858,1,0
416,240,179039,1,0
480,192,179219,1,0
480,112,179400,5,0
432,48,179581,1,0
352,48,179762,1,0
304,112,179942,1,0
224,112,180123,6,0,B|96:112|96:304|224:304,1,300,0|4
256,336,190243,5,8
192,288,190424,1,0
128,336,190605,1,0
64,288,190785,1,0
16,224,190966,2,0,B|16:160|80:160,1,100,8|0
112,96,191327,5,0
160,160,191508,1,0
240,160,191689,1,8
288,224,191870,1,0
224,272,192050,5,0
224,352,192231,1,0
304,352,192412,1,8
368,304,192592,5,0
368,304,192683,1,0
368,304,192773,1,0
368,304,192954,1,0
448,304,193135,5,8
448,224,193315,1,0
448,144,193496,1,0
448,64,193677,1,0
368,64,193857,1,8
368,144,194038,1,0
368,224,194219,6,0,B|288:304,1,100
272,224,194580,2,0,B|188:304,1,100,8|0
176,224,194942,2,0,B|96:304,2,100,0|0|8
224,160,195484,1,0
224,160,195575,1,0
224,160,195665,1,0
224,160,195846,1,0
160,112,196026,5,8
96,64,196207,1,0
32,112,196387,1,0
32,192,196568,1,0
32,272,196749,1,8
96,320,196930,1,0
160,272,197110,5,0
224,320,197291,1,0
288,272,197472,2,0,B|416:272,1,100,8|0
432,208,197833,1,0
480,144,198014,1,0
432,80,198195,2,0,B|320:80,1,100,8|0
256,48,198556,1,0
256,128,198737,1,0
256,208,198918,6,0,B|288:240|288:240|224:240|224:240|288:304|288:304|224:304|224:304|256:336,1,300
176,192,199821,1,0
128,128,200002,1,0
176,64,200183,1,0
256,48,200363,5,4
400,272,200725,1,4
112,272,201086,1,4
