osu file format v7

[General]
AudioFilename: witches -there she is!!! .mp3
AudioLeadIn: 0
PreviewTime: 77777
Countdown: 1
SampleSet: Normal
StackLeniency: 0.7
Mode: 0
LetterboxInBreaks: 1

[Editor]
Bookmarks: 10972,21265,34115,43673,54706,77777,102054
DistanceSpacing: 0.899999976158142
BeatDivisor: 1
GridSize: 8

[Metadata]
Title:There She is (step 1)
Artist:Witches
Creator:roxkyuubiforever
Version:Attraction
Source:
Tags:GbL

[Difficulty]
HPDrainRate:1
CircleSize:3
OverallDifficulty:2
SliderMultiplier:0.999999999999999
SliderTickRate:1

[Events]
//Background and Video events
Video,-5600,"There She Is Step 1.flv"
0,0,"There she.png"
//Break Periods
2,33581,44110
//Storyboard Layer 0 (Background)
//Storyboard Layer 1 (Fail)
//Storyboard Layer 2 (Pass)
//Storyboard Layer 3 (Foreground)
//Storyboard Sound Samples
//Background Colour Transformations
3,100,0,0,0

[TimingPoints]
10973,361.432719299302,4,1,0,100,1,0
78922,-100,4,1,0,100,0,1
102415,-100,4,1,0,100,0,0

[Colours]
Combo1 : 255,198,226
Combo2 : 204,204,255
Combo3 : 239,243,163

[HitObjects]
32,32,10972,1,4
480,32,13864,5,4
256,352,16755,5,4
256,32,18201,5,0
352,192,18924,1,0
160,192,19647,1,0
256,192,20731,12,0,22176
256,32,22538,5,0
96,32,23261,1,8
32,192,23984,1,0
128,192,24346,1,0
224,192,24707,1,8
256,32,25430,5,0
416,32,26153,1,8
480,192,26876,1,0
384,192,27237,1,0
288,192,27598,1,8
128,96,28321,5,0
128,288,29044,1,8
288,192,29767,2,0,B|416:192,3,99.9999999999999,0|0|8|0
480,192,31213,1,4
256,96,32658,5,6
256,192,33020,1,6
256,288,33381,1,6
72,352,45670,6,0,B|72:128,1,200,10|0
256,152,47116,1,8
256,152,47477,1,0
256,152,47839,1,0
440,352,48562,6,0,B|440:128,1,200,10|0
256,152,50008,1,8
256,152,50369,1,0
256,152,50731,1,0
352,32,51453,6,0,B|128:32,1,200,10|0
168,224,52899,1,8
256,256,53260,1,0
344,224,53622,1,0
256,64,54344,5,8
408,160,55067,1,0
344,224,55429,1,8
256,256,55790,1,0
168,224,56152,1,8
104,160,56513,1,8
256,352,57236,5,4
256,32,60127,5,4
448,320,63019,5,0
256,320,63742,1,8
64,320,64465,1,0
64,320,64826,1,0
64,320,65187,1,8
64,128,65910,5,0
64,32,66272,1,8
160,192,66995,1,8
256,32,67717,1,8
352,192,68440,1,8
416,128,68802,5,4
256,352,70609,1,0
160,352,70970,1,0
160,352,71332,1,0
128,256,71693,5,4
352,128,74585,5,0
312,32,74946,1,8
200,32,75308,1,0
160,128,75669,1,8
160,288,76392,5,8
256,336,76753,1,0
352,288,77115,1,8
256,240,77476,1,0
448,64,78922,6,4,B|32:64,2,400,4|4|2
448,224,82536,1,0
256,224,83259,1,0
160,192,83620,1,2
64,160,83982,1,2
64,352,84705,6,4,B|480:352,2,400,4|4|2
64,160,88319,1,0
256,160,89042,1,0
352,192,89403,1,2
448,224,89765,1,2
320,320,90488,6,0,B|320:232|192:240|192:320,3,200,6|0|2|0
96,160,93379,1,2
256,64,94102,1,0
416,160,94825,1,0
416,160,95186,1,2
416,160,95548,1,2
448,352,96271,6,0,B|32:352,2,400,2|0|2
448,160,99885,1,0
256,192,100608,12,0,102054
