osu file format v9

[General]
AudioFilename: Wise Guys - Alle meine Entchen - Tekkno Remix.mp3
AudioLeadIn: 0
PreviewTime: 33600
Countdown: 0
SampleSet: Soft
StackLeniency: 0.7
Mode: 0
LetterboxInBreaks: 1

[Editor]
DistanceSpacing: 0.8
BeatDivisor: 4
GridSize: 16

[Metadata]
Title:Alle meine Entchen - Tekkno Remix
Artist:Wise Guys
Creator:M A R I O
Version:Extra Entchen
Source:
Tags:acapella marshall_racer techno

[Difficulty]
HPDrainRate:5
CircleSize:4
OverallDifficulty:7
ApproachRate:9
SliderMultiplier:3.49999990463257
SliderTickRate:1

[Events]
//Background and Video events
Video,0,"Wise Guys - Alle meine Entchen - Tekkno Remix.flv"
0,0,"Wise_Guys~1.jpg"
//Break Periods
2,45050,47035
//Storyboard Layer 0 (Background)
//Storyboard Layer 1 (Fail)
//Storyboard Layer 2 (Pass)
//Storyboard Layer 3 (Foreground)
//Storyboard Sound Samples
//Background Colour Transformations
3,100,163,162,255

[TimingPoints]
13136,428.571428571429,4,2,2,60,1,0
31993,-133.333333333333,4,2,2,60,0,0
32850,-100,4,2,2,60,0,0
45659,-100,4,2,2,60,0,0
52564,-100,4,1,0,60,0,0
53528,-100,4,2,2,60,0,0
66171,-100,4,2,0,60,0,0
67886,-100,4,2,2,60,0,0
71314,-133.333333333333,4,2,2,60,0,0
72814,-100,4,2,2,60,0,0
73136,-100,4,2,2,60,0,0
74850,408.163265306122,4,2,2,60,1,0
74850,-100,4,2,2,60,0,1
76380,-100,4,2,0,60,0,1
77911,-100,4,2,2,60,0,1
81380,-66.6666666666667,4,2,2,60,0,1
84645,307.692307692308,4,2,0,60,1,0
90645,-100,4,1,0,60,0,0

[Colours]
Combo1 : 255,150,0
Combo2 : 5,240,5
Combo3 : 5,5,240
Combo4 : 0,226,244
Combo5 : 240,5,5

[HitObjects]
256,192,13135,5,8
256,192,13993,1,2
256,64,14850,5,8
400,304,15278,1,2
128,304,15707,1,2
448,64,16564,5,8
408,64,16671,1,0
384,80,16778,1,0
352,96,16885,1,0
336,128,16993,5,8
336,160,17100,1,0
336,192,17207,1,0
320,208,17314,1,0
288,224,17421,5,8
256,208,17528,1,0
240,176,17635,1,0
240,144,17743,1,0
224,112,17850,5,8
208,80,17957,1,0
176,64,18064,1,0
144,48,18171,1,0
112,48,18278,5,8
80,64,18385,1,0
64,96,18493,1,0
64,128,18600,1,0
64,160,18707,5,8
48,192,18814,1,0
32,224,18921,1,0
32,256,19028,1,0
48,288,19135,5,8
80,304,19243,1,0
112,288,19350,1,0
144,272,19457,1,0
176,256,19564,5,8
192,224,19671,1,0
224,208,19778,1,0
256,208,19886,1,0
288,224,19993,5,8
320,240,20100,1,0
336,272,20207,1,0
352,304,20314,1,0
384,320,20421,5,2
416,320,20528,1,0
448,304,20636,1,0
464,272,20743,1,0
464,240,20850,5,2
464,208,20957,1,0
464,176,21064,1,0
464,144,21171,1,0
448,112,21278,5,8
416,96,21386,1,0
384,96,21493,1,0
352,80,21600,1,0
320,80,21707,2,10,B|128:80,1,174.999995231629
256,128,22564,6,0,B|256:352,1,174.999995231628,2|2
256,192,23421,12,8,26421
80,64,26850,5,2
256,64,27064,1,0
256,64,27171,1,0
256,64,27278,1,2
432,64,27493,1,0
304,192,27707,6,8,B|176:128|24:192,2,262.499992847443
80,320,28564,5,2
224,320,28778,1,0
224,320,28886,1,0
224,320,28993,1,2
368,320,29207,1,0
304,192,29421,6,8,B|176:256|24:192,2,262.499992847443
256,112,30278,6,2,B|256:0|256:0,2,87.4999976158142
256,288,30707,2,8,B|256:400,2,87.4999976158142
48,48,31136,1,2
48,352,31457,1,8
464,352,31778,1,4
384,320,31993,6,0,B|384:16|384:16|144:16|144:16,1,524.999970048667
80,320,33278,5,0
144,224,33493,1,0
32,224,33707,5,8
64,176,33814,1,0
112,144,33921,1,0
160,144,34028,1,0
208,144,34136,1,2
256,160,34243,1,0
304,128,34350,1,2
352,112,34457,1,0
352,48,34564,2,2,B|48:48,1,262.499992847443
48,256,35207,5,8
192,256,35421,2,4,B|256:256,4,43.75,0|4|0|0|0
336,256,35850,2,0,B|400:256,4,43.75,0|4|0|0|0
384,80,36278,5,2
128,304,36493,1,2
128,80,36707,1,2
384,304,36921,1,2
256,192,37136,5,8
256,128,37243,1,0
256,64,37350,1,0
256,192,37564,5,8
256,256,37671,1,0
256,320,37778,1,0
368,128,37993,6,2,B|96:304,2,262.499992847443
208,48,38850,5,2
176,48,38957,1,0
304,336,39171,1,2
336,336,39278,1,0
256,192,39493,1,6
208,336,39707,5,2
176,336,39814,1,0
304,48,40028,1,2
336,48,40136,1,0
256,192,40350,1,4
128,96,40564,5,8
384,96,40778,1,2
384,288,40993,1,2
128,288,41207,1,8
256,192,41421,1,2
256,192,41743,1,8
432,64,42064,5,0
256,112,42278,1,8
208,144,42386,1,0
176,192,42493,1,0
208,240,42600,1,0
256,256,42707,1,8
384,320,42921,1,0
256,112,43135,5,8
304,144,43243,1,0
336,192,43350,1,2
304,240,43457,1,0
256,256,43564,1,8
128,320,43778,1,0
256,192,43993,12,8,44850
256,16,47635,5,8
256,288,47850,2,2,B|256:384,1,87.4999976158143
16,192,48171,1,8
496,192,48385,1,8
256,144,48600,1,2
256,192,48707,1,8
256,352,48921,1,8
256,368,49350,5,8
256,96,49564,2,2,B|256:0,1,87.4999976158143
16,192,49885,1,8
496,192,50100,1,8
256,240,50314,1,2
256,192,50421,1,8
256,32,50635,1,8
16,192,51064,5,8
416,192,51278,2,2,B|512:192,1,87.4999976158143
256,16,51600,1,8
256,368,51814,1,8
224,192,52028,1,2
272,192,52135,1,8
480,192,52350,1,8
480,48,52564,5,2
192,48,52993,1,2
320,304,53421,1,2
80,144,53635,5,2
432,144,53850,1,2
144,336,54064,1,8
256,48,54278,1,2
368,336,54493,1,8
80,144,54707,1,8
432,144,55350,5,2
80,144,55564,1,2
368,336,55778,1,8
256,48,55993,1,8
144,336,56207,1,8
432,144,56421,1,8
256,192,57064,5,2
256,192,57171,1,0
256,192,57278,1,2
256,48,57493,5,2
400,192,57707,1,2
256,336,57921,1,0
112,192,58135,1,2
256,192,58778,5,8
256,192,58885,1,0
256,192,58993,1,8
256,48,59207,5,8
112,192,59421,1,8
256,336,59635,1,0
400,192,59850,1,8
256,192,60493,5,0
256,192,60600,1,0
256,192,60707,1,0
400,192,60921,1,0
480,64,61135,5,2
432,64,61243,1,0
352,192,61457,1,0
304,192,61564,1,8
176,272,61778,1,4
32,64,61993,5,2
80,64,62100,1,0
160,192,62314,1,0
208,192,62421,1,8
336,272,62635,1,4
256,32,62850,5,8
480,352,63278,5,2
32,352,63707,1,8
64,208,63921,5,8
80,144,64028,1,0
128,192,64135,1,2
320,80,64350,1,2
256,208,64564,5,2
256,64,64778,1,8
256,208,64993,1,2
400,208,65207,1,2
256,208,65421,1,8
256,352,65635,1,2
256,208,65850,1,8
112,208,66064,1,2
256,16,66278,5,0
256,64,66385,1,0
256,112,66493,1,8
256,160,66600,1,0
304,160,66707,1,0
352,160,66814,1,8
352,208,66921,1,0
352,256,67028,5,0
352,304,67135,1,8
304,304,67243,1,0
256,304,67350,1,8
208,304,67457,1,8
160,304,67564,1,8
160,160,67778,5,8
480,320,67993,5,0
480,256,68100,1,0
480,192,68207,1,8
400,64,68421,5,0
400,128,68528,1,0
400,192,68635,1,8
320,320,68850,5,0
320,256,68957,1,0
320,192,69064,1,8
240,64,69278,5,0
240,128,69385,1,0
240,192,69493,1,8
160,320,69707,5,0
160,256,69814,1,0
160,192,69921,1,8
80,64,70135,5,0
80,128,70243,1,0
80,192,70350,1,8
192,112,70564,5,0
256,112,70671,1,0
320,112,70778,1,8
416,64,70993,5,0
416,128,71100,1,0
416,192,71207,1,8
352,320,71421,6,0,B|320:304|320:304|352:272|352:272|304:288|304:288|336:256|336:256|288:272|288:272|320:240|320:240|272:256|272:256|304:224|304:224|256:240|256:240|288:208|288:208|240:224|240:224|272:192|272:192|272:192,1,524.999970048667
256,64,72600,1,4
176,144,73135,6,0,B|176:80|172:75|112:96|48:48,1,174.999995231629,8|2
336,144,73564,2,0,B|336:80|339:75|400:96|464:48,1,174.999995231629,8|2
176,240,73993,2,0,B|176:304|172:309|112:288|48:336,1,174.999995231629,8|2
336,240,74421,2,0,B|336:304|339:309|400:288|464:336,1,174.999995231629,8|2
432,240,74850,5,4
256,64,75054,1,8
256,128,75156,1,0
256,192,75258,1,8
256,256,75360,1,0
256,320,75462,1,8
48,48,75666,5,8
464,48,75870,1,2
256,320,76074,1,8
256,16,76482,6,8,B|240:32|240:32|256:48|256:48|240:64|240:64|256:80|256:80|240:96|240:96|256:112|256:112|240:128|240:128|256:144|256:144|256:208,1,174.999995231629
448,192,76890,6,8,B|432:208|432:208|416:192|416:192|400:208|400:208|384:192|384:192|368:208|368:208|352:192|352:192|336:208|336:208|320:192|320:192|256:192,1,174.999995231629
64,192,77298,6,8,B|80:208|80:208|96:192|96:192|112:208|112:208|128:192|128:192|144:208|144:208|160:192|160:192|176:208|176:208|192:192|192:192|256:192,1,174.999995231629
256,320,77707,1,4
144,128,78115,5,8
256,32,78319,1,2
368,128,78523,1,8
144,256,78931,5,8
256,352,79135,1,2
368,256,79339,1,8
464,112,79747,5,8
464,256,79952,1,2
32,256,80156,1,8
32,112,80360,1,2
256,112,80564,2,0,B|256:272|256:288,2,174.999995231629,8|2|8
256,192,81380,12,4,83013
0,128,84645,5,8
48,256,84798,1,2
96,128,84952,1,8
144,256,85106,1,2
192,128,85260,1,8
240,256,85414,1,2
288,128,85568,1,8
336,256,85721,1,2
384,128,85875,5,8
432,256,86029,1,8
432,256,86106,1,8
432,256,86183,1,8
480,128,86337,1,0
496,32,86491,6,4,B|16:32|16:32|16:336,1,699.999980926514
112,352,87260,1,2
256,352,87414,1,2
400,352,87568,1,2
496,256,87721,6,4,B|496:32|496:32|16:32,1,699.999980926514
128,144,88491,1,8
256,144,88645,1,2
256,288,88798,1,8
128,288,88952,1,2
192,144,89106,5,8
320,144,89260,1,2
320,288,89414,1,8
192,288,89568,1,2
256,144,89721,5,8
384,144,89875,1,2
384,288,90029,1,8
256,288,90183,1,4
256,144,90337,5,4
256,0,90491,1,4
80,224,90798,5,8
80,224,90875,1,0
80,224,90952,1,8
192,320,91106,5,8
192,320,91183,1,8
192,320,91260,1,0
320,320,91414,5,10
320,320,91491,1,0
320,320,91568,1,0
432,224,91721,5,10
432,224,91798,1,0
432,224,91875,1,0
400,48,92029,5,8
368,80,92106,1,0
336,112,92183,1,0
304,128,92260,1,0
256,144,92337,1,8
208,128,92414,5,8
176,112,92491,1,0
144,80,92568,1,0
128,48,92645,1,0
256,272,92798,5,8
256,272,92875,1,8
256,272,92952,1,2
256,272,93106,1,2
464,112,93414,5,4
48,112,93568,1,4
