osu file format v12

[General]
AudioFilename: Windows XP Installation Music.mp3
AudioLeadIn: 0
PreviewTime: -1
Countdown: 1
SampleSet: Soft
StackLeniency: 0.7
Mode: 0
LetterboxInBreaks: 1
WidescreenStoryboard: 0

[Editor]
DistanceSpacing: 0.8
BeatDivisor: 4
GridSize: 8

[Metadata]
Title:Welcome to Windows XP
TitleUnicode:Welcome to Windows XP
Artist:Windows XP
ArtistUnicode:Windows XP
Creator:KeonJohnFarley
Version:Windows XxxxxxxxxPPPPPPPPPP yeyyyyyyyyy
Source:
Tags:
BeatmapID:307346
BeatmapSetID:119749

[Difficulty]
HPDrainRate:7
CircleSize:4
OverallDifficulty:10
ApproachRate:10
SliderMultiplier:1.8
SliderTickRate:1

[Events]
//Background and Video events
0,0,"xp.jpg",0,0
//Break Periods
2,38069,80489
//Storyboard Layer 0 (Background)
//Storyboard Layer 1 (Fail)
//Storyboard Layer 2 (Pass)
//Storyboard Layer 3 (Foreground)
//Storyboard Sound Samples
//Background Colour Transformations
3,100,163,162,255

[TimingPoints]
9355,297.029702970297,4,2,0,60,1,0
9653,1188.11881188119,4,2,0,60,1,0
19157,297.029702970297,4,2,0,60,1,0
85691,-100,4,2,0,60,0,1
94008,-50,4,2,0,60,0,0

[Colours]
Combo1 : 255,255,255
Combo2 : 255,0,0
Combo3 : 128,255,128
Combo4 : 0,128,192
Combo5 : 255,255,0
Combo6 : 128,128,128
Combo7 : 192,192,192

[HitObjects]
48,80,9354,1,0,0:0:0:0:
72,192,9653,86,0,L|432:192,2,360
128,128,15593,1,0,0:0:0:0:
256,128,16781,1,0,0:0:0:0:
384,128,17969,1,0,0:0:0:0:
312,216,18563,1,2,0:0:0:0:
168,280,19157,86,0,P|88:248|32:160,1,180
88,104,19602,1,0,0:0:0:0:
176,80,19751,1,2,0:0:0:0:
240,152,19899,1,0,0:0:0:0:
312,216,20048,1,0,0:0:0:0:
400,224,20196,1,0,0:0:0:0:
472,168,20345,1,0,0:0:0:0:
400,88,20493,2,0,P|336:64|296:32,2,90
320,152,20939,2,0,P|264:216|176:248,1,180,2|0,0:0|0:0,0:0:0:0:
296,296,21384,1,0,0:0:0:0:
368,208,21533,5,0,0:0:0:0:
280,168,21681,2,0,P|248:112|256:72,2,90
200,232,22127,1,2,0:0:0:0:
200,232,22201,1,0,0:0:0:0:
200,232,22275,1,0,0:0:0:0:
112,184,22424,2,0,P|96:128|96:96,1,90
176,80,22721,2,0,B|232:80|232:80|288:56,2,90
136,168,23166,2,0,B|80:168|80:168|24:192,2,90,0|2|0,0:0|0:0|0:0,0:0:0:0:
200,232,23612,2,0,P|208:304|232:344,1,90
312,112,23909,70,0,P|416:144|480:192,1,180
408,248,24355,1,0,0:0:0:0:
408,248,24429,1,0,0:0:0:0:
408,248,24503,2,0,B|360:296|360:296|280:312,1,135,2|0,0:0|0:0,0:0:0:0:
264,320,24800,2,0,B|208:344|208:344|152:312,1,90
104,264,25097,2,0,P|80:216|88:168,1,90
128,32,25394,2,0,P|152:80|144:128,1,90
200,200,25691,1,2,0:0:0:0:
304,168,25840,2,0,L|352:144,3,45
376,136,26137,1,0,0:0:0:0:
320,56,26285,5,0,0:0:0:0:
296,64,26359,1,0,0:0:0:0:
272,80,26434,1,0,0:0:0:0:
224,152,26582,1,0,0:0:0:0:
160,240,26731,1,0,0:0:0:0:
136,256,26806,1,0,0:0:0:0:
112,264,26880,1,2,0:0:0:0:
264,296,27028,1,0,0:0:0:0:
240,304,27102,1,0,0:0:0:0:
216,320,27177,1,0,0:0:0:0:
112,264,27325,1,0,0:0:0:0:
104,240,27399,1,0,0:0:0:0:
88,216,27474,1,0,0:0:0:0:
104,104,27622,1,0,0:0:0:0:
200,56,27770,2,0,P|272:32|384:80,1,180,0|2,0:0|0:0,0:0:0:0:
432,128,28216,1,0,0:0:0:0:
432,160,28290,1,0,0:0:0:0:
448,192,28364,1,0,0:0:0:0:
432,216,28439,1,0,0:0:0:0:
432,248,28513,1,0,0:0:0:0:
336,144,28661,6,0,L|240:176,12,90
256,88,30741,1,2,0:0:0:0:
120,112,31038,6,0,P|96:168|112:224,1,90
152,256,31335,2,0,P|173:216|172:172,1,90
168,168,31632,2,0,P|146:128|147:84,1,90
148,83,31929,2,0,P|192:82|232:104,1,90
264,128,32226,1,0,0:0:0:0:
288,152,32300,1,0,0:0:0:0:
328,184,32374,1,0,0:0:0:0:
360,216,32449,1,0,0:0:0:0:
368,256,32523,1,0,0:0:0:0:
344,288,32597,1,0,0:0:0:0:
320,312,32671,1,0,0:0:0:0:
280,328,32746,1,0,0:0:0:0:
232,328,32820,2,0,B|320:248|160:248|280:168,1,180,0|2,0:0|0:0,0:0:0:0:
200,56,33414,5,0,0:0:0:0:
176,144,33562,1,0,0:0:0:0:
240,256,33711,1,0,0:0:0:0:
264,168,33859,1,0,0:0:0:0:
416,264,34008,1,0,0:0:0:0:
440,176,34156,1,0,0:0:0:0:
376,64,34305,1,0,0:0:0:0:
352,152,34453,1,0,0:0:0:0:
48,64,34602,1,0,0:0:0:0:
88,64,34676,1,0,0:0:0:0:
120,64,34751,1,0,0:0:0:0:
128,152,34899,1,0,0:0:0:0:
80,144,34973,1,0,0:0:0:0:
32,160,35048,1,0,0:0:0:0:
40,240,35196,1,0,0:0:0:0:
88,240,35270,1,0,0:0:0:0:
144,240,35345,1,0,0:0:0:0:
88,240,35493,1,2,0:0:0:0:
168,80,35642,6,0,P|240:64|288:80,1,90
368,112,35939,2,0,P|368:184|352:224,1,90
280,288,36236,2,0,P|240:320|184:336,1,90
176,160,36533,1,0,0:0:0:0:
176,200,36607,1,0,0:0:0:0:
184,232,36681,1,0,0:0:0:0:
320,208,36830,1,0,0:0:0:0:
304,176,36904,1,0,0:0:0:0:
304,144,36978,1,0,0:0:0:0:
312,112,37053,1,0,0:0:0:0:
296,80,37127,1,0,0:0:0:0:
264,64,37201,1,0,0:0:0:0:
232,64,37275,2,0,B|128:80|72:152|128:368,1,360,0|2,0:0|0:0,0:0:0:0:
256,192,80939,12,0,85097,0:0:0:0:
56,64,85691,5,0,0:0:0:0:
144,40,85840,1,0,0:0:0:0:
240,56,85988,1,0,0:0:0:0:
320,104,86137,1,0,0:0:0:0:
384,176,86285,1,0,0:0:0:0:
408,256,86434,1,0,0:0:0:0:
416,344,86583,1,0,0:0:0:0:
336,352,86731,1,0,0:0:0:0:
240,336,86880,1,0,0:0:0:0:
152,288,87028,1,0,0:0:0:0:
96,208,87176,1,0,0:0:0:0:
104,128,87325,1,0,0:0:0:0:
176,72,87473,1,0,0:0:0:0:
264,152,87622,1,0,0:0:0:0:
184,208,87770,1,0,0:0:0:0:
264,152,87919,1,0,0:0:0:0:
360,72,88067,6,0,P|432:120|448:152,1,90
392,216,88364,1,0,0:0:0:0:
376,256,88439,1,0,0:0:0:0:
376,256,88513,1,0,0:0:0:0:
272,280,88661,1,0,0:0:0:0:
192,224,88810,1,0,0:0:0:0:
184,112,88958,2,0,L|224:72,4,45
88,160,89404,1,0,0:0:0:0:
272,128,89553,1,0,0:0:0:0:
280,160,89627,1,0,0:0:0:0:
280,192,89701,1,0,0:0:0:0:
352,128,89850,1,0,0:0:0:0:
360,160,89924,1,0,0:0:0:0:
360,192,89998,1,0,0:0:0:0:
432,128,90147,1,0,0:0:0:0:
440,160,90221,1,0,0:0:0:0:
440,192,90295,1,0,0:0:0:0:
432,288,90444,6,0,P|400:336|264:336,1,180
208,280,90889,1,0,0:0:0:0:
128,336,91038,2,0,P|56:312|40:200,1,180
104,168,91483,1,0,0:0:0:0:
168,128,91632,2,0,P|256:96|336:128,2,180
256,200,92374,2,0,L|256:304,2,90
392,168,92820,5,0,0:0:0:0:
368,136,92894,1,0,0:0:0:0:
328,120,92968,1,0,0:0:0:0:
120,168,93117,1,0,0:0:0:0:
144,136,93191,1,0,0:0:0:0:
184,120,93265,1,0,0:0:0:0:
256,200,93414,2,0,L|256:320,2,90
256,290,93859,1,0,0:0:0:0:
40,152,94008,2,0,B|112:272|184:56|184:56|264:224|336:56|336:56|384:272|488:128,2,720
