osu file format v9

[General]
AudioFilename: meg&sia - sapphasvisittothedance.mp3
AudioLeadIn: 0
PreviewTime: 7462
Countdown: 1
SampleSet: Normal
StackLeniency: 0.7
Mode: 0
LetterboxInBreaks: 1

[Editor]
Bookmarks: 7702,27382,29542,38422,59782,60262,60742,81142,97942,108742,117142,124822,140662,140902,151702
DistanceSpacing: 0.85
BeatDivisor: 4
GridSize: 8

[Metadata]
Title:The Cutie Mark Crusade
Artist:William Anderson
Creator:NotShinta
Version:Toothless
Source:My Little Pony: Friendship is Magic
Tags:cutie mark crusadahas

[Difficulty]
HPDrainRate:7
CircleSize:4
OverallDifficulty:7
ApproachRate:7
SliderMultiplier:2.08
SliderTickRate:2

[Events]
//Background and Video events
0,0,"secondcomingoutside.jpg"
//Break Periods
2,20142,25282
2,30742,37522
2,65302,80242
2,92182,97042
2,136342,139282
//Storyboard Layer 0 (Background)
//Storyboard Layer 1 (Fail)
//Storyboard Layer 2 (Pass)
//Storyboard Layer 3 (Foreground)
//Storyboard Sound Samples
//Background Colour Transformations
3,100,0,0,0

[TimingPoints]
22,480,4,1,0,40,1,0
10702,-100,4,2,0,35,0,0
11182,-100,4,1,0,35,0,0
11422,-100,4,1,0,40,0,0
26062,-100,4,2,0,40,0,0
27502,-100,4,2,0,45,0,0
28582,-133.333333333333,4,2,0,50,0,0
30742,-133.333333333333,4,2,0,40,0,0
38302,-100,4,1,0,40,0,0
46102,-100,4,1,0,35,0,1
46582,-100,4,1,0,40,0,0
50302,-100,4,2,0,40,0,0
53182,-100,4,2,0,50,0,0
55102,-100,4,2,0,50,0,0
55582,-125,4,2,0,60,0,0
57262,-125,4,1,0,50,0,0
58942,-125,4,2,0,55,0,0
81022,-100,4,2,0,55,0,0
97942,-100,4,1,0,50,0,1
105262,-100,4,2,0,50,0,1
109462,-100,4,1,0,50,0,0
115222,-100,4,2,0,50,0,0
117142,-117.647058823529,4,2,0,45,0,0
117142,-117.647058823529,4,2,0,50,0,0
124822,-117.647058823529,4,2,0,50,0,0
124822,-100,4,2,0,50,0,0
130462,-100,4,2,0,50,0,0
133462,-133.333333333333,4,2,0,50,0,0
134782,-100,4,2,0,30,0,0
140182,-100,4,1,0,50,0,1
151342,-100,4,2,0,50,0,1
151702,-100,4,2,0,50,0,0
154102,-100,4,1,0,30,0,0

[HitObjects]
0,133,7702,1,8
112,133,7942,1,0
56,37,8182,1,2
168,37,8422,1,0
256,105,8662,2,2,B|228:157|257:204|257:204|284:253|256:305,1,208
336,368,9382,1,0
424,345,9622,1,8
488,280,9862,1,0
512,192,10102,1,0
488,105,10342,1,0
200,112,10822,5,8
128,136,11062,1,2
56,160,11302,1,0
0,251,11542,1,8
112,251,11782,1,0
56,347,12022,1,2
168,347,12262,1,0
256,279,12502,2,2,B|228:227|257:180|257:180|284:131|256:79,1,208
336,16,13222,1,0
424,39,13462,1,8
488,104,13702,1,0
512,192,13942,1,0
488,279,14182,1,0
176,368,14662,5,0
88,345,14902,1,8
24,280,15142,1,0
80,192,15382,2,0,B|125:203|159:180|181:146|170:101,1,156
128,40,15862,1,0
232,64,16102,1,0
256,192,16342,2,0,B|301:203|335:180|357:146|346:101,1,156
304,40,16822,1,0
500,202,17302,6,0,B|516:250|512:308|478:355|434:382,3,208,8|8|8|8
368,328,18982,2,2,B|445:313|486:200|397:117|276:124|235:237|285:297,1,416,2|6
168,136,26182,21,2
144,224,26422,1,8
72,148,26662,2,2,B|40:221|63:309|128:373|208:383,1,312,4|2
304,383,27622,2,2,B|383:373|448:309|471:221|440:148,1,312,4|2
392,72,28582,2,0,B|344:8|256:-16|168:8|120:72,1,312,4|2
232,48,38422,37,0
192,124,38662,1,0
232,200,38902,1,8
192,272,39142,1,0
232,344,39382,2,2,B|184:376|136:396|88:376|40:344,1,208
0,272,40102,1,0
40,200,40342,1,8
80,128,40582,1,0
40,56,40822,1,0
0,128,41062,1,0
160,344,41542,5,2
112,264,41782,1,0
208,264,42022,1,8
280,336,42262,1,0
320,260,42502,1,0
280,184,42742,1,8
320,112,42982,1,0
280,40,43222,2,2,B|328:8|376:-12|424:8|472:40,1,208
512,112,43942,1,0
472,184,44182,1,8
432,256,44422,1,0
472,328,44662,1,0
512,256,44902,1,0
352,208,45382,5,0
304,280,45622,1,8
224,280,45862,1,0
264,208,46102,2,0,B|232:176|248:144|280:168|288:96|256:112|224:128|232:56|264:80|280:48|248:16,1,208
152,16,46822,1,0
136,104,47062,1,0
136,104,47182,1,0
136,104,47302,1,0
120,192,47542,5,8
56,136,47782,1,0
40,224,48022,2,0,B|47:271|87:327|151:319|199:295,2,208
152,64,49462,5,0
224,16,49702,1,0
304,64,49942,1,0
376,16,50182,1,0
448,64,50422,2,2,B|504:88|524:144|504:200|448:224,1,208
304,144,51382,2,2,B|360:168|380:224|360:280|304:304,1,208
160,232,52342,2,2,B|92:232|92:299|92:367|24:367,1,208
16,280,53062,1,0
24,192,53302,6,2,B|90:192|90:124|90:57|158:57,1,208
488,192,54262,2,2,B|421:192|421:124|421:57|353:57,1,208
304,136,54982,1,0
256,64,55222,1,8
208,136,55462,1,2
172,220,55702,2,0,B|340:220,3,166.4
392,272,57382,1,0
340,324,57622,2,0,B|172:324,1,166.4,8|0
0,182,59062,21,0
128,136,59542,1,8
178,15,60022,1,2
241,95,60382,1,4
243,196,60742,1,2
256,192,61462,12,0,64822
488,352,81142,6,0,B|448:392|384:384|400:352|416:320|352:312|312:352,1,208
48,272,82582,5,0
72,192,82822,1,0
24,352,83302,2,0,B|64:392|128:384|112:352|96:320|160:312|200:352,2,208
256,240,84982,5,0
256,72,85462,1,0
256,192,86422,12,2,90262
80,176,97942,21,4
496,272,98422,2,0,B|539:205|532:114|479:39|402:16,1,312
336,64,99382,1,0
384,136,99622,1,0
432,208,99862,5,4
16,296,100342,2,0,B|-27:229|-20:138|32:63|109:40,1,312
168,80,101182,1,0
176,88,101302,1,0
128,160,101542,1,0
80,232,101782,5,4
496,320,102262,2,0,B|539:253|532:162|479:87|402:64,1,312
336,112,103222,1,0
368,192,103462,1,8
392,280,103702,2,0,B|344:344|256:368|168:344|120:280,2,312
456,376,105382,5,0
504,296,105622,2,0,B|528:248|504:192,1,104,2|0
480,112,106102,2,0,B|496:92|500:64|496:36|480:16,1,104,2|0
392,56,106582,2,0,B|408:76|412:104|408:132|392:152,1,104,2|0
304,184,107062,2,0,B|320:164|324:136|320:108|304:88,1,104,2|0
208,56,107542,1,4
208,56,107782,2,2,B|153:3|62:2|-14:47|-22:138|15:221|89:245,1,416,0|8
208,280,108982,37,8
288,280,109222,1,0
248,208,109462,2,0,B|280:176|264:144|232:168|224:96|256:112|288:128|280:56|248:80|232:48|264:16,1,208
360,16,110182,1,0
376,104,110422,1,0
376,104,110542,1,0
376,104,110662,1,0
392,192,110902,5,8
454,135,111142,1,0
500,202,111382,2,2,B|516:250|512:308|478:355|434:382,3,208,2|8|2|8
368,328,113062,2,2,B|445:313|486:200|397:117|276:124|235:237|285:297,1,416,2|6
48,384,114742,2,0,B|25:370|8:346|6:317|14:293,1,104,0|0
56,216,115222,6,0,B|152:144|248:216,1,208
456,80,116182,2,0,B|360:8|264:80,1,208
504,376,117142,6,0,B|368:376,1,132.599994467497,0|0
300,376,117622,2,0,B|256:376|256:376|220:376|188:360|180:336,1,132.599994467497,8|0
176,268,118102,2,0,B|312:268,1,132.599994467497
380,268,118582,2,0,B|428:268|428:268|460:268|492:252|500:228,1,132.599994467497
448,176,119062,1,2
352,24,119542,1,8
160,24,120022,1,2
64,176,120502,1,8
8,376,120982,6,0,B|144:376,1,132.599994467497
212,376,121462,2,0,B|256:376|256:376|292:376|324:360|332:336,1,132.599994467497
336,268,121942,2,0,B|200:268,1,132.599994467497
132,268,122422,2,0,B|84:268|84:268|52:268|20:252|12:228,1,132.599994467497,0|2
64,176,122902,1,12
352,24,123382,1,2
160,24,123862,1,2
448,176,124342,1,8
496,368,124822,5,0
352,272,125302,2,0,B|328:264,1,26
160,352,125782,2,0,B|184:360,1,26
16,288,126262,2,0,B|24:264,1,26
16,120,126742,2,0,B|40:128,1,26
184,23,127221,2,0,B|160:32,1,26
327,120,127701,2,0,B|352:112,1,26
496,16,128182,2,0,B|480:40,1,26
432,240,128662,1,4
448,320,128902,5,0
368,336,129142,1,0
208,368,129622,1,0
264,208,130102,1,0
104,256,130582,5,0
24,280,130822,1,0
8,200,131062,1,0
99,103,131542,2,2,B|127:28|206:-17|297:-16|361:32,1,312,4|2
429,101,132502,2,2,B|477:163|478:255|432:333|358:363,1,312,4|2
272,384,133462,2,0,B|192:395|113:350|68:270|79:191,1,312,4|2
368,8,140182,22,0,B|418:13|469:41|498:92|503:143,1,208
266,109,141142,2,0,B|271:159|299:210|350:239|401:244,1,208
288,368,142102,2,0,B|236:362|185:334|157:283|151:232,1,208
232,232,142822,1,4
368,336,143302,1,8
144,8,144022,6,0,B|93:13|42:41|13:92|8:143,1,208
246,109,144982,2,0,B|240:159|212:210|161:239|110:244,1,208
224,368,145942,2,0,B|275:362|326:334|354:283|360:232,1,208
368,152,146662,2,2,B|362:100|334:49|283:21|232:15,1,208,2|8
64,32,147382,5,0
112,112,147622,1,0
24,112,147862,2,0,B|-16:160|-8:240|24:264|104:288|128:280|168:264|200:200,1,312
104,192,148822,1,0
104,192,148942,1,0
104,192,149062,1,0
184,152,149302,1,8
264,192,149542,1,4
344,152,149782,2,2,B|400:152|400:152|440:152|480:152|504:168|512:224,3,208
256,192,151702,12,0,153142
