osu file format v14

[General]
AudioFilename: It's My Life.mp3
AudioLeadIn: 0
PreviewTime: -1
Countdown: 0
SampleSet: None
StackLeniency: 0.7
Mode: 0
LetterboxInBreaks: 1
WidescreenStoryboard: 1

[Editor]
DistanceSpacing: 1
BeatDivisor: 8
GridSize: 8
TimelineZoom: 1.6

[Metadata]
Title:It's my life
TitleUnicode:It's my life
Artist:Willage people
ArtistUnicode:Село i люди
Creator:gun33333
Version:Normal
Source:
Tags:Село Люди Willage People It's It is my life Russia
BeatmapID:726508
BeatmapSetID:327096

[Difficulty]
HPDrainRate:3
CircleSize:3
OverallDifficulty:2
ApproachRate:5
SliderMultiplier:1.00000000596046
SliderTickRate:1

[Events]
//Background and Video events
0,0,"Willage.jpg",0,0
//Break Periods
2,12351,13905
2,17927,20841
2,40619,41657
2,61810,63410
2,67435,69411
2,90289,91165
//Storyboard Layer 0 (Background)
//Storyboard Layer 1 (Fail)
//Storyboard Layer 2 (Pass)
//Storyboard Layer 3 (Foreground)
//Storyboard Sound Samples

[TimingPoints]
150,375.058602906704,4,1,0,100,1,0
1587,-133.333333333333,4,2,0,100,0,0
3150,-133.333333333333,4,1,0,100,0,0
3900,-133.333333333333,4,2,0,100,0,0
6150,-133.333333333333,4,1,0,100,0,0
6837,-133.333333333333,4,3,0,100,0,0
10087,-133.333333333333,4,1,0,100,0,0
15103,375.058602906704,4,1,0,100,1,0
15962,-133.333333333333,4,2,0,100,0,0
16837,-133.333333333333,4,2,0,64,0,0
30808,-133.333333333333,4,1,0,100,0,0
31418,-133.333333333333,4,2,0,64,0,0
34397,-133.333333333333,4,2,0,78,0,0
55371,-133.333333333333,4,1,0,100,0,0
56071,-133.333333333333,4,2,0,66,0,0
58609,-133.333333333333,4,1,0,100,0,0
59078,-133.333333333333,4,2,0,57,0,0
61610,-133.333333333333,4,3,0,100,0,0
64423,-133.333333333333,4,2,0,70,0,0
103523,-133.333333333333,4,1,0,100,0,0
106615,-133.333333333333,4,2,0,68,0,0

[HitObjects]
248,48,150,5,0,0:0:0:0:
248,48,525,1,0,0:0:0:0:
344,48,900,1,0,0:0:0:0:
344,144,1275,1,0,0:0:0:0:
272,144,1650,2,0,L|192:144,3,75.0000033080576
224,72,3150,5,0,0:0:0:0:
224,72,3525,1,0,0:0:0:0:
376,72,4275,5,0,0:0:0:0:
376,144,4650,2,0,L|376:224,1,75.0000033080576
376,296,5400,2,0,L|296:296,1,75.0000033080576
408,232,6150,5,0,0:0:0:0:
408,232,6525,1,0,0:0:0:0:
256,224,7276,1,0,0:0:0:0:
256,224,7651,2,0,L|104:224,2,150.000006616115,0|0|4,0:0|0:0|0:0,0:0:0:0:
256,192,10089,12,4,12151,0:0:0:0:
256,16,15105,5,0,0:0:0:0:
256,16,15478,1,0,0:0:0:0:
248,128,16040,6,2,L|248:168,9,37.5000016540288,2|2|2|2|2|2|2|2|2|6,0:0|0:0|0:0|0:0|0:0|0:0|0:0|0:0|0:0|0:0,0:0:0:0:
96,128,22041,6,2,L|96:88,9,37.5000016540288,2|2|2|2|2|6|2|2|2|6,0:0|0:0|0:0|0:0|0:0|0:0|0:0|0:0|0:0|0:0,0:0:0:0:
88,288,24104,6,0,L|168:288,1,75.0000033080576
253,288,24854,1,0,0:0:0:0:
256,176,25604,6,0,L|344:176,1,84.3750037215648
344,112,26354,2,0,L|264:112,2,75.0000033080576
256,216,27667,2,0,P|200:168|200:128,1,112.500004962086
280,136,28605,5,0,0:0:0:0:
360,136,28980,2,0,P|440:192|360:256,1,225.000009924173
256,192,30855,5,4,0:0:0:0:
256,192,31230,1,4,0:0:0:0:
256,192,31605,12,0,32496,0:0:0:0:
208,112,33105,5,0,0:0:0:0:
304,112,33480,5,0,0:0:0:0:
304,208,33855,5,0,0:0:0:0:
208,208,34230,5,0,0:0:0:0:
256,164,35168,2,0,P|240:120|224:88,1,75.0000033080576
227,94,36106,1,0,0:0:0:0:
256,164,36481,6,0,B|272:68|184:100|184:100|56:148|88:36,1,300.00001323223
200,24,38544,6,0,L|240:24,3,37.5000016540288,0|0|0|4,0:0|0:0|0:0|0:0,0:0:0:0:
312,48,39481,1,0,0:0:0:0:
352,152,39856,1,0,0:0:0:0:
360,224,40231,1,0,0:0:0:0:
360,224,40419,1,0,0:0:0:0:
304,200,42857,5,0,0:0:0:0:
304,200,43232,1,0,0:0:0:0:
304,200,43607,2,0,P|264:184|232:200,1,75.0000033080576
232,272,44357,5,0,0:0:0:0:
312,272,44732,1,0,0:0:0:0:
384,280,45107,2,0,L|464:280,1,75.0000033080576
456,208,45857,2,0,L|376:208,1,75.0000033080576
168,280,47358,5,0,0:0:0:0:
168,208,47733,1,0,0:0:0:0:
176,136,48108,2,0,P|144:151|112:136,1,75.0000033080576
72,128,48670,6,0,L|72:48,2,75.0000033080576
448,320,50170,5,0,0:0:0:0:
416,224,50733,1,0,0:0:0:0:
352,184,51108,2,0,L|272:184,1,75.0000033080576
272,256,51858,2,0,L|352:256,1,75.0000033080576
347,256,52608,1,0,0:0:0:0:
120,48,54109,6,0,L|272:48,1,150.000006616115
256,192,55609,1,4,0:0:0:0:
256,192,55984,1,0,0:0:0:0:
296,80,56734,1,0,0:0:0:0:
376,80,57109,2,0,L|376:40,6,37.5000016540288,0|0|0|0|0|0|4,0:0|0:0|0:0|0:0|0:0|0:0|0:0,0:0:0:0:
376,168,58609,5,4,0:0:0:0:
376,168,58984,1,4,0:0:0:0:
352,280,59734,1,0,0:0:0:0:
272,280,60110,2,0,L|272:240,6,37.5000016540288,0|0|0|0|0|0|4,0:0|0:0|0:0|0:0|0:0|0:0|0:0,0:0:0:0:
256,128,61610,5,14,0:0:0:0:
256,192,64610,5,0,0:0:0:0:
256,192,64985,1,0,0:0:0:0:
368,152,65735,1,0,0:0:0:0:
368,72,66110,2,0,L|328:72,6,37.5000016540288,0|0|0|0|0|0|4,0:0|0:0|0:0|0:0|0:0|0:0|0:0,0:0:0:0:
56,48,70611,5,0,0:0:0:0:
56,48,70986,1,0,0:0:0:0:
56,48,71361,1,0,0:0:0:0:
56,128,71736,1,0,0:0:0:0:
56,208,72111,2,0,L|96:208,5,37.5000016540288,0|0|0|0|0|4,0:0|0:0|0:0|0:0|0:0|0:0,0:0:0:0:
208,208,73612,5,0,0:0:0:0:
208,208,73987,1,0,0:0:0:0:
208,208,74362,1,0,0:0:0:0:
208,208,74737,2,0,L|288:208,3,75.0000033080576,0|0|0|4,0:0|0:0|0:0|0:0,0:0:0:0:
264,280,76425,6,0,L|304:280,7,37.5000016540288,0|2|0|2|0|2|0|2,0:0|0:0|0:0|0:0|0:0|0:0|0:0|0:0,0:0:0:0:
256,192,78112,12,0,80081,0:0:0:0:
256,256,80363,5,0,0:0:0:0:
256,256,80738,1,0,0:0:0:0:
256,256,81113,2,0,L|256:104,1,150.000006616115
184,104,82238,5,0,0:0:0:0:
184,176,82613,1,0,0:0:0:0:
184,248,82988,1,0,0:0:0:0:
256,248,83363,1,0,0:0:0:0:
328,248,83738,1,0,0:0:0:0:
440,56,84863,5,0,0:0:0:0:
368,56,85238,1,0,0:0:0:0:
368,128,85614,1,0,0:0:0:0:
296,112,85989,2,0,B|424:64|352:168|352:168|304:240|408:216,1,271.875011991709
408,280,87676,5,0,0:0:0:0:
336,280,88239,1,0,0:0:0:0:
264,280,88614,2,0,L|184:280,1,75.0000033080576
192,280,89364,1,0,0:0:0:0:
120,280,89739,2,0,L|48:280,1,70
256,192,92365,5,0,0:0:0:0:
256,192,92740,1,0,0:0:0:0:
256,192,93115,2,0,B|256:224|256:224|224:224|224:224|224:256|224:256|192:256,1,121.875005375594
136,216,94240,1,0,0:0:0:0:
136,136,94615,2,0,P|56:160|-8:136,2,150.000006616115
200,248,96865,5,0,0:0:0:0:
200,248,97240,1,0,0:0:0:0:
200,248,97615,2,0,P|216:216|240:216,1,56.2500024810432
288,224,98178,2,0,L|408:224,2,112.500004962086
216,224,99678,5,0,0:0:0:0:
144,248,100053,2,0,L|144:208,1,37.5000016540288
144,104,100616,2,0,L|184:104,1,37.5000016540288
216,104,100991,1,0,0:0:0:0:
320,96,101554,1,0,0:0:0:0:
328,64,101929,2,0,P|312:152|392:192,1,187.500008270144
256,192,103616,5,12,0:0:0:0:
256,192,104366,1,12,0:0:0:0:
256,192,105117,12,0,106664,0:0:0:0:
