osu file format v9

[General]
AudioFilename: mvolu.mp3
AudioLeadIn: 0
PreviewTime: 90337
Countdown: 0
SampleSet: Soft
StackLeniency: 0.7
Mode: 0
LetterboxInBreaks: 0

[Editor]
Bookmarks: 42883
DistanceSpacing: 0.9
BeatDivisor: 4
GridSize: 8

[Metadata]
Title:What I Am
Artist:Will.i.am & Sesame Street
Creator:Gonzvlo
Version:Normal
Source:Sesame Street
Tags:Elmo Cookie Monster Black Eyed Peas

[Difficulty]
HPDrainRate:5
CircleSize:4
OverallDifficulty:5
ApproachRate:5
SliderMultiplier:1.4
SliderTickRate:2

[Events]
//Background and Video events
Video,0,"Sesame Street- Will.i.am's Song 'What I Am'_Original.avi"
0,0,"sesame-street-2.jpg"
//Break Periods
2,50704,51486
2,85613,86395
//Storyboard Layer 0 (Background)
//Storyboard Layer 1 (Fail)
//Storyboard Layer 2 (Pass)
//Storyboard Layer 3 (Foreground)
//Storyboard Sound Samples
//Background Colour Transformations
3,100,163,162,255

[TimingPoints]
2505,545.453076923079,4,2,0,60,1,0
17782,-100,4,1,0,60,0,0
19555,-100,4,2,0,61,0,0
52691,-100,4,1,0,60,0,0
54464,-100,4,2,0,61,0,0
72327,-100,4,1,0,61,0,0
72464,-100,4,2,0,60,0,0
87600,-100,4,1,0,60,0,0
89782,-100,4,1,0,70,0,1
90055,-100,4,2,0,70,0,1
107236,-100,4,1,0,70,0,0

[Colours]
Combo1 : 252,66,56
Combo2 : 23,238,78
Combo3 : 217,243,67
Combo4 : 190,248,239

[HitObjects]
304,208,2504,2,0,B|352:144|304:80,1,140,2|0
256,40,3323,1,2
208,80,3595,2,0,B|159:144|208:209,1,140,0|0
136,312,4686,2,0,B|168:288|208:296,1,70,2|0
224,352,5232,2,0,B|256:368|296:352,1,70,0|2
312,296,5777,2,0,B|345:289|377:313,2,70,0|2|0
256,184,6868,6,0,B|256:112,2,70,2|0|0
152,104,7959,1,2
192,56,8232,1,0
256,40,8504,1,0
360,104,9050,1,2
320,160,9323,1,0
256,184,9595,2,0,B|256:256,2,70,0|2|0
184,336,11232,6,0,B|192:288|256:224|320:288|328:336,1,210,2|2
256,344,12323,2,0,B|256:200,1,140,2|0
256,80,13414,5,2
144,80,13959,2,0,B|120:160|200:192,1,140,0|2
256,216,14777,1,0
312,191,15050,2,0,B|392:160|368:80,2,140,0|2|0
256,216,16414,2,0,B|256:288,1,70,2|0
256,40,17777,6,0,B|256:112,5,70,8|0|8|0|8|0
256,176,19414,1,4
256,304,19959,5,4
360,232,20504,1,8
360,232,20777,1,0
360,232,21050,2,0,B|360:88,2,140,0|8|0
256,160,22686,1,8
152,232,23232,5,0
152,232,23504,1,0
152,232,23777,2,0,B|152:88,2,140,8|0|8
256,304,25414,6,0,B|256:232,2,70,2|2|8
256,192,26504,8,4,28686
144,128,29777,6,0,B|96:192|144:256,1,140,0|8
256,192,30868,1,0
256,192,31414,1,8
367,256,31959,6,0,B|416:192|368:128,1,140,0|8
256,192,33050,1,0
256,192,33595,1,8
256,320,34141,5,0
256,320,34414,2,0,B|240:344|256:350|272:360|256:384,1,70,0|8
256,192,35232,8,4,37413
64,64,38504,6,0,B|128:16|192:64,1,140,0|8
256,80,39323,1,0
320,64,39595,2,0,B|384:15|448:63,1,140,0|8
448,192,40686,6,0,B|416:160|384:192|352:224|320:192,1,140,0|8
256,176,41504,1,0
192,192,41777,2,0,B|159:224|127:192|95:160|63:192,1,140,0|8
64,320,42868,6,0,B|128:368|192:320,1,140,0|8
256,304,43686,1,0
320,320,43959,2,0,B|384:368|448:320,1,140,0|8
384,216,45050,6,0,B|320:88,1,140,0|8
256,88,45868,1,0
190,90,46141,2,0,B|128:216,1,140,0|8
256,192,47232,5,0
256,192,47504,1,2
256,192,47777,1,8
384,192,48323,2,0,B|456:192,2,70,0|2|8
256,192,49413,5,0
256,192,49686,1,2
256,192,49959,1,8
136,192,50504,1,4
256,384,52686,6,0,B|256:304,5,70,8|0|8|0|8|0
256,248,54323,1,4
256,184,54595,1,0
256,120,54868,1,4
152,192,55413,6,0,B|112:128|150:59,2,140,8|0|8
256,128,57050,1,0
256,256,57595,1,8
360,192,58141,6,0,B|399:255|361:324,2,140,0|8|0
256,256,59777,1,8
256,128,60323,6,0,B|256:56,2,70,2|2|8
256,192,61413,8,4,63595
200,152,64141,6,0,B|160:56|256:8|352:56|312:152,1,280,8|8
256,264,65777,1,0
256,264,66323,1,8
152,312,66868,5,0
192,360,67141,1,0
256,368,67413,1,8
320,360,67686,1,0
360,312,67959,1,0
256,240,68504,1,8
256,112,69050,6,0,B|256:40,2,70,2|2|8
256,192,70141,8,4,72322
256,48,73413,5,0
256,48,73686,2,0,B|256:120,1,70,0|8
320,232,74504,2,0,B|256:280|192:232,1,140,0|8
200,360,75595,5,0
256,328,75868,1,0
312,360,76141,1,8
256,248,76686,2,0,B|288:216|256:184|224:152|256:120,1,140,0|8
312,8,77777,5,0
256,32,78050,1,0
200,8,78322,1,8
200,136,78868,2,0,B|240:128|256:168|256:168|272:128|312:136,1,140,0|8
256,248,79959,5,0
256,248,80232,1,0
256,248,80504,2,0,B|256:400,2,140,8|0|8
176,152,82141,5,0
200,96,82413,1,0
256,64,82686,1,8
336,152,83232,1,2
336,152,83777,1,8
336,280,84322,5,0
312,336,84595,1,0
256,368,84868,1,8
176,280,85413,1,4
256,48,87595,6,0,B|256:8,12,35,8|0|0|0|8|0|0|0|8|0|0|0|4
256,168,89777,1,4
368,104,90322,5,8
368,104,90595,1,0
368,104,90868,2,0,B|368:248,2,140,0|8|0
256,160,92504,1,8
144,104,93050,5,0
144,104,93322,1,0
144,104,93595,2,0,B|144:248,2,140,8|0|8
256,48,95232,6,0,B|256:120,2,70,2|2|8
256,192,96322,8,4,98504
368,128,99595,6,0,B|416:192|368:256,1,140,0|8
256,192,100686,1,0
256,192,101232,1,8
145,256,101777,6,0,B|96:192|144:128,1,140,0|8
256,192,102868,1,0
256,192,103413,1,8
256,320,103959,5,0
256,320,104231,2,0,B|272:344|256:350|240:360|256:384,1,70,0|8
256,192,105050,8,4,107231
