osu file format v9

[General]
AudioFilename: mvolu.mp3
AudioLeadIn: 0
PreviewTime: 90337
Countdown: 0
SampleSet: Soft
StackLeniency: 0.7
Mode: 0
LetterboxInBreaks: 0

[Editor]
Bookmarks: 89792
DistanceSpacing: 1.3
BeatDivisor: 4
GridSize: 8

[Metadata]
Title:What I Am
Artist:Will.i.am & Sesame Street
Creator:Gonzvlo
Version:Hard
Source:Sesame Street
Tags:Elmo Cookie Monster Black Eyed Peas

[Difficulty]
HPDrainRate:6
CircleSize:4
OverallDifficulty:6
ApproachRate:7
SliderMultiplier:2
SliderTickRate:2

[Events]
//Background and Video events
Video,0,"Sesame Street- Will.i.am's Song 'What I Am'_Original.avi"
0,0,"sesame-street-2.jpg"
//Break Periods
2,50704,51786
2,85613,86695
//Storyboard Layer 0 (Background)
//Storyboard Layer 1 (Fail)
//Storyboard Layer 2 (Pass)
//Storyboard Layer 3 (Foreground)
//Storyboard Sound Samples
//Background Colour Transformations
3,100,163,162,255

[TimingPoints]
2505,545.453076923079,4,2,0,60,1,0
17782,-100,4,1,0,60,0,0
19555,-100,4,2,0,60,0,0
52691,-100,4,1,0,60,0,0
54464,-100,4,1,0,59,0,0
72327,-100,4,1,0,60,0,0
72464,-100,4,2,0,60,0,0
87600,-100,4,1,0,60,0,0
89782,-100,4,1,0,70,0,1
90055,-100,4,2,0,70,0,1
107236,-100,4,1,0,70,0,0

[Colours]
Combo1 : 252,66,56
Combo2 : 23,238,78
Combo3 : 217,243,67
Combo4 : 190,248,239

[HitObjects]
256,40,2504,1,2
208,160,2777,2,0,B|256:184|304:160,1,100
408,232,3323,1,0
320,328,3595,1,2
192,328,3868,1,0
104,232,4141,1,0
256,24,4686,6,0,B|256:72,2,50,2|0|0
192,136,5232,1,0
320,136,5504,1,0
216,208,5777,1,2
256,80,6050,1,0
296,208,6323,1,0
104,376,6868,6,0,B|128:328|192:336,1,100,2|0
324,335,7414,2,0,B|384:328|408:376,1,100
336,264,7959,2,0,B|320:216|256:192|192:216|176:264,1,200,2|0
256,16,9050,5,2
192,128,9323,1,0
192,128,9459,1,0
320,128,9732,1,0
320,128,9868,1,0
320,256,10141,2,0,B|320:360,1,100,2|0
192,356,10686,2,0,B|192:256,1,100,2|0
256,144,11232,5,2
256,144,11504,1,0
256,272,11777,1,0
384,272,12050,1,0
488,352,12323,1,2
488,200,12595,1,0
384,272,12868,1,0
256,16,13414,5,2
320,128,13686,1,0
320,128,13823,1,0
192,128,14095,1,0
192,128,14232,1,0
88,48,14504,1,2
88,200,14777,1,0
192,128,15050,1,0
256,360,15595,5,2
256,224,15868,2,0,B|256:176|256:120,1,100
328,232,16414,2,0,B|328:336,2,100,0|2|0
184,332,17232,2,0,B|184:232,1,100,2|0
256,32,17777,5,8
256,56,17914,1,0
256,80,18050,1,0
256,104,18186,1,0
256,128,18323,1,8
256,152,18459,1,0
256,176,18595,1,0
256,200,18732,1,0
256,224,18868,1,8
256,248,19004,1,0
256,272,19141,1,0
256,296,19277,1,0
256,320,19414,1,4
256,32,19959,5,4
320,280,20504,2,0,B|280:272|256:208|256:208|232:272|192:280,1,200,8|0
192,144,21323,2,0,B|192:8,1,100,0|8
320,144,21868,2,0,B|320:8,1,100,0|0
256,296,22686,1,8
360,56,23232,5,0
336,184,23504,1,0
256,80,23777,1,8
176,184,24050,1,0
152,56,24323,1,0
256,296,24868,1,8
256,32,25414,5,0
256,48,25550,1,0
256,64,25686,1,0
256,80,25823,2,0,B|256:128,1,50,0|8
256,192,26504,8,8,28141
256,256,28686,5,4
256,32,29232,1,8
256,256,29641,1,0
256,240,29777,1,8
256,224,29914,1,0
256,208,30050,1,0
160,128,30323,2,0,B|256:80|352:128,1,200,8|0
256,368,31414,1,8
192,120,31959,6,0,B|192:16,1,100
320,120,32504,2,0,B|320:16,1,100,8|0
256,160,33050,1,0
256,160,33595,1,8
192,344,34004,6,0,B|192:288,1,50
320,344,34414,2,0,B|320:288,2,50,0|0|8
256,192,35232,8,8,36868
256,352,37413,5,4
320,80,38504,2,0,B|280:88|256:152|256:152|232:88|192:80,1,200,0|8
192,80,39323,1,0
208,208,39595,2,0,B|200:256|224:288|256:296|288:288|312:256|304:208,1,200,0|8
48,248,40686,6,0,B|40:312|112:384|184:352,1,200,0|8
256,240,41504,1,0
332,353,41777,2,0,B|400:384|472:312|464:248,1,200,0|8
320,32,42868,6,0,B|312:96|256:120|200:96|192:32,1,200,0|8
192,32,43686,1,0
176,160,43959,2,0,B|200:208|256:232|312:208|336:160,1,200,0|8
136,328,45050,5,0
256,376,45323,1,0
376,328,45595,1,8
256,280,45868,1,0
256,280,46141,2,0,B|256:80,1,200,0|8
208,336,47232,5,0
256,216,47504,1,0
304,336,47777,1,8
256,216,48050,1,0
328,104,48323,2,0,B|256:32|256:32|184:104,1,200,0|8
320,320,49413,5,0
192,320,49686,1,0
296,248,49959,1,8
256,368,50232,1,0
216,248,50504,1,4
400,40,52686,5,8
376,40,52823,1,0
352,40,52959,1,0
328,40,53095,1,0
304,40,53232,1,8
280,40,53368,1,0
256,40,53504,1,0
232,40,53641,1,0
208,40,53777,1,8
184,40,53913,1,0
160,40,54050,1,0
136,40,54186,1,0
112,40,54323,1,4
400,40,54868,5,4
208,216,55413,2,0,B|104:216,1,100,8|0
208,216,55959,2,0,B|312:216,1,100
308,216,56504,2,0,B|420:216,1,100,8|0
312,136,57050,2,0,B|208:136,1,100
256,280,57595,1,8
256,16,58141,5,0
256,16,58413,1,0
128,56,58686,2,0,B|136:120|192:128,1,100,8|0
324,127,59232,2,0,B|376:120|384:56,1,100
256,16,59777,1,8
304,272,60323,6,0,B|200:272,1,100
204,272,60868,2,0,B|104:272,1,100,8|0
200,184,61413,2,0,B|304:184,1,100
300,184,61959,2,0,B|400:184,1,100,8|0
256,192,62504,8,4,63595
256,64,64141,5,8
168,160,64413,2,0,B|256:248|344:160,1,200
352,288,65232,2,0,B|256:336|160:288,2,200,8|0|8
256,48,66868,5,0
256,48,67004,1,0
256,48,67141,1,0
256,176,67413,1,8
192,288,67686,1,0
320,288,67959,1,0
256,48,68504,1,8
368,280,69050,5,0
256,344,69323,1,0
144,280,69595,1,8
256,48,70141,1,0
256,192,70277,8,4,72322
48,80,73413,6,0,B|48:200,2,100,0|0|8
48,80,74232,1,0
176,80,74504,2,0,B|176:280,1,200,0|8
336,80,75595,6,0,B|336:200,2,100,0|0|8
336,80,76413,1,0
464,80,76686,2,0,B|464:280,1,200,0|8
216,352,77777,5,0
256,224,78050,1,0
296,352,78322,1,8
256,224,78595,1,0
328,120,78868,2,0,B|312:56|256:48|200:56|184:120,1,200,0|8
368,312,79959,5,0
256,248,80232,1,0
144,312,80504,1,8
176,184,80777,2,0,B|200:136|256:112|312:136|336:184,1,200
256,248,81595,1,8
256,192,82141,8,8,83777
256,192,84322,8,4,85413
256,96,87595,6,0,B|256:40,12,50,8|0|0|0|8|0|0|0|8|0|0|0|12
256,352,89777,5,4
192,104,90322,2,0,B|232:112|256:176|256:176|280:112|320:104,1,200,8|0
320,240,91141,2,0,B|320:376,1,100,0|8
192,240,91686,2,0,B|192:376,1,100,0|0
256,88,92504,1,8
152,328,93050,5,0
176,200,93322,1,0
256,304,93595,1,8
336,200,93868,1,0
360,328,94141,1,0
256,88,94686,1,8
256,352,95232,5,0
256,336,95368,1,0
256,320,95504,1,0
256,304,95641,2,0,B|256:256,1,50,0|8
256,192,96322,8,4,98504
256,128,99459,5,0
256,144,99595,1,0
256,160,99732,1,0
256,176,99868,1,0
352,256,100141,2,0,B|256:304|160:256,1,200,8|0
256,16,101232,1,8
320,264,101777,6,0,B|320:368,1,100
192,264,102322,2,0,B|192:368,1,100,8|0
256,224,102868,1,0
256,224,103413,1,8
120,0,103959,6,0,B|192:80,1,100,2|0
325,74,104504,2,0,B|392:0,1,100,10|0
256,192,105050,8,8,106686
256,192,107231,5,4
