osu file format v9

[General]
AudioFilename: mvolu.mp3
AudioLeadIn: 0
PreviewTime: 90337
Countdown: 0
SampleSet: Soft
StackLeniency: 0.7
Mode: 0
LetterboxInBreaks: 0

[Editor]
DistanceSpacing: 0.8
BeatDivisor: 4
GridSize: 8

[Metadata]
Title:What I Am
Artist:Will.i.am & Sesame Street
Creator:Gonzvlo
Version:Easy
Source:Sesame Street
Tags:Elmo Cookie Monster Black Eyed Peas

[Difficulty]
HPDrainRate:1
CircleSize:3
OverallDifficulty:1
ApproachRate:2
SliderMultiplier:1.4
SliderTickRate:2

[Events]
//Background and Video events
Video,0,"Sesame Street- Will.i.am's Song 'What I Am'_Original.avi"
0,0,"sesame-street-2.jpg"
//Break Periods
2,50704,51126
2,85613,86035
//Storyboard Layer 0 (Background)
//Storyboard Layer 1 (Fail)
//Storyboard Layer 2 (Pass)
//Storyboard Layer 3 (Foreground)
//Storyboard Sound Samples
//Background Colour Transformations
3,100,163,162,255

[TimingPoints]
2505,545.453076923079,4,2,0,60,1,0
19146,-100,4,2,0,60,0,0
72327,-100,4,1,0,60,0,0
72464,-100,4,2,0,60,0,0
89782,-100,4,2,0,70,0,1
107236,-100,4,1,0,70,0,0

[Colours]
Combo1 : 252,66,56
Combo2 : 23,238,78
Combo3 : 217,243,67
Combo4 : 190,248,239

[HitObjects]
424,120,2504,2,0,B|488:128|504:192|488:256|424:264,2,210,2|2|2
336,192,4686,5,2
312,80,5232,1,0
200,80,5777,1,2
176,192,6323,1,0
88,120,6868,6,0,B|23:128|8:192|23:256|87:264,2,210,2|2|0
200,272,9050,6,0,B|184:208|256:168|328:208|312:272,1,210,0|2
320,24,11232,6,0,B|256:72|192:24,1,140,2|0
200,136,12323,2,0,B|152:200|200:264,1,140,2|0
312,264,13414,6,0,B|360:199|312:135,2,140,2|0|2
256,360,15050,1,0
168,296,15595,6,0,B|200:248|256:224|312:248|344:296,2,210,2|2|0
256,192,17777,8,8,19414
360,120,20504,6,0,B|280:144|208:-16|304:-16|232:144|152:120,1,280,8|8
256,168,22141,1,0
256,280,22686,1,8
352,224,23232,6,0,B|352:168|352:168|352:144|352:120|328:104|304:104,1,140,0|8
200,104,24323,2,0,B|184:104|160:120|160:144|160:168|160:168|160:224,1,140,0|8
256,280,25414,6,0,B|256:352,2,70,0|2|8
144,280,26504,6,0,B|112:200|128:120|176:48|256:24|336:48|384:120|400:200|368:280,1,560,0|4
256,304,29232,6,0,B|256:160,1,140,8|0
360,136,30323,2,0,B|336:56|256:32|176:56|152:136,1,280,8|8
200,256,31959,6,8,B|288:312|224:312|312:256,2,140,0|8|0
256,160,33595,1,8
200,64,34141,5,0
312,64,34686,1,8
256,192,35232,8,4,37413
368,128,38504,5,0
368,240,39050,1,8
256,240,39595,2,0,B|208:208|256:184|304:152|256:128,1,140,0|8
144,128,40686,5,0
144,240,41232,1,8
256,240,41777,2,0,B|304:215|256:183|208:159|256:127,1,140,0|8
152,56,42868,6,0,B|198:40|254:32|310:40|358:56,2,210,0|0|8
160,168,45050,6,0,B|191:136|255:112|319:136|351:168,2,210,0|0|8
176,280,47232,6,0,B|200:224|256:200|312:224|336:280,2,210,0|0|8
160,168,49413,5,0
256,104,49959,1,8
344,168,50504,1,4
256,192,52686,12,4,54868
160,312,55959,5,0
256,368,56504,1,8
352,312,57050,1,0
256,256,57595,2,0,B|256:112,1,140,8|0
152,88,58686,6,0,B|168:8|256:-8|344:8|360:88,1,280,8|8
256,128,60323,2,0,B|256:200,2,70,2|2|8
256,192,61413,8,4,63595
336,144,64686,6,0,B|336:96|312:40|256:16|200:40|176:96|176:144,1,280
256,216,66323,1,8
320,304,66868,6,0,B|256:352|192:304,2,140,0|8|0
256,216,68504,1,8
312,112,69050,6,0,B|272:104|256:72|256:72|240:96|200:112,1,140,0|8
256,192,70141,12,4,72322
424,240,73413,6,0,B|424:168,2,70,0|0|8
488,328,74504,2,0,B|424:376|360:328,1,140,0|8
256,280,75595,6,0,B|312:216|256:184|200:152|256:88,2,210,0|0|8
152,327,77777,6,0,B|88:376|24:328,1,140,0|8
88,240,78868,2,0,B|88:168,2,70,0|0|8
96,352,79959,6,0,B|184:360|200:280,1,140,0|8
312,281,81050,2,0,B|328:360|416:352,1,140,0|8
408,240,82141,6,0,B|392:128|256:72|120:128|104:240,1,420,0|8
200,304,84322,5,0
312,304,84868,1,8
256,208,85413,1,4
256,192,87595,12,8,89232
152,264,90322,6,0,B|232:240|304:400|208:400|280:240|360:264,1,280,8|8
256,216,91959,1,0
256,104,92504,1,8
160,160,93050,6,0,B|160:216|160:216|160:240|160:264|184:280|208:280,1,140,0|8
312,280,94141,2,0,B|328:280|352:264|352:240|352:216|352:216|352:160,1,140,0|8
256,104,95232,6,0,B|256:32,2,70,2|2|8
368,104,96322,6,0,B|400:184|384:264|336:336|256:360|176:336|128:264|112:184|144:104,1,560,0|4
256,80,99050,6,0,B|256:224,1,140,8|0
152,248,100141,2,0,B|176:328|256:352|336:328|360:248,1,280,8|8
312,128,101777,6,8,B|224:72|288:72|200:128,2,140,0|8|0
256,224,103413,1,8
312,320,103959,5,2
200,320,104504,1,10
256,192,105050,8,4,107231
