osu file format v5

[General]
AudioFilename: Movie Themes - Will Smith - Men In Black.mp3
AudioLeadIn: 0
PreviewTime: -1
Countdown: 0
SampleSet: Soft
StackLeniency: 0.7
Mode: 0
LetterboxInBreaks: 1
EditorBookmarks: 15458

[Metadata]
Title:Men In Black
Artist:Will Smith
Creator:Pasonia
Version:Normal Alien Nondescription
Source:
Tags:

[Difficulty]
HPDrainRate:5
CircleSize:5
OverallDifficulty:5
SliderMultiplier:1.7
SliderTickRate:1

[Events]
//Background and Video events
//Break Periods
2,77554,81173
2,113800,121363
//Storyboard Layer 0 (Background)
4,0,1,"men_in_black_2.jpg",320,240 F,0,13227,15458,0,1 F,0,79027,82373,1,0
4,0,1,"men_in_black_1.jpg",320,240 F,0,85161,87949,0,1 F,0,144358,146012,1,0
4,0,1,"men_in_black_3.jpg",320,240 F,0,145454,147687,0,1 F,0,149221,152152,1,0
//Storyboard Layer 1 (Failing)
//Storyboard Layer 2 (Passing)
//Storyboard Layer 3 (Foreground)
//Storyboard Sound Samples
//Background Colour Transformations
3,100,0,0,0

[TimingPoints]
15459,557.750406693005,4,2,0,80,1

[Colours]
Combo1 : 255,255,255
Combo2 : 167,167,167

[HitObjects]
81,324,15459,1,2
180,234,16016,1,8
75,149,16574,1,2
181,68,17132,1,8
315,68,17690,5,2
416,155,18247,1,8
371,281,18805,1,2
307,259,19084,1,8
244,233,19363,1,8
116,201,19921,5,2
223,120,20478,1,8
117,30,21036,1,2
223,120,21594,1,0
85,117,22152,5,2
223,120,22709,1,8
356,120,23267,1,2
423,120,23546,1,8
490,121,23825,1,8
255,69,24383,6,2,B|255:247,1,170,2|8
389,230,25498,2,2,B|327:168|361:345|248:227,1,170,2|8
124,225,26614,2,2,B|186:163|152:340|270:226,1,170,2|8
258,104,27729,1,2
258,171,28008,1,8
258,238,28287,1,8
256,192,28845,12,4,31633
256,192,32191,5,8
256,192,32470,1,8
256,192,32749,1,4
186,77,33307,5,0
186,211,33864,1,8
292,292,34422,1,0
185,211,34980,1,8
299,141,35538,5,0
402,56,36095,1,8
429,187,36653,1,0
383,138,36932,1,8
337,88,37211,1,8
199,81,37769,5,4
133,197,38326,1,8
266,187,38884,1,0
145,128,39442,1,8
132,261,40000,1,2
190,294,40278,1,0
241,250,40557,1,8
256,192,41115,12,4,42231
428,205,42788,6,2,B|250:205,1,170,2|8
289,145,43625,1,8
314,83,43904,2,2,B|136:83,1,170,2|8
115,143,44740,1,8
78,199,45019,1,2
143,213,45298,1,0
208,225,45577,1,8
232,93,46135,5,2
365,105,46693,1,4
388,167,46971,1,8
336,210,47250,2,8,B|301:165|316:112|361:145|276:253,2,170,8|2|8
256,192,48924,12,4,50597
255,49,51712,5,0
255,182,52270,1,0
256,316,52828,1,0
300,190,53386,1,8
251,143,53664,1,8
203,189,53943,1,8
180,321,54501,2,2,B|247:388|344:309,1,170,2|4
384,274,55338,1,0
404,210,55617,5,4
316,107,56174,1,8
254,81,56453,1,0
260,147,56732,1,0
228,257,57290,1,8
215,322,57569,1,2
164,277,57848,1,2
256,192,58405,12,4,60079
200,128,61194,6,0,B|200:220,1,85
201,280,61752,2,0,B|318:280,1,85
353,278,62310,2,0,B|353:186,1,85
353,125,62867,1,8
243,48,63425,1,2
175,48,63704,1,8
207,106,63983,1,8
258,229,64541,5,6
258,363,65098,1,0
323,246,65656,2,2,B|228:246,1,85,2|0
170,244,66214,2,8,B|206:135|139:222|111:250|236:170,1,170,8|2
256,192,67329,12,4,69003
199,44,69560,5,8
150,168,70118,1,2
197,293,70676,1,8
150,167,71234,1,2
284,167,71791,1,8
417,168,72349,1,2
349,168,72628,1,8
417,168,72907,1,8
386,298,73465,6,6,B|267:221|279:149,1,170,6|8
278,172,74301,1,8
279,175,74580,2,8,B|345:94|430:73,1,170,2|8
415,77,75417,1,8
454,130,75696,1,2
256,192,76253,12,4,77369
256,192,82389,12,4,86851
54,255,87129,5,8
75,191,87408,1,2
134,70,87966,1,2
201,70,88245,1,8
268,71,88524,1,2
154,142,89082,1,2
206,183,89360,1,8
258,224,89639,1,2
372,153,90197,5,2
372,153,90476,2,8,B|462:153,2,85
372,153,91313,1,4
336,282,91870,5,2
202,286,92428,1,2
154,238,92707,1,8
94,268,92986,1,2
198,351,93544,1,2
332,353,94101,2,2,B|332:71,1,255,0|8
330,30,95217,1,8
256,192,95775,12,8,97448
256,192,97727,5,8
256,192,98006,12,8,99679
258,314,99958,5,8
258,314,100237,6,4,B|96:104|202:45|240:192|140:261|89:153|37:173|13:96|246:30,1,510
207,41,102189,1,4
209,42,102468,2,4,B|420:175|339:312|0:294|163:-5|326:15|441:198|404:230|428:263,1,595,4|4
419,241,104699,1,4
331,342,105256,5,8
331,274,105535,1,0
332,206,105814,1,8
332,138,106093,1,4
332,70,106372,1,8
204,29,106930,1,8
127,139,107487,1,0
155,199,107766,1,8
194,144,108045,1,0
223,204,108324,1,4
261,149,108603,1,8
386,197,109161,5,2
342,323,109718,1,2
208,309,110276,1,0
260,266,110555,1,0
209,222,110834,1,4
258,176,111113,1,0
256,192,111392,12,4,113623
63,41,122547,6,0,B|239:41,1,160,0|8
186,106,123383,1,0
186,106,123662,2,0,B|362:106,1,160,0|8
306,169,124499,1,0
306,169,124778,2,0,B|482:169,1,160,0|8
349,249,125893,1,0
282,243,126172,1,8
238,191,126451,1,8
257,100,127009,6,0,B|215:128|170:72,2,80,0|0|8
257,100,127845,1,0
257,100,128124,2,0,B|299:128|344:72,2,80,0|0|8
256,192,129240,12,4,131471
72,64,132028,5,2
192,64,132586,1,2
312,64,133144,1,2
432,64,133702,1,2
431,186,134259,1,2
310,207,134817,1,2
261,170,135096,1,8
318,147,135375,1,8
241,243,135933,6,4,B|162:264|104:167,1,160,4|8
61,117,136769,1,8
29,176,137048,2,0,B|63:281|168:298,1,170,0|8
209,301,137885,1,8
275,295,138164,2,0,B|386:275|415:162,1,170,0|8
378,133,139000,1,8
330,180,139279,1,0
311,115,139558,1,8
263,162,139837,1,8
256,192,140395,12,4,144857
468,320,145414,6,0,B|303:320|158:317|76:124|272:40|400:104|370:220|258:268|419:248,1,595,0|2
416,199,147645,1,8
448,140,147924,1,8
256,192,148203,12,4,149319
