osu file format v5

[General]
AudioFilename: Wild Child Bound - Evo.mp3
AudioLeadIn: 0
PreviewTime: -1
Countdown: 1
SampleSet: Normal
StackLeniency: 0.7
Mode: 0
LetterboxInBreaks: 1

[Metadata]
Title:EVO
Artist:Wild Child Bound
Creator:Ekaru
Version:Perfect
Source:Digimon Tamers
Tags:Digimon japanese j-rock anime evolution

[Difficulty]
HPDrainRate:6
CircleSize:4
OverallDifficulty:6
SliderMultiplier:1.6
SliderTickRate:2

[Events]
//Background and Video events
0,0,"digivolutionsguillmon8.jpg"
//Break Periods
2,75018,85114
//Storyboard Layer 0 (Background)
//Storyboard Layer 1 (Failing)
//Storyboard Layer 2 (Passing)
//Storyboard Layer 3 (Foreground)
//Storyboard Sound Samples
//Background Colour Transformations
3,100,163,162,255

[TimingPoints]
27650,365.965233302836,4,1,0,100,1

[Colours]
Combo1 : 35,129,205
Combo2 : 255,0,0
Combo3 : 0,0,0
Combo4 : 255,255,255
Combo5 : 191,75,207

[HitObjects]
120,192,27649,1,0
184,192,27832,1,0
184,128,28015,1,0
280,48,28381,1,0
280,112,28564,1,0
376,200,28930,2,8,B|440:296|505:192,2,160
80,296,30577,5,0
120,248,30760,1,0
120,184,30943,1,0
240,144,31309,1,0
304,144,31492,1,0
400,56,31858,1,8
272,56,32224,2,8,B|160:56|80:96|40:160,1,240,8|4
256,304,33505,6,0,B|256:112,1,160
256,80,34054,1,0
376,40,34420,2,0,B|376:304,1,240
312,280,35152,2,0,B|192:168,1,160
144,208,35701,1,0
91,171,35884,2,0,B|267:3,1,240
256,192,36616,12,4,37897
496,144,38994,6,2,B|424:96|328:96|244:106|191:148,1,320
192,208,39909,1,8
256,208,40092,1,2
320,208,40275,1,8
320,272,40458,2,2,B|152:272,1,160,2|8
96,272,41007,2,0,B|24:200|104:128,1,160,2|8
152,96,41556,1,2
208,64,41739,1,8
264,32,41922,2,4,B|328:192,1,160
192,184,42654,1,0
192,248,42837,1,0
248,280,43020,1,0
256,216,43203,2,12,B|320:152|408:232|392:344|232:360,1,320
176,40,44850,5,0
112,40,45033,1,0
112,104,45216,1,0
112,232,45582,2,0,B|288:232,1,160
272,296,46131,2,0,B|408:296|472:248|480:168|472:104,1,320
472,48,47046,1,0
408,48,47229,1,0
344,48,47412,1,0
256,192,47595,12,0,49058
256,88,49424,5,0
192,88,49607,1,0
192,152,49790,1,0
128,152,49973,1,0
128,216,50156,1,0
64,216,50339,1,0
64,280,50522,2,8,B|472:280,1,400
464,216,51620,5,0
464,152,51803,1,0
400,152,51986,2,12,B|224:152,1,160
240,24,52718,5,0
176,24,52901,2,8,B|0:24,1,160,2|8
16,88,53450,2,0,B|192:88,1,160,0|2
208,144,53999,1,0
264,176,54182,1,0
320,144,54365,2,0,B|488:144,1,160,8|2
480,208,54914,2,0,B|312:208,1,160,8|2
320,272,55463,2,4,B|236:317|165:270,1,160
168,136,56195,5,8
168,136,56378,1,8
296,136,56744,1,8
296,136,56927,1,8
392,48,57293,2,0,B|200:48,1,160
168,48,57842,2,0,B|72:48|72:48|72:216,1,240
168,112,58757,5,0
168,240,59123,1,0
168,304,59305,2,0,B|360:304,1,160
328,240,59854,1,0
328,176,60037,2,0,B|328:8,1,160
392,16,60586,1,0
456,16,60769,2,8,B|456:192,2,160
392,16,61684,5,0
360,72,61867,1,0
304,96,62050,1,0
240,96,62233,2,8,B|152:128|128:256|232:328|328:288,1,320
248,176,63331,5,0
312,176,63514,1,0
376,176,63697,2,8,B|376:24|376:24|264:24,1,240
288,88,64429,1,0
224,88,64612,2,0,B|48:88,1,160,8|2
64,152,65161,2,0,B|240:152,2,160,8|2|8
64,216,66076,1,0
176,280,66442,1,0
240,280,66625,2,0,B|416:280,2,160,2|8|2
240,152,67723,5,0
240,152,67906,1,0
240,152,68089,2,4,B|344:96|496:168|496:288,1,320
440,296,69004,1,0
440,296,69187,1,0
312,296,69553,2,4,B|136:296,1,160
56,208,70284,1,0
56,208,70467,1,0
56,80,70833,1,0
56,16,71016,2,2,B|400:16|400:16|400:168,1,480
344,264,72480,6,12,B|176:264,1,160
120,264,73029,1,12
120,264,73212,1,12
120,264,73395,1,12
120,136,73761,1,12
120,136,73944,1,12
216,48,74310,2,12,B|216:304,1,240
488,352,86204,6,0,B|488:184,1,160
488,64,86936,1,0
488,64,87119,1,0
360,64,87485,1,0
232,64,87851,2,8,B|232:152|232:152|424:152|424:152|416:152,1,240
248,368,89132,5,0
248,304,89315,1,0
184,304,89498,1,0
120,304,89681,1,0
120,176,90047,1,0
224,96,90413,1,0
328,176,90779,2,8,B|488:176|488:16,1,240
488,288,92059,5,0
360,288,92425,1,0
360,288,92608,2,0,B|168:288,2,160
360,160,93706,2,0,B|432:80|352:16,1,160
296,24,94255,1,0
296,88,94438,1,0
232,88,94621,2,0,B|96:88|128:248,1,160
256,192,95170,12,0,96817
256,352,97549,6,12,B|256:24,1,320
320,32,98464,1,0
360,80,98647,1,0
376,144,98830,1,0
376,208,99013,1,0
272,280,99379,1,0
272,216,99562,1,0
160,280,99928,2,0,B|-8:280,1,160
0,216,100477,6,8,B|112:184|72:80,2,160
40,264,101391,1,0
88,304,101574,1,0
136,264,101757,2,4,B|248:360|370:250,1,240
24,72,103404,5,0
80,104,103587,1,0
136,72,103770,2,0,B|328:72,2,160,8|2|8
136,136,104685,2,0,B|136:176|136:184|160:208|176:232|200:248|248:256|288:240|312:232,1,240,2|8
312,296,105417,1,0
376,296,105600,1,8
376,232,105783,1,0
440,232,105966,1,8
256,192,106149,12,0,107796
72,192,107979,5,4
168,272,108345,1,8
232,272,108528,1,0
296,272,108711,1,8
360,272,108894,1,0
424,272,109077,2,8,B|424:192|424:192|168:192,1,320
184,64,110175,1,2
248,64,110358,1,0
312,64,110541,2,0,B|312:328,1,240,2|8
376,304,111273,5,0
440,304,111456,2,0,B|440:128,1,160,8|0
440,80,112004,2,0,B|360:112|336:208,1,160,8|0
312,256,112553,1,8
248,256,112736,1,0
248,320,112919,1,8
120,320,113285,1,0
120,320,113468,1,8
120,192,113834,1,0
120,192,114017,2,0,B|136:104|240:80|280:120,1,160,8|4
240,232,114749,5,0
240,232,114932,1,2
360,184,115298,1,0
360,184,115481,1,2
264,96,115847,1,2
144,144,116213,1,2
144,144,116396,2,0,B|72:224|168:296,1,160,0|2
312,176,117311,5,0
312,240,117494,1,0
368,272,117677,1,0
424,240,117860,1,0
424,112,118226,1,0
488,112,118409,1,0
488,176,118592,1,0
488,304,118958,1,0
432,336,119141,1,0
368,336,119324,1,0
240,336,119690,1,4
144,248,120056,5,8
192,208,120239,1,0
152,160,120422,1,8
200,120,120605,1,0
152,80,120788,2,8,B|224:32|312:120|320:208,1,240
464,320,121886,5,2
464,256,122069,1,0
464,192,122252,2,0,B|464:8|464:8|312:8,1,320,2|2
288,56,123166,1,0
224,168,123532,1,0
224,168,123715,1,0
192,288,124081,1,0
240,328,124264,1,0
304,328,124447,1,0
352,288,124630,1,0
312,168,124996,1,0
312,104,125179,2,0,B|136:104,2,160,8|2|8
424,48,126277,5,0
424,112,126460,1,0
424,176,126643,2,12,B|176:176,1,240
184,304,127558,1,0
248,304,127741,1,0
136,240,128107,2,8,B|384:240,1,240
376,176,128839,1,0
376,112,129022,1,0
264,40,129388,1,0
208,72,129571,2,2,B|208:256|208:256|320:256|320:256|320:56,1,480
440,120,131035,5,8
384,232,131401,1,8
384,232,131584,1,0
384,232,131767,1,8
384,232,131950,1,0
264,272,132316,1,0
264,272,132499,1,8
136,272,132865,2,12,B|136:8,1,240
