osu file format v9

[General]
AudioFilename: Wilber Pan - Bu De Bu Ai.mp3
AudioLeadIn: 0
PreviewTime: 112617
Countdown: 0
SampleSet: Soft
StackLeniency: 0.3
Mode: 0
LetterboxInBreaks: 0

[Editor]
Bookmarks: 34805,106805,118805
DistanceSpacing: 1
BeatDivisor: 4
GridSize: 4

[Metadata]
Title:Bu De Bu Ai
Artist:Wilber Pan
Creator:dkun
Version:Insane445
Source:
Tags:charles445 sync aston

[Difficulty]
HPDrainRate:7
CircleSize:4
OverallDifficulty:7
ApproachRate:8
SliderMultiplier:1.8
SliderTickRate:2

[Events]
//Background and Video events
0,0,"kawhydaysooNAYYYY.jpg"
//Break Periods
//Storyboard Layer 0 (Background)
//Storyboard Layer 1 (Fail)
//Storyboard Layer 2 (Pass)
//Storyboard Layer 3 (Foreground)
//Storyboard Sound Samples
//Background Colour Transformations
3,100,163,162,255

[TimingPoints]
16805,375,4,2,2,90,1,0
76617,-133.333333333333,4,2,2,90,0,0
79898,-100,4,2,2,90,0,0
82617,-133.333333333333,4,2,2,90,0,0
85898,-100,4,2,2,90,0,0
88617,-133.333333333333,4,2,2,90,0,0
91898,-100,4,2,2,90,0,0
160711,-133.333333333333,4,2,2,90,0,0
163898,-100,4,2,2,90,0,0
166523,-133.333333333333,4,2,2,90,0,0
169898,-100,4,2,2,90,0,0
172523,-133.333333333333,4,2,2,90,0,0
175898,-100,4,2,2,90,0,0
184617,-100,4,2,2,55,0,0

[Colours]
Combo1 : 252,84,159
Combo2 : 83,206,253
Combo3 : 255,81,255

[HitObjects]
176,120,28805,6,0,B|256:48|336:120,1,180,4|2
384,192,29367,1,0
336,263,29555,2,0,B|256:336|176:264,1,180,8|0
128,192,30117,1,0
88,120,30305,6,0,B|40:32,1,90,2|0
176,120,30680,2,0,B|128:32,1,90
264,120,31055,2,0,B|216:32,2,90,8|0|0
352,120,31617,1,0
416,176,31805,6,0,B|472:260|416:344,1,180,2|2
352,288,32367,2,0,B|267:231|183:287,1,180
112,336,32930,2,0,B|80:368|24:360,1,90
40,272,33305,5,2
72,192,33492,1,0
128,128,33680,1,0
208,88,33867,1,0
296,72,34055,5,2
296,72,34430,1,0
512,240,34805,6,0,B|512:307|466:353|398:353,1,180,2|2
424,272,35367,1,0
368,208,35555,2,0,B|304:144,1,90,8|0
208,144,35930,2,0,B|144:207,1,90
128,328,36305,6,0,B|152:376|216:384,1,90,2|0
384,328,36680,2,0,B|360:376|296:384,1,90
256,288,37055,2,0,B|256:96,1,180,8|0
256,16,37617,1,0
128,112,37805,6,0,B|80:152|80:232|128:272,1,180,2|2
176,192,38367,2,0,B|448:192,1,270
368,32,39305,5,2
144,32,39680,1,0
256,264,40055,1,2
256,264,40430,1,0
48,248,40805,6,0,B|64:312|104:352|176:352,1,180,4|2
256,264,41367,1,0
464,248,41555,2,0,B|448:312|408:352|336:352,1,180,8|0
256,264,42117,1,0
176,192,42305,6,0,B|104:120,1,90,2|0
336,192,42680,2,0,B|408:120,1,90
336,64,43055,2,0,B|295:111|216:111|176:64,1,180,8|0
256,24,43617,1,0
256,24,43805,2,0,B|256:208,1,180,2|2
136,248,44367,2,0,B|200:320|312:320|376:248,1,270
192,40,45305,5,2
120,88,45492,1,0
64,152,45680,1,0
32,232,45867,1,0
16,320,46055,5,2
256,320,46430,1,0
496,320,46805,5,2
504,232,46992,1,0
504,144,47180,2,0,B|496:96|456:72,1,90,2|0
376,48,47555,2,0,B|296:0|216:104|112:56,1,270,8|0
48,112,48305,2,0,B|8:176|48:240,2,135,2|0|0
124,152,49055,1,8
208,176,49242,2,0,B|392:176,1,180
432,256,49805,6,0,B|408:352|288:336,1,180,2|2
80,256,50367,2,0,B|104:352|224:336,1,180
256,248,50930,1,0
256,32,51305,5,2
176,72,51492,1,0
256,112,51680,1,0
336,72,51867,1,0
176,152,52055,5,2
336,152,52430,1,0
104,296,52805,6,0,B|32:352,2,90,2|0|2
176,240,53367,1,0
248,296,53555,2,0,B|319:351,1,90,8|0
320,240,53930,2,0,B|391:184,1,90
456,136,54305,5,2
256,32,54680,1,0
56,136,55055,1,8
256,352,55430,1,0
256,352,55617,1,0
344,368,55805,6,0,B|408:392|472:352|480:288,1,180,2|2
496,208,56367,2,0,B|520:136|480:80|426:64,1,180
336,48,56930,1,0
252,32,57117,6,0,B|164:0|76:32,1,180
112,112,57680,1,0
144,192,57867,1,0
176,272,58055,5,2
336,272,58430,1,0
360,56,58805,6,0,B|328:24|272:24,2,90,2|0|2
424,112,59367,1,0
488,168,59555,2,0,B|488:288,1,90,8|0
416,216,59930,2,0,B|416:312,1,90
344,352,60305,2,0,B|256:384|168:352,2,180,2|0|8
96,96,61430,5,0
136,176,61617,1,0
180,256,61805,2,0,B|220:312|292:312|332:256,1,180,2|2
376,176,62367,2,0,B|432:92|376:8,2,180
312,120,63305,5,2
240,72,63492,1,0
160,40,63680,1,0
72,32,63867,1,0
72,120,64055,5,2
72,264,64430,1,0
256,336,64805,5,2
336,320,64992,1,0
416,304,65180,2,0,B|515:284,1,90,2|0
364,244,65555,2,0,B|275:226,1,90,8|0
416,188,65930,2,0,B|515:168,1,90
364,132,66305,2,0,B|276:100|188:132,2,180,2|0|8
188,132,67430,2,0,B|148:148|124:192,1,90
84,272,67805,6,0,B|84:344|148:368|212:360,1,180,2|2
428,272,68367,2,0,B|428:344|364:368|300:360,1,180
256,192,69117,12,2,70055
256,192,70430,5,0
128,48,70805,5,2
64,104,70992,1,0
24,184,71180,2,0,B|0:232|16:280,1,90,2|0
88,232,71555,2,0,B|81:285|113:324,1,90,8|0
164,255,71930,2,0,B|176:307|219:333,1,90
256,248,72305,2,0,B|304:200|368:200|416:248,2,180,2|0|8
464,56,73430,6,0,B|420:40|376:56,1,90
296,88,73805,2,0,B|208:120|120:88,1,180,2|2
32,48,74367,2,0,B|64:136|32:224,2,180
112,80,75305,5,2
192,112,75492,1,0
272,144,75680,1,0
352,176,75867,1,0
432,208,76055,5,2
80,208,76430,1,0
384,304,76805,6,0,B|256:384|128:304,1,269.999991953373,2|8
384,80,78305,2,0,B|256:0|128:80,1,269.999991953373,2|8
256,120,79430,5,0
256,192,79617,1,0
256,264,79805,1,2
312,328,79992,5,0
392,360,80180,2,0,B|416:380|448:380|476:360,1,90,2|0
432,288,80555,2,0,B|432:96,1,180,8|0
432,24,81117,1,0
360,72,81305,5,2
272,72,81492,1,0
184,72,81680,1,0
96,72,81867,1,0
8,72,82055,5,2
8,312,82430,1,0
136,304,82805,6,0,B|200:328|200:328|256:392|312:328|312:328|376:304,1,269.999991953373,2|8
136,80,84305,2,0,B|200:56|200:56|256:-8|312:56|312:56|376:80,1,269.999991953373,2|8
256,120,85430,5,0
256,192,85617,1,0
256,264,85805,1,2
168,280,85992,5,0
208,360,86180,1,2
304,360,86367,1,0
344,280,86555,2,0,B|443:114,1,180,8|0
488,56,87117,1,0
400,40,87305,5,2
304,32,87492,1,0
208,32,87680,1,0
112,40,87867,1,0
24,56,88055,5,2
24,328,88430,1,0
368,304,88805,6,0,B|320:352|320:352|256:316|192:352|192:352|144:304,1,269.999991953373,2|8
368,80,90305,2,0,B|320:32|320:32|256:68|192:32|192:32|144:80,1,269.999991953373,2|8
328,144,91430,5,0
256,168,91617,1,0
184,144,91805,1,2
104,144,91992,5,0
56,216,92180,2,0,B|17:296,1,90,2|0
144,216,92555,2,0,B|192:304|272:344,1,180,8|0
352,368,93117,1,0
432,336,93305,5,2
488,264,93492,1,0
512,176,93680,1,0
512,88,93867,1,0
432,160,94055,5,2
80,132,94430,1,0
15,198,94617,1,0
72,272,94805,6,0,B|104:312|160:304,1,90,2|0
136,224,95180,2,0,B|168:184|224:192,1,90,2|0
440,272,95555,2,0,B|408:312|352:304,1,90,8|0
376,224,95930,2,0,B|344:184|288:192,1,90,0|0
256,280,96305,6,0,B|256:368,2,90,2|0|0
256,64,97055,1,8
80,88,97430,5,0
40,168,97617,1,0
80,248,97805,2,0,B|112:296|176:296,1,90,2|0
208,216,98180,1,2
304,216,98367,1,0
432,248,98555,2,0,B|400:296|336:296,1,90,8|0
256,304,98930,2,0,B|256:120,1,180,0|2
224,40,99492,5,0
136,8,99680,1,0
48,16,99867,1,0
120,88,100055,5,2
392,88,100430,1,0
464,304,100805,6,0,B|360:288|320:208,1,180,4|2
256,272,101367,1,0
191,208,101555,2,0,B|151:288|48:304,1,180,8|0
24,216,102117,1,0
56,128,102305,6,0,B|112:48,1,90,2|0
192,32,102680,2,0,B|208:120,1,90
304,120,103055,2,0,B|320:32,1,90,8|0
404,54,103430,2,0,B|456:128,1,90
488,208,103805,6,0,B|488:288|432:320|352:296,1,180,2|2
400,216,104367,2,0,B|312:184|224:216,1,180
144,256,104930,2,0,B|100:284|60:256,1,90
88,168,105305,5,2
136,88,105492,1,0
216,48,105680,1,0
304,32,105867,1,0
392,32,106055,5,2
392,352,106430,1,0
512,192,106805,6,0,B|328:192,1,180,2|2
240,192,107367,1,0
176,128,107555,2,0,B|112:192,1,90,8|0
176,256,107930,2,0,B|113:192,1,90
104,104,108305,6,0,B|128:56|192:48,1,90,2|0
408,104,108680,2,0,B|384:56|320:48,1,90
256,112,109055,2,0,B|256:292,1,180,8|0
256,380,109617,1,0
328,336,109805,6,0,B|368:288|448:288|488:336,1,180,2|2
408,376,110367,2,0,B|408:104,1,270
256,24,111305,5,2
72,192,111680,1,0
256,360,112055,1,2
256,360,112430,1,0
472,144,112805,6,0,B|456:80|416:40|344:40,1,180,4|2
336,192,113367,1,0
472,240,113555,2,0,B|456:304|416:344|344:344,1,180,8|0
256,312,114117,1,0
184,264,114305,6,0,B|144:240|120:200,1,90,2|0
328,264,114680,2,0,B|368:240|392:200,1,90
256,216,115055,2,0,B|256:24,1,180,8|0
165,60,115617,1,0
88,104,115805,6,0,B|16:184|88:264,1,180,2|2
136,336,116367,2,0,B|200:408|312:408|376:336,1,270
88,104,117305,5,2
168,64,117492,1,0
256,40,117680,1,0
344,64,117867,1,0
424,104,118055,5,2
424,280,118430,1,0
256,216,118805,5,2
168,184,118992,1,0
80,184,119180,2,0,B|24:184|0:216,1,90,2|0
16,304,119555,2,0,B|96:352|176:248|280:296,1,270,8|0
352,344,120305,2,0,B|416:384|480:344,2,135,2|0|0
416,280,121055,1,8
480,216,121242,2,0,B|544:136|480:48,1,180
400,112,121805,6,0,B|367:202|256:192,1,180,2|2
112,112,122367,2,0,B|145:202|256:192,1,180
256,96,122930,1,0
88,216,123305,5,2
168,256,123492,1,0
256,280,123680,2,0,B|256:368,1,90
344,256,124055,1,2
424,216,124242,1,0
504,176,124430,2,0,B|504:86,1,90
424,124,124805,6,0,B|384:172|304:172|264:124,1,180,2|2
200,64,125367,1,0
120,24,125555,2,0,B|76:4|32:24,2,90,8|0|0
76,104,126117,1,0
128,176,126305,6,0,B|216:224,1,90,2|0
384,176,126680,2,0,B|296:224,1,90
256,296,127055,1,8
256,296,127242,1,0
336,40,127805,6,0,B|380:24|424:40,2,90,2|0|2
256,88,128367,1,0
176,128,128555,2,0,B|132:144|88:128,1,90,8|0
8,80,128930,2,0,B|8:264,1,180,0|2
88,304,129492,6,0,B|88:352,2,45
176,248,129867,1,0
256,192,130055,2,0,B|288:152|336:152,1,90,2|0
256,192,130430,2,0,B|224:152|176:152,1,90
88,144,130805,5,2
136,64,130992,1,0
212,16,131180,1,2
300,16,131367,1,0
376,64,131555,1,8
424,144,131742,1,0
440,232,131930,1,0
192,184,132305,5,2
256,120,132492,2,0,B|256:48,2,45
320,184,132867,1,0
256,248,133055,1,8
256,336,133242,2,0,B|256:381,2,45
176,296,133617,1,0
136,272,133711,1,0
96,248,133805,2,0,B|40:216|48:128,1,135,2|0
280,32,134555,6,0,B|352:32,2,60,8|0|0
240,72,134930,2,0,B|168:72,2,60
280,112,135305,2,0,B|368:112,1,90,2|0
432,176,135680,1,0
432,264,135867,1,0
368,328,136055,2,0,B|278:328,1,90,2|0
184,328,136430,1,0
96,328,136617,2,0,B|56:368,2,45,0|0|2
140,248,136992,1,0
344,64,137555,6,0,B|388:84|432:64,2,90,8|0|0
256,48,138117,1,0
168,32,138305,2,0,B|187:75|168:119,1,90,2|0
80,112,138680,2,0,B|60:155|79:199,1,90
168,192,139055,2,0,B|187:235|168:279,2,90,8|0|0
80,272,139617,2,0,B|60:315|79:359,1,90,0|2
168,368,139992,5,0
256,360,140180,2,0,B|345:351,1,90,2|0
280,288,140555,2,0,B|369:279,1,90,8|0
304,216,140930,2,0,B|393:207,1,90
344,116,141305,5,2
256,64,141492,2,0,B|256:8,2,45
168,116,141867,1,0
104,192,142055,5,2
408,192,142430,1,0
464,264,142617,1,0
432,352,142805,6,0,B|384:376|344:352,1,90,2|0
312,272,143180,1,2
200,272,143367,1,0
80,352,143555,2,0,B|128:376|168:352,1,90,8|0
256,320,143930,2,0,B|256:136,1,180,0|2
144,104,144492,5,0
212,44,144680,1,0
300,44,144867,1,0
368,104,145055,2,0,B|392:192,1,90,8|0
464,136,145430,2,0,B|488:224,1,90
488,312,145805,5,2
408,352,145992,1,0
328,312,146180,1,2
248,352,146367,1,0
168,312,146555,2,0,B|87:271,1,90,8|0
152,208,146930,2,0,B|71:167,1,90
128,96,147305,5,2
208,48,147492,1,0
256,120,147680,2,0,B|256:176,2,45
304,48,148055,5,2
408,96,148242,1,0
472,192,148430,1,0
408,288,148617,1,0
304,336,148805,6,0,B|208:344,1,90,2|0
256,264,149180,2,0,B|160:272,1,90,2|0
208,192,149555,2,0,B|112:200,2,90,8|0|0
296,184,150117,1,0
384,176,150305,2,0,B|480:152|488:40,1,180,2|0
384,208,150867,2,0,B|480:232|488:344,1,180
392,312,151430,1,0
68,108,151805,5,2
68,108,151992,2,0,B|12:192|68:276,1,180,0|0
164,276,152555,2,0,B|108:192|164:108,1,180,8|0
224,192,153117,2,0,B|268:216|312:192,1,90,0|2
464,160,153492,2,0,B|420:136|376:160,2,90
408,256,154055,2,0,B|360:328|248:328,1,180,2|0
160,336,154617,1,0
72,344,154805,5,2
72,40,155180,1,2
336,192,155555,1,8
424,192,155742,1,0
512,192,155930,1,0
468,112,156117,1,0
400,56,156305,5,2
304,16,156492,1,0
208,16,156680,1,0
112,56,156867,2,0,B|92:70|80:89,2,45,0|0|8
208,224,157617,5,0
144,288,157805,2,0,B|72:360,1,90,2|0
304,224,158367,1,0
368,288,158555,2,0,B|440:360,1,90,8|0
256,144,159117,1,0
192,80,159305,6,0,B|176:32|120:24,1,90,2|0
320,80,159680,2,0,B|336:32|392:24,1,90
192,80,160055,2,0,B|176:128|120:136,1,90,2|0
320,80,160430,2,0,B|336:128|392:136,1,90
384,272,160805,6,0,B|256:192|128:272,1,269.999991953373,2|8
384,112,162305,2,0,B|256:192|128:112,1,269.999991953373,2|8
328,56,163430,5,0
256,32,163617,1,0
184,56,163805,1,2
96,40,163992,5,0
48,120,164180,2,0,B|32:168|40:216,1,90,2|0
48,120,164555,2,0,B|112:200|216:200,1,180,8|0
288,184,165117,1,0
376,152,165305,5,2
464,152,165492,1,0
464,240,165680,1,0
376,240,165867,1,0
420,76,166055,5,2
420,308,166430,1,0
132,92,166805,6,0,B|176:84|176:84|216:36|296:36|336:84|336:84|380:92,1,269.999991953373,2|8
132,292,168305,2,0,B|176:300|176:300|216:348|296:348|336:300|336:300|380:292,1,269.999991953373,2|8
256,264,169430,5,0
256,192,169617,1,0
256,120,169805,1,2
256,32,169992,5,0
176,80,170180,2,0,B|128:96|88:80,1,90,2|0
16,32,170555,2,0,B|16:216,1,180,8|0
16,304,171117,1,0
112,272,171305,5,2
208,240,171492,1,0
304,240,171680,1,0
400,272,171867,1,0
256,312,172055,5,2
256,72,172430,1,0
375,351,172805,6,0,B|320:296|272:344|272:344|240:344|240:344|192:296|136:352,1,269.999991953373,2|8
375,32,174305,2,0,B|320:88|272:40|272:40|240:40|240:40|192:88|136:32,1,269.999991953373,2|8
256,120,175430,5,0
256,192,175617,1,0
256,264,175805,1,2
256,360,175992,5,0
336,328,176180,1,2
416,296,176367,1,0
496,264,176555,1,8
416,104,176930,1,0
344,48,177117,2,0,B|256:16|168:48,2,180
344,136,178055,5,2
168,136,178430,1,0
88,208,178617,1,0
160,288,178805,6,0,B|176:336|216:360,1,90,2|0
352,288,179180,2,0,B|336:336|296:360,1,90,2|0
256,280,179555,2,0,B|256:190,1,90,8|0
208,112,179930,1,0
304,112,180117,1,0
344,28,180305,2,0,B|288:48|224:48|168:28,2,180,2|0|8
472,160,181430,5,0
496,248,181617,1,0
472,336,181805,2,0,B|440:376|376:376,1,90,2|0
300,376,182180,1,2
212,376,182367,1,0
118,375,182555,2,0,B|72:376|40:336,1,90,8|0
0,256,182930,1,0
128,80,183305,5,2
212,44,183493,1,0
300,44,183680,1,0
384,80,183868,1,0
456,128,184055,5,2
56,128,184430,1,0
256,192,184805,5,4
