osu file format v5

[General]
AudioFilename: 04 - Wing Beats.mp3
AudioLeadIn: 0
PreviewTime: 47904
Countdown: 1
SampleSet: Soft
StackLeniency: 0.7
Mode: 0
LetterboxInBreaks: 1

[Metadata]
Title:Wing Beats
Artist:Wiklund
Creator:v0xtrot
Version:Hard
Source:
Tags:chip chiptune 8bit wiklund wing beats v0xtrot

[Difficulty]
HPDrainRate:7
CircleSize:5
OverallDifficulty:7
SliderMultiplier:1.7
SliderTickRate:2

[Events]
//Background and Video events
0,0,"wing.png"
//Break Periods
2,17392,18696
2,22941,24245
2,28489,29793
2,34038,37052
//Storyboard Layer 0 (Background)
//Storyboard Layer 1 (Failing)
//Storyboard Layer 2 (Passing)
//Storyboard Layer 3 (Foreground)
//Storyboard Sound Samples
//Background Colour Transformations
3,100,0,0,0

[TimingPoints]
2818,346.820809248555,4,2,0,100,1,0
47535,-100,4,1,0,100,0,0
87442,-100,4,2,0,100,0,0
109292,-100,4,1,0,100,0,1

[Colours]
Combo1 : 254,223,255
Combo2 : 206,136,249
Combo3 : 160,242,252

[HitObjects]
64,96,13916,5,0
64,160,14089,1,0
64,224,14263,2,0,L|160:256|160:256,1,85
288,288,14783,1,0
416,288,15130,1,0
416,224,15303,2,0,L|448:128,2,85
352,256,15823,5,0
352,256,15910,1,0
352,256,15997,1,0
320,192,16170,1,0
288,128,16344,1,0
224,96,16517,1,0
96,160,16864,1,0
192,256,17211,1,0
352,96,19465,5,0
224,96,19812,1,0
256,160,19985,1,0
384,160,20332,1,0
416,288,20679,1,0
352,288,20852,1,0
288,288,21026,1,0
160,288,21372,5,0
96,288,21546,1,0
128,224,21719,1,0
64,224,21893,1,0
96,160,22066,1,0
224,160,22413,1,0
224,32,22760,1,0
192,224,25014,6,0,L|192:128,2,85
256,224,25534,1,0
384,256,25881,1,0
384,128,26228,1,0
320,128,26401,2,0,L|224:128,1,85
224,64,26748,1,0
160,64,26922,1,0
128,128,27095,6,0,L|80:216,1,85
128,264,27442,1,0
192,288,27615,1,0
320,288,27962,1,0
448,288,28309,1,0
224,224,30563,5,0
320,128,30910,1,0
352,64,31083,1,0
224,64,31430,1,0
224,192,31777,1,0
288,192,31950,1,0
352,192,32124,1,0
352,320,32471,5,0
288,320,32644,1,0
224,320,32817,1,0
288,320,32991,1,0
352,320,33164,1,0
352,192,33511,1,0
224,192,33858,1,0
64,32,37673,5,0
64,160,38020,1,0
192,96,38367,2,2,L|352:192,1,170
352,320,39060,1,0
224,320,39407,1,0
96,320,39754,2,2,L|160:160,1,170
288,192,40448,5,0
160,160,40794,1,0
96,128,40968,1,2
160,96,41141,1,0
288,128,41488,1,0
416,64,41835,5,0
288,128,42182,1,0
416,192,42528,1,0
416,256,42702,1,2
352,224,42875,1,0
296,264,43049,1,4
232,288,43222,5,0
232,152,43569,1,2
232,16,43916,1,2
96,16,44263,1,2
96,80,44436,1,0
96,144,44609,1,2
96,280,44956,5,2
144,328,45130,1,0
208,328,45303,1,2
264,360,45476,1,0
288,296,45650,1,2
232,264,45823,1,4
288,224,45997,1,0
288,96,46344,5,0
352,96,46517,1,0
384,160,46690,1,0
256,192,47037,1,0
192,160,47211,1,4
192,224,47384,1,4
384,256,47904,6,6,L|224:352,1,170
96,320,48598,5,0
96,256,48771,1,0
96,192,48945,1,8
160,192,49118,1,0
224,192,49291,1,0
288,192,49465,1,0
224,192,49638,1,8
224,256,49812,1,0
256,320,49985,6,2,C|288:352|320:320,1,85
376,288,50332,1,8
416,232,50505,1,0
416,160,50679,2,2,C|448:64,1,85
384,48,51026,1,10
320,32,51199,1,2
256,32,51372,1,0
192,32,51546,1,2
224,96,51719,1,8
256,160,51893,1,2
192,160,52066,1,0
128,160,52239,6,2,C|96:160|96:224,2,85,2|10|2
168,104,52760,2,2,C|184:56|200:48|248:48|280:104,1,170,2|8
224,136,53280,1,0
280,176,53453,2,2,C|264:224|248:232|200:232|168:176,1,170,2|10
120,224,53974,1,0
160,280,54147,6,4,C|128:312|160:344,2,85,4|0|8
224,256,54667,2,2,C|256:288|256:320|320:320|328:288,1,170
360,240,55187,1,8
384,176,55361,1,0
360,112,55534,2,2,C|328:80|296:112,1,85
256,152,55881,1,8
192,176,56054,1,0
248,216,56228,1,2
184,240,56401,1,2
128,200,56575,2,2,C|96:232|96:232|64:200,1,85,10|2
80,144,56922,5,0
120,88,57095,1,2
160,144,57268,1,8
200,88,57442,1,2
240,144,57615,1,0
280,88,57789,1,2
320,144,57962,1,8
384,168,58135,2,2,C|416:200|384:232,1,85
280,304,58656,5,8
216,336,58829,1,0
152,304,59002,1,2
152,168,59349,1,8
192,112,59523,1,2
240,64,59696,1,4
304,40,59870,5,2
288,104,60043,1,8
256,160,60216,2,2,C|416:224,1,170
480,256,60737,1,8
416,288,60910,1,2
352,320,61083,2,2,C|256:352,1,85
224,296,61430,1,8
176,248,61604,1,0
112,264,61777,1,2
64,312,61950,1,2
48,248,62124,2,2,C|16:216|48:184,1,85,10|2
88,64,62644,5,0
152,64,62817,1,8
208,96,62991,1,2
344,96,63338,2,2,C|440:96,2,85,2|10|2
304,152,63858,1,4
216,256,64205,1,8
96,312,64552,5,0
96,312,64638,1,0
96,312,64725,1,0
152,272,64898,1,0
152,272,64985,1,0
152,272,65072,1,0
208,240,65245,1,4
224,376,65592,5,8
168,336,65765,1,2
168,200,66112,1,2
224,232,66286,1,8
256,96,66633,1,2
320,224,66979,1,8
448,160,67326,1,2
320,224,67673,1,8
224,320,68020,6,2,C|192:352|160:320,1,85
112,280,68367,1,8
160,224,68540,1,0
128,160,68713,1,2
96,96,68887,1,0
160,96,69060,1,8
288,32,69407,5,2
416,96,69754,1,8
288,160,70101,1,2
288,32,70448,1,8
288,160,70794,1,4
288,288,71141,5,8
224,288,71315,1,2
352,288,71661,1,2
352,224,71835,1,8
352,96,72182,1,2
224,96,72528,1,8
224,224,72875,1,2
96,160,73222,1,8
32,288,73569,2,2,C|32:192,2,85,2|2|10
32,352,74089,1,0
96,352,74263,1,2
160,352,74436,1,2
224,320,74609,1,10
320,224,74956,5,2
416,128,75303,1,8
320,32,75650,1,2
224,128,75997,1,8
320,224,76344,6,2,C|352:192|384:224,2,85,6|2|10
288,288,76864,1,2
160,288,77211,1,2
224,288,77384,1,8
192,224,77557,1,2
160,160,77731,2,2,C|160:64,2,85,2|2|10
224,160,78251,1,2
352,160,78598,1,2
288,160,78771,1,8
352,288,79118,6,2,C|320:320|288:288,2,85,2|2|8
416,256,79638,1,2
480,128,79985,1,2
448,64,80159,1,8
320,32,80505,1,2
256,64,80679,2,2,C|192:128,1,85,0|8
160,192,81026,1,2
256,288,81372,1,2
320,320,81546,1,8
320,256,81719,1,2
384,288,81893,1,4
384,128,82239,5,8
384,64,82413,1,2
256,64,82760,1,2
192,64,82933,1,8
224,128,83107,1,0
192,192,83280,1,0
256,192,83453,1,2
224,256,83627,1,8
192,320,83800,1,2
320,320,84147,1,2
256,320,84320,1,8
192,192,84667,5,2
256,160,84841,1,0
192,192,85014,1,8
128,224,85187,1,2
32,320,85534,1,2
32,320,85708,1,8
32,320,85881,1,4
256,192,86054,12,8,87095
352,32,87442,5,4
224,32,87789,1,0
288,160,88135,1,0
352,256,88482,1,2
288,288,88656,1,2
224,256,88829,1,2
96,192,89176,1,8
96,64,89523,1,0
224,0,89870,1,8
352,64,90216,5,4
352,192,90563,1,8
224,256,90910,1,0
224,128,91257,1,2
160,128,91430,1,2
192,192,91604,1,2
64,192,91950,1,8
64,64,92297,1,0
192,64,92644,1,8
37,155,92991,6,2,C|69:187|101:155,1,85,4|0
96,160,93338,2,0,C|128:128|160:160,1,85
154,154,93685,2,2,C|186:186|218:154,1,85
213,159,94031,2,0,C|245:127|277:159,1,85
272,153,94378,2,2,C|304:185|336:153,1,85
331,158,94725,2,0,C|363:126|395:158,1,85
389,152,95072,2,2,C|421:184|453:152,1,85
448,157,95419,2,0,C|480:125|512:157,1,85
480,224,95765,6,2,C|448:256|416:224,1,85,4|0
421,229,96112,2,0,C|389:197|357:229,1,85
363,223,96459,2,2,C|331:255|299:223,1,85
304,228,96806,2,0,C|272:196|240:228,1,85
245,222,97153,2,2,C|213:254|181:222,1,85
186,227,97500,2,0,C|154:195|122:227,1,85
128,221,97846,2,2,C|96:253|64:218,1,85
32,288,98193,1,8
192,320,98540,5,4
256,320,98713,1,2
320,320,98887,1,2
384,320,99060,1,2
352,256,99234,5,4
288,256,99407,1,4
224,256,99581,1,8
256,128,99927,5,2
256,128,100014,1,2
256,128,100101,1,2
320,128,100274,1,2
384,128,100448,1,2
352,192,100621,5,4
288,192,100794,1,4
224,192,100968,1,8
96,256,101315,5,2
96,192,101488,1,2
96,128,101661,1,2
160,160,101835,1,2
160,224,102008,5,4
224,192,102182,1,4
224,192,102355,1,8
352,192,102702,1,2
352,128,102875,1,2
352,192,103049,1,2
352,256,103222,1,2
352,192,103396,5,6
224,192,103742,1,8
224,64,104089,5,2
288,64,104263,1,2
256,128,104436,1,2
256,192,104609,1,2
192,160,104783,5,4
256,192,104956,1,4
320,160,105130,1,8
320,288,105476,1,2
192,288,105823,1,2
256,256,105997,1,2
224,192,106170,5,4
288,192,106344,1,4
256,128,106517,1,8
352,64,106864,5,2
288,32,107037,1,2
224,32,107211,1,2
160,64,107384,1,2
224,96,107557,5,6
288,96,107731,1,6
256,160,107904,1,8
320,288,108251,1,2
256,288,108424,1,2
192,288,108598,1,2
224,224,108771,1,2
288,224,108945,5,4
256,96,109291,1,2
384,96,109638,5,4
320,64,109812,1,0
256,32,109985,1,8
192,64,110159,1,0
64,64,110505,5,0
128,96,110679,1,8
192,128,110852,1,0
256,96,111026,2,2,C|256:192,1,85
320,192,111372,1,8
288,256,111546,1,0
224,288,111719,2,2,C|192:331|224:363,1,85
288,352,112066,1,8
352,320,112239,1,2
352,192,112586,1,2
288,160,112760,1,8
224,128,112933,1,2
256,256,113280,6,0,C|224:288|192:256,2,85,2|8|2
248,184,113800,1,2
184,64,114147,1,8
320,72,114494,1,2
456,72,114841,1,8
456,136,115014,1,0
400,176,115187,5,6
336,200,115361,1,2
320,264,115534,1,8
248,272,115708,1,2
120,232,116054,5,2
104,168,116228,1,8
168,144,116401,1,0
224,104,116575,1,2
280,144,116748,1,2
344,168,116922,1,8
320,232,117095,1,0
264,264,117268,1,2
192,264,117442,1,2
232,208,117615,1,8
184,152,117789,1,2
248,32,118135,1,0
304,80,118309,1,8
344,136,118482,1,2
336,272,118829,6,4,C|304:304|272:272,2,85
296,216,119349,1,4
192,128,119696,1,8
328,128,120043,1,0
328,128,120130,1,0
328,128,120216,1,0
272,168,120390,1,0
272,168,120476,1,0
272,168,120563,1,0
336,192,120737,1,4
