osu file format v5

[General]
AudioFilename: 04 - Wing Beats.mp3
AudioLeadIn: 0
PreviewTime: -1
Countdown: 0
SampleSet: Normal
StackLeniency: 0.7
Mode: 0
LetterboxInBreaks: 1
EditorBookmarks: 37500,48598,65245,87442,98540,109638,142933

[Metadata]
Title:Wing Beats
Artist:Wiklund
Creator:v0xtrot
Version:Easy
Source:
Tags:chip chiptune 8bit wiklund wing beats v0xtrot

[Difficulty]
HPDrainRate:2
CircleSize:3
OverallDifficulty:2
SliderMultiplier:1.2
SliderTickRate:2

[Events]
//Background and Video events
0,0,"wing.png"
//Break Periods
2,34058,35820
//Storyboard Layer 0 (Background)
//Storyboard Layer 1 (Failing)
//Storyboard Layer 2 (Passing)
//Storyboard Layer 3 (Foreground)
//Storyboard Sound Samples
//Background Colour Transformations
3,100,0,0,0

[TimingPoints]
2818,346.820809248555,4,2,0,100,1,0
48251,-100,4,1,0,80,0,0
87095,-100,4,2,0,100,0,0
98367,-100,4,1,0,80,0,0

[Colours]
Combo1 : 254,223,255
Combo2 : 206,136,249
Combo3 : 160,242,252

[HitObjects]
112,96,13916,1,0
256,96,14436,2,0,C|376:96,1,120
376,192,15130,1,0
192,256,15823,5,0
192,160,16170,2,0,C|192:32,1,120
288,40,16864,1,0
384,40,17211,1,0
416,56,19465,5,0
416,200,19985,1,0
336,256,20332,1,0
328,160,20679,1,0
184,152,21199,5,0
104,96,21546,1,0
192,56,21893,2,0,C|256:56,1,60
344,56,22413,1,0
440,56,22760,1,0
400,64,25014,5,0
400,160,25361,2,0,C|400:224,1,60
400,312,25881,1,0
320,264,26228,1,0
240,312,26575,1,0
184,176,27095,5,0
264,128,27442,2,0,C|320:96,1,60
400,56,27962,1,0
400,152,28309,1,0
88,104,30563,6,0,C|88:168,3,60
184,168,31430,1,0
280,168,31777,2,0,C|352:168,2,60
336,248,32471,2,0,C|272:248,4,60
432,248,33511,1,0
432,344,33858,1,0
392,32,37500,6,0,C|392:104,1,60,4|2
392,176,38020,1,2
392,272,38367,1,2
296,272,38713,1,2
200,272,39060,6,0,C|136:272,2,60,2|0|2
200,176,39754,6,0,C|200:112,4,60,2|0|2|4|2
200,272,40794,5,2
296,272,41141,1,2
392,272,41488,1,2
344,184,41835,1,2
248,184,42182,1,2
296,104,42528,6,0,C|296:40,4,60,2|0|2|4|2
352,184,43569,5,2
272,240,43916,1,2
192,184,44263,1,2
112,240,44609,1,2
192,288,44956,2,0,C|192:360,4,60,2|0|2|0|2
192,240,45823,6,4,C|192:176,1,60,4|4
256,48,46517,5,8
352,48,46864,6,4,C|352:112,1,60
256,192,47384,12,4,48598
152,72,48945,6,0,C|192:120,1,60
256,192,49465,1,0
160,192,49812,1,0
96,264,50159,1,0
96,360,50505,1,0
192,360,50852,1,0
288,360,51199,1,0
288,264,51546,1,0
288,168,51893,1,0
192,168,52239,6,4,C|192:240,3,60
192,320,53107,5,8
288,320,53453,1,0
384,320,53800,1,8
384,224,54147,1,4
384,128,54494,1,8
192,128,55187,1,8
192,320,55881,1,8
288,320,56228,1,2
384,320,56575,2,2,C|384:128,1,180,2|2
288,160,57442,1,2
192,144,57789,6,4,C|192:216,3,60
192,296,58656,1,8
288,296,59002,1,0
384,296,59349,1,8
384,200,59696,1,4
240,168,60216,6,2,C|112:168,1,120
120,264,60910,1,2
120,360,61257,2,2,C|248:360,1,120
336,360,61950,1,2
336,264,62297,1,2
336,168,62644,1,2
336,72,62991,1,2
240,72,63338,6,4,C|240:144,3,60
240,224,64205,5,8
144,224,64552,1,0
56,192,64898,1,8
104,112,65245,1,4
248,120,65765,5,2
344,120,66112,1,2
480,144,66633,5,2
480,240,66979,1,8
480,336,67326,1,2
384,336,67673,1,8
312,272,68020,6,2,C|256:224,6,60,2|2|8|2|2|2|8
384,336,69407,5,2
408,240,69754,1,8
368,152,70101,1,2
416,64,70448,1,8
328,24,70794,1,4
184,24,71315,5,2
184,120,71661,1,2
184,264,72182,5,2
264,312,72528,1,8
344,264,72875,1,2
416,320,73222,1,8
488,264,73569,6,2,C|488:192,6,60,2|2|8|2|2|2|8
392,264,74956,5,2
296,264,75303,1,8
296,168,75650,1,2
392,168,75997,1,8
392,72,76344,1,4
248,72,76864,5,2
152,72,77211,1,2
152,216,77731,1,8
152,360,78251,1,2
248,360,78598,1,2
248,216,79118,6,2,C|184:216,3,60
192,120,79985,1,2
336,120,80505,2,2,C|400:120,3,60
392,216,81372,1,2
248,208,81893,5,4
104,208,82413,1,2
104,304,82760,1,2
248,304,83280,1,8
248,160,83800,1,2
248,64,84147,1,2
104,64,84667,2,2,C|104:136,3,60
104,216,85534,1,2
256,192,86054,12,4,87442
