osu file format v7

[General]
AudioFilename: Wiklund - Whip the Blip.mp3
AudioLeadIn: 1500
PreviewTime: -1
Countdown: 1
SampleSet: Normal
StackLeniency: 0.7
Mode: 0
LetterboxInBreaks: 1
EpilepsyWarning: 1

[Editor]
DistanceSpacing: 0.699999988079071
BeatDivisor: 4
GridSize: 8

[Metadata]
Title:Whip the Blip
Artist:Wiklund
Creator:Ultimate
Version:Easy
Source:
Tags:whip blip Pulse Traveller Wing Beats wiklund chiptune

[Difficulty]
HPDrainRate:3
CircleSize:4
OverallDifficulty:3
SliderMultiplier:0.8
SliderTickRate:2

[Events]
//Background and Video events
0,0,"Wiklund - By Ultimate.jpg"
//Break Periods
2,18558,22566
2,52440,62095
2,108911,118566
2,142793,152448
//Storyboard Layer 0 (Background)
//Storyboard Layer 1 (Fail)
//Storyboard Layer 2 (Pass)
//Storyboard Layer 3 (Foreground)
Sprite,Foreground,Centre,"storyboard.png",155,106 M,0,18359,18888,-164,106,151,106 F,0,18359,18888,0.172,0.244 F,0,18888,21006,0.244,0.2379303 M,0,18888,24006,151,106,285,106 F,0,21006,24006,0.2379303,0
Sprite,Foreground,Centre,"storyboard.png",161,124 S,0,18359,,0.5119999 M,0,18359,18888,-103,124,160,124 F,0,18359,18888,0.264,1 F,0,18888,21182,1 M,0,18888,24006,160,124,207,124 M,0,18888,24006,160,124,207,124 F,0,21182,24006,1,0
Sprite,Foreground,Centre,"beatmap.png",535,378 M,0,18359,18888,795,378,540,378 F,0,18359,18888,0.3559998,0.2199997 F,0,18888,21006,0.2199997 M,0,18888,24006,540,378,405,378 F,0,21006,24006,0.2199997,0
Sprite,Foreground,Centre,"beatmap.png",489,399 S,0,18359,,0.5919998 M,0,18359,18888,732,399,491,399 F,0,18359,18888,0.2800002,1 F,0,18888,21182,1,0.8920003 M,0,18888,24006,491,399,433,399 F,0,21182,24006,0.8920003,0
//Storyboard Sound Samples
//Background Colour Transformations
3,100,163,162,255

[TimingPoints]
1418,352.941176470588,4,1,0,60,1,0
63182,-100,4,2,0,100,0,0
73329,-100,4,1,0,60,0,0
153885,-200,4,1,0,60,0,0
159532,-100,4,1,0,80,0,0

[Colours]
Combo1 : 252,158,201
Combo2 : 176,249,253
Combo3 : 220,177,5

[HitObjects]
256,96,1418,1,0
360,192,2123,1,8
256,288,2829,1,0
152,192,3535,1,8
256,96,4241,2,0,L|336:96,1,80,0|0
336,96,4947,1,8
440,168,5653,2,0,B|472:208|440:304|368:280,1,160,0|8
381,283,6712,1,0
325,284,7065,6,0,B|157:284,1,160,0|8
96,192,8476,2,0,B|264:192,1,160,0|8
320,104,9888,2,0,B|152:104,1,160,0|8
72,32,11300,2,0,B|16:120|40:264|168:304,1,320,4|0
256,336,13417,5,8
352,280,14123,1,0
256,216,14829,1,8
352,144,15535,1,0
256,88,16241,1,8
152,48,16947,2,0,B|40:48|40:288|160:288,1,320,4|4
176,96,24006,6,8,B|256:48|334:101,1,160
328,208,25417,2,8,B|248:160|170:213,1,160
176,320,26829,2,8,B|256:272|334:325,1,160
440,320,28241,2,0,B|488:320,8,40,8|0|8|0|8|0|8|8|4
360,240,30359,5,8
280,160,31065,1,0
200,80,31770,1,8
120,160,32476,1,0
200,80,33182,1,8
280,160,33888,1,0
200,240,34594,1,8
280,320,35300,6,0,B|368:320,1,80
392,272,36006,2,0,B|304:272,1,80,8|0
280,224,36712,2,0,B|368:224,1,80
392,176,37417,2,0,B|304:176,1,80,8|0
280,128,38123,1,0
280,128,38829,1,8
168,128,39535,1,0
168,128,40241,2,0,B|168:80,4,40,8|0|8|8|4
80,200,41653,6,0,B|88:296|248:344|344:248,1,320
448,256,43770,2,0,B|464:160|264:104|200:224,1,320
136,304,45888,1,0
248,304,46594,5,2
360,304,47300,1,0
304,208,48006,1,2
192,208,48712,1,0
251,113,49417,1,2
251,113,50123,1,0
141,112,50829,2,2,B|141:24|261:-24|365:32|365:120,1,320
280,104,63535,6,0,B|368:104|368:280|272:280,1,240,4|0
224,280,64947,2,0,B|136:280|136:104|232:104,1,240,4|0
280,104,66359,6,0,B|368:104|368:280|272:280,1,240,4|0
224,280,67771,2,0,B|136:280|136:104|232:104,1,240,4|0
280,104,69182,5,0
352,192,69888,1,8
280,280,70594,1,0
208,192,71300,1,8
280,104,72006,1,0
208,192,72712,1,8
139,103,73417,2,0,B|3:103|-13:295|155:295,1,320,0|4
208,192,75535,5,8
320,192,76241,1,0
264,96,76947,1,8
320,192,77653,1,0
264,288,78359,1,8
208,192,79065,1,0
264,96,79770,6,0,B|440:96,1,160,8|0
480,184,81182,2,0,B|304:184,1,160,8|0
256,280,82594,2,0,B|432:280,1,160,8|0
480,184,84006,2,0,B|304:184,1,160,8|0
208,184,85417,2,0,B|160:184,4,40,8|0|8|8|0
256,80,86829,5,2
368,80,87535,1,0
256,80,88241,1,2
368,80,88947,1,0
368,192,89653,1,2
256,192,90359,1,0
368,192,91065,1,2
368,304,91770,5,0
312,304,92123,2,2,B|264:304,1,40
128,304,93182,1,0
128,248,93535,2,2,B|128:200,1,40
128,64,94594,1,0
184,64,94947,2,2,B|232:64,1,40
360,64,96006,2,2,B|448:104|464:208|400:296|304:272,1,320
328,160,98123,6,0,B|264:88|184:144,1,160,0|8
104,224,99535,2,0,B|64:264,2,40,8|0|8
144,184,100241,2,2,B|192:184|272:232|272:304|336:344|416:320|424:280,1,320
456,192,102359,1,0
400,96,103065,5,8
288,72,103770,1,0
184,120,104476,1,8
160,224,105182,1,0
232,312,105888,1,8
352,304,106594,1,2
416,208,107300,2,2,B|464:112|368:32|272:32|216:96,1,320,10|6
136,144,120006,6,0,B|208:96,6,80,0|0|8|8|2|2|2
200,240,122829,6,0,B|272:192,4,80,0|0|8|8|2
144,240,124594,1,2
144,184,124947,1,2
200,184,125300,1,2
256,184,125653,6,0,B|328:136,6,80,0|0|8|8|2|2|2
320,280,128476,6,0,B|392:232,4,80,0|0|8|8|2
264,280,130241,1,2
264,224,130594,1,2
320,224,130947,1,2
320,168,131300,6,0,B|320:112|200:112|200:176,1,160,0|8
160,272,132712,2,0,B|160:328|40:328|40:264,1,160,0|8
104,184,134123,1,0
104,184,134476,1,0
104,184,134829,1,8
48,88,135535,2,0,B|168:40|288:208|232:280,1,320,0|2
208,320,137300,6,2,B|208:368,1,40
344,320,138359,1,2
344,264,138712,2,2,B|400:264,1,40
240,264,139770,1,2
184,264,140123,2,2,B|184:208,1,40
184,80,141182,2,2,B|216:40|299:40|328:79,2,160,2|2|2
200,80,153888,5,0
256,80,154241,1,0
312,80,154594,1,8
312,192,155300,5,0
256,192,155653,1,0
200,192,156006,1,8
200,304,156712,5,0
256,304,157065,1,0
312,304,157418,1,8
312,192,158123,5,0
256,192,158476,1,0
200,192,158829,1,8
112,120,159535,6,0,L|72:192|112:264,1,160,0|8
200,192,160947,2,0,L|240:264|200:336,1,160,0|8
112,264,162359,6,0,L|72:192|112:120,1,160,0|8
200,192,163771,2,0,L|240:120|200:48,1,160,0|8
112,120,165182,5,2
112,120,165535,2,0,L|160:120,1,40
288,120,166594,1,2
288,120,166947,2,0,L|240:120,6,40,0|0|8|0|8|8|4
