osu file format v6

[General]
AudioFilename: Wing Beats - 08 - The Digital Force.mp3
AudioLeadIn: 0
PreviewTime: 150068
Countdown: 0
SampleSet: Normal
StackLeniency: 0.7
Mode: 0
LetterboxInBreaks: 0

[Editor]
Bookmarks: 112430,112555
DistanceSpacing: 1
BeatDivisor: 3
GridSize: 16

[Metadata]
Title:The Digital Force
Artist:Wiklund
Creator:Metroid
Version:Mega Force
Source:
Tags:Chiptune Wing Beats Dusty

[Difficulty]
HPDrainRate:6
CircleSize:5
OverallDifficulty:7
SliderMultiplier:1.4
SliderTickRate:0.5

[Events]
//Background and Video events
0,0,"TheDigitalForceBG.jpg"
//Break Periods
2,24255,35155
2,78255,88405
2,132255,143155
//Storyboard Layer 0 (Background)
//Storyboard Layer 1 (Fail)
Sprite,Fail,Centre,"SBFail.png",320,240 M,0,80730,,325,161 F,0,80730,81365,0,1 S,0,80730,83570,0.9040001,1.112 F,0,82559,83570,1,0 F,0,133564,134513,0,0.6983185 S,0,133564,136541,0.9039999,1.112 F,0,135623,136541,0.6983185,0
//Storyboard Layer 2 (Pass)
Sprite,Pass,Centre,"SBPass.png",320,240 M,0,80730,,325,161 F,0,80730,81365,0,1 S,0,80730,83570,0.9040001,1.112 F,0,82559,83570,1,0 F,0,133564,134513,0,0.6983185 S,0,133564,136541,0.9039999,1.112 F,0,135623,136541,0.6983185,0
//Storyboard Layer 3 (Foreground)
Sprite,Foreground,Centre,"MegaForceNeon.png",320,240 M,0,29090,,320,240 F,0,29090,29557,0,1 F,0,29557,30444,1 S,0,29090,30806,1.272,1.056 F,0,30444,30806,1,0
Sprite,Foreground,Centre,"SliderWarning.png",320,240 M,0,69818,,323,356 S,0,69818,,0.6799999 F,0,69818,70477,0.04800003,1 F,0,70477,71701,1 F,0,71701,71974,1,0
//Storyboard Sound Samples
//Background Colour Transformations
3,100,163,162,255

[TimingPoints]
12055,375,4,2,0,40,1,0
14492,-100,4,2,0,50,0,0
15242,-100,4,2,0,60,0,0
15992,-100,4,2,0,70,0,0
17867,-100,4,2,0,40,0,0
20492,-100,4,2,0,50,0,0
21242,-100,4,2,0,60,0,0
21992,-100,4,2,0,70,0,0
34562,-100,4,2,0,90,0,0
53961,-100,4,1,0,70,0,0
55273,-100,4,2,0,90,0,0
55460,-100,4,1,0,70,0,0
56773,-100,4,2,0,80,0,0
56960,-100,4,1,0,70,0,0
58273,-100,4,2,0,80,0,0
58460,-100,4,1,0,70,0,0
58648,-100,4,2,0,80,0,0
58883,-100,4,1,0,70,0,0
70555,-50,4,1,0,70,0,0
71680,-100,4,1,0,70,0,0
89305,-200,4,1,0,70,0,0
90055,-100,4,1,0,70,0,0
107305,-200,4,1,0,70,0,0
107961,-100,4,2,0,80,0,0
108054,-100,4,2,0,80,0,0
109555,-200,4,2,0,80,0,0
119305,-50,4,2,0,80,0,0
119961,-100,4,1,0,70,0,0
120055,-100,4,1,0,70,0,0
121273,-100,4,2,0,80,0,0
121515,-100,4,1,0,70,0,0
122772,-100,4,2,0,80,0,0
123014,-100,4,1,0,70,0,0
124271,-100,4,2,0,80,0,0
124513,-100,4,1,0,70,0,0
125773,-100,4,2,0,80,0,0
126015,-100,4,1,0,70,0,0
127273,-100,4,2,0,80,0,0
127515,-100,4,1,0,70,0,0
128772,-100,4,2,0,80,0,0
129014,-100,4,1,0,70,0,0
130271,-100,4,2,0,80,0,0
130514,-100,4,1,0,70,0,0
131771,-100,4,2,0,80,0,0
132013,-100,4,1,0,70,0,0
150055,-200,4,1,0,70,0,0
151555,-100,4,1,0,70,0,1

[Colours]
Combo1 : 255,255,128
Combo2 : 188,254,188
Combo3 : 151,151,253
Combo4 : 252,109,109

[HitObjects]
256,32,12055,2,2,C|256:176,1,140
256,240,12617,1,0
320,272,12805,2,2,B|336:192|272:160|224:160,1,140
256,240,13367,1,0
192,272,13555,2,2,B|176:192|240:160|288:160,1,140
256,240,14117,1,0
256,304,14305,1,4
304,176,14680,5,2
256,128,14867,1,0
256,64,15055,1,4
176,176,15430,5,2
192,112,15617,1,0
256,128,15805,1,4
368,48,16180,5,2
320,96,16367,1,0
256,128,16555,2,2,B|304:176|256:240,2,105
208,176,17305,1,4
256,48,17680,5,6
256,336,18055,6,2,B|336:336|336:240,1,140
256,272,18617,1,0
256,336,18805,2,2,B|176:336|176:240,1,140
256,272,19367,1,0
192,240,19555,2,2,B|256:176|320:240,1,140
256,272,20117,1,0
256,336,20305,1,4
256,192,20680,5,2
160,288,20867,1,0
256,192,21055,1,4
256,48,21430,5,2
352,128,21617,1,0
256,48,21805,1,4
256,192,22180,5,2
256,128,22367,1,0
320,160,22555,2,2,B|384:224|336:256,2,105
256,192,23305,5,4
112,192,23680,1,4
400,192,24055,1,4
32,160,36055,5,4
64,224,36242,1,0
96,160,36430,1,2
128,224,36617,1,0
272,224,36992,5,0
304,160,37180,1,2
336,224,37367,1,0
368,160,37555,1,0
400,224,37742,1,0
432,160,37930,1,2
464,224,38117,1,0
256,192,38680,5,2
256,192,38867,1,0
256,48,39242,5,0
208,96,39430,1,2
256,144,39617,1,0
304,96,39805,2,0,B|368:176|304:224,2,140,0|2|0
256,144,40742,1,0
208,96,40930,1,2
256,48,41117,2,0,B|208:16|144:32|144:112,1,140
146,156,41680,1,2
192,208,41867,1,0
256,208,42055,5,4
400,272,42242,1,0
256,352,42430,1,2
256,208,42617,1,4
256,32,42992,5,0
112,96,43180,1,2
256,160,43367,1,0
112,224,43555,1,4
112,96,43742,1,0
256,160,43930,1,2
256,32,44117,1,4
256,32,44680,5,2
256,32,44867,1,4
384,96,45242,5,0
320,128,45430,1,2
384,160,45617,1,0
320,192,45805,2,0,B|384:256|320:336,2,140,0|2|0
256,176,46742,1,0
272,240,46930,1,2
208,224,47117,2,0,B|144:240|144:304|208:336,1,140
256,336,47680,1,2
256,336,47867,1,0
320,336,48055,5,2
320,304,48148,1,0
320,272,48242,1,0
384,288,48430,1,2
384,256,48523,1,0
384,224,48617,1,0
448,240,48805,1,2
448,208,48898,1,0
448,176,48992,1,0
448,64,49180,1,6
352,128,49367,1,4
192,48,49555,5,2
192,80,49648,1,0
192,112,49742,1,0
128,96,49930,1,2
128,128,50023,1,0
128,160,50117,1,0
64,144,50305,1,2
64,176,50398,1,0
64,208,50492,1,0
64,320,50680,1,6
160,256,50867,1,4
256,320,51055,5,2
288,304,51148,1,0
320,288,51242,1,0
256,256,51430,1,2
224,240,51523,1,0
192,224,51617,1,0
256,192,51805,1,2
288,176,51898,1,0
320,160,51992,1,0
256,48,52180,1,6
256,192,52367,1,4
288,112,52555,5,2
256,112,52648,1,0
224,112,52742,1,0
288,176,52930,1,2
256,176,53023,1,0
224,176,53117,1,0
288,240,53305,1,2
256,240,53398,1,0
224,240,53492,1,0
256,352,53680,1,6
256,240,53867,1,4
256,304,54055,5,4
352,208,54430,1,8
256,96,54805,1,0
160,208,55180,1,8
192,144,55367,1,2
256,176,55555,5,4
384,112,55930,1,8
256,64,56305,1,0
128,112,56680,1,8
192,144,56867,1,2
128,192,57055,5,4
256,240,57430,1,8
384,192,57805,1,0
256,144,58180,1,8
304,192,58367,1,2
320,256,58555,5,0
272,304,58742,1,2
256,336,58836,1,0
240,304,58930,1,8
256,240,59117,1,0
192,240,59305,5,0
192,208,59398,1,0
208,176,59492,1,0
240,160,59586,1,0
272,160,59680,1,8
304,176,59773,1,0
320,208,59867,1,0
320,240,59961,1,0
320,272,60055,5,12
320,336,60242,1,0
352,336,60336,1,0
384,320,60430,1,8
400,256,60617,1,0
400,224,60711,1,0
400,192,60805,1,8
368,128,60992,1,0
304,96,61180,1,8
256,48,61367,1,12
208,96,61555,5,12
144,128,61742,1,0
128,160,61836,1,0
128,192,61930,1,8
128,256,62117,1,0
128,288,62211,1,0
144,320,62305,1,8
208,336,62492,1,0
256,288,62680,1,8
256,224,62867,1,12
256,160,63055,5,12
224,96,63242,1,0
256,96,63336,1,0
288,96,63430,1,8
288,32,63617,1,0
256,32,63711,1,0
224,32,63805,1,8
160,64,63992,1,0
160,128,64180,1,8
208,176,64367,1,12
256,224,64555,5,12
304,176,64742,1,0
320,208,64836,1,0
320,240,64930,1,8
272,288,65117,1,0
240,288,65211,1,0
208,272,65305,1,8
192,208,65492,1,0
256,224,65680,1,12
240,160,65867,1,12
176,144,66055,5,8
176,144,66148,1,0
112,144,66336,1,0
112,144,66430,1,8
48,112,66617,1,0
48,144,66711,1,0
48,176,66805,1,8
112,208,66992,2,8,C|112:304,1,70,8|12
336,144,67555,5,8
336,144,67648,1,0
400,144,67836,1,0
400,144,67930,1,8
464,112,68117,1,0
464,144,68211,1,0
464,176,68305,1,8
400,208,68492,2,8,C|400:304,1,70,8|12
288,352,69055,6,0,C|288:304,1,35,8|0
224,352,69336,2,0,C|224:304,1,35,0|8
224,240,69617,1,0
256,256,69711,1,0
288,240,69805,1,8
256,176,69992,2,8,B|256:96,1,70,8|12
384,192,70555,6,4,B|384:32|256:16|128:32|128:208,2,420,4|4|4
256,288,72055,5,0
256,224,72242,1,0
256,160,72430,1,8
256,160,72523,1,0
256,160,72617,1,0
320,192,72805,1,0
320,160,72898,1,0
320,128,72992,1,0
352,144,73086,1,0
352,176,73180,1,8
352,240,73367,6,0,B|320:320,1,70
272,352,73742,1,0
208,352,73930,6,0,B|112:352,1,70,8|0
304,288,74305,2,0,B|384:288,1,70
208,224,74680,2,0,B|112:224,1,70,8|0
304,160,75055,2,0,B|400:160,1,70
208,96,75430,2,8,B|112:96,2,70
352,32,76180,5,8
160,32,76367,1,8
256,32,76555,5,4
256,352,77117,1,4
256,208,77211,12,12,78055
256,32,89305,6,0,B|256:192,1,140,0|4
192,128,90242,6,0,B|112:128,1,70,0|8
48,128,90617,1,0
32,192,90805,6,0,B|192:192,1,140,0|8
256,192,91367,1,0
480,192,91555,2,0,B|320:192,1,140,0|8
256,128,92117,1,0
256,256,92305,1,4
368,336,92680,5,8
368,192,92867,1,0
368,336,93055,1,4
144,48,93430,5,8
144,192,93617,1,0
144,48,93805,1,4
256,208,94180,5,8
256,144,94367,1,0
320,176,94555,2,0,B|336:288|240:272,1,140,4|8
192,240,95117,1,0
192,176,95305,2,8,B|176:128|224:64|288:80,2,140,8|8|4
192,240,96242,5,0
224,304,96430,1,8
256,240,96617,1,4
384,304,96992,5,0
464,192,97180,1,8
304,192,97367,1,0
384,304,97555,1,0
464,192,97742,1,4
304,192,97930,1,8
384,80,98117,1,4
256,320,98680,5,8
256,256,98867,1,4
224,48,99430,5,8
288,48,99617,1,0
256,112,99805,2,8,B|176:144|352:160|256:208,2,140,8|8|0
320,112,100742,1,0
288,48,100930,1,8
224,48,101117,1,0
256,192,101492,5,0
192,192,101680,1,8
144,144,101867,1,0
144,80,102055,2,0,B|64:80,1,70
32,144,102430,2,0,B|32:224,1,70,8|8
144,304,102992,5,4
144,304,103180,1,8
256,224,103555,6,0,B|352:224,1,70
256,160,103930,2,8,B|160:160,1,70
256,288,104492,1,8
256,288,104680,1,4
256,160,105055,6,0,B|256:80,3,70,0|0|8|0
192,208,105992,1,0
160,272,106180,2,0,B|224:336,1,70,8|4
256,368,106555,1,0
304,320,106742,2,0,B|353:270,1,70,0|8
320,208,107117,1,4
256,256,107305,6,0,B|256:96,1,140,0|4
255,116,108617,1,6
256,256,108992,5,0
256,320,109180,1,2
256,256,109367,1,0
320,288,109555,2,2,B|400:288|400:208,1,105,4|6
256,128,110492,5,0
256,64,110680,1,2
256,128,110867,1,0
192,96,111055,2,2,B|112:96|112:176,1,105,4|6
32,336,111992,5,0
96,336,112180,1,2
64,272,112367,1,0
64,272,112555,2,2,B|192:272,1,105,4|6
480,48,113492,5,0
416,48,113680,1,2
448,112,113867,1,0
448,112,114055,2,2,B|320:112,1,105,4|6
304,240,114992,5,0
256,192,115180,1,2
304,144,115367,1,0
352,192,115555,2,2,B|480:192,1,105,4|6
208,144,116492,5,0
256,192,116680,1,2
208,240,116867,1,0
160,192,117055,2,2,B|32:192,1,105,4|6
208,192,117992,5,0
256,240,118180,1,2
304,192,118367,1,0
256,240,118555,2,2,B|256:352,1,105,4|6
320,336,119305,6,0,C|336:336|320:320|336:320|320:304|336:304|320:288|336:288|320:272|336:272|320:256|336:256|320:240|336:240|320:224|336:224|320:208|336:208|320:192|336:192|320:176|336:176|320:160|336:160|320:144|336:144|320:128|336:128|320:112|336:112,1,560,2|4
160,176,120430,5,8
256,288,120805,1,0
352,176,121180,1,8
288,240,121430,1,2
256,208,121555,5,4
128,272,121930,1,8
256,320,122305,1,0
384,272,122680,1,8
336,192,122930,1,2
384,192,123055,5,4
256,144,123430,1,8
128,192,123805,1,0
256,240,124180,1,8
208,160,124430,1,2
256,144,124555,5,4
368,48,124930,1,8
256,144,125305,1,0
208,272,125680,1,8
112,272,125930,1,2
112,272,126055,6,0,B|64:320|176:352|224:320,2,140,4|8|0
208,160,127180,1,8
304,176,127430,1,2
304,176,127555,6,0,B|368:112|432:192,2,140,4|8|0
288,320,128680,1,8
192,288,128930,1,2
192,288,129055,6,0,B|128:240|144:144,2,140,4|8|0
304,208,130180,1,8
336,288,130430,1,2
336,288,130555,6,0,B|384:272|432:224|400:160,2,140,4|8|0
256,192,131680,1,8
256,192,131930,1,2
256,192,132055,1,4
256,32,144055,5,4
272,128,144305,2,0,B|336:128,1,46.6666666666667,0|8
240,176,144680,2,0,B|176:176,1,46.6666666666667,0|8
272,224,145055,2,0,B|336:224,1,46.6666666666667,0|8
256,352,145555,5,4
240,256,145805,2,0,B|176:256,1,46.6666666666667,0|8
272,208,146180,2,0,B|336:208,1,46.6666666666667,0|8
240,160,146555,2,0,B|176:160,1,46.6666666666667,0|8
256,64,147055,5,4
336,112,147305,2,0,B|336:160,1,46.6666666666667,0|8
256,112,147680,2,0,B|256:160,1,46.6666666666667,0|8
176,112,148055,2,0,B|176:176,1,46.6666666666667,0|8
256,240,148555,5,4
368,320,148930,1,8
256,240,149305,1,8
176,304,149555,1,8
256,352,149805,1,8
256,352,150055,6,4,B|256:48,1,280,0|4
336,80,151742,6,0,B|432:112,1,70,0|8
464,128,152117,1,0
480,192,152305,6,0,B|304:192,1,140,0|8
256,192,152867,1,0
32,192,153055,2,0,B|192:192,1,140,0|8
256,256,153617,1,0
256,128,153805,1,4
112,80,154180,5,8
256,32,154367,1,8
400,80,154555,1,4
400,304,154930,5,8
256,352,155117,1,8
112,304,155305,1,4
304,208,155680,5,8
256,160,155867,1,8
208,208,156055,2,0,B|112:208|112:112,2,140,8|8|0
256,336,157180,1,12
256,192,157555,6,0,B|256:96|160:96,1,140,4|8
96,128,158117,1,0
32,192,158305,2,0,B|208:192,1,140,0|8
256,192,158867,1,0
480,192,159055,2,0,B|320:192,1,140,0|8
256,128,159617,1,0
256,256,159805,1,4
400,304,160180,5,8
256,352,160367,1,8
112,304,160555,1,4
112,80,160930,5,8
256,32,161117,1,8
400,80,161305,1,4
208,176,161680,5,8
256,224,161867,1,8
304,176,162055,2,0,B|400:176|400:272,2,140,8|8|0
256,48,163180,1,12
256,192,163555,5,0
176,272,163742,1,0
336,272,163930,1,8
256,352,164117,1,0
320,192,164492,5,4
480,192,164680,1,8
256,192,165055,5,0
336,112,165242,1,0
176,112,165430,1,8
256,32,165617,1,0
192,192,165992,5,4
32,192,166180,1,8
256,192,166555,5,0
288,256,166742,1,0
256,320,166930,1,8
224,256,167117,1,0
256,128,167492,5,0
256,160,167586,1,0
256,192,167680,1,8
112,192,167867,1,0
112,160,167961,1,0
112,128,168055,1,0
256,128,168242,1,0
400,128,168430,1,8
400,160,168523,1,0
400,192,168617,1,0
256,208,168711,12,4,169555
