osu file format v6

[General]
AudioFilename: Wing Beats - 01 - Joy Of Living.mp3
AudioLeadIn: 0
PreviewTime: 61308
Countdown: 3
SampleSet: Normal
StackLeniency: 0.7
Mode: 0
LetterboxInBreaks: 1

[Editor]
DistanceSpacing: 1
BeatDivisor: 4
GridSize: 8

[Metadata]
Title:Joy of Living
Artist:Wiklund
Creator:0_o
Version:Insane
Source:
Tags:Chiptune

[Difficulty]
HPDrainRate:7
CircleSize:4
OverallDifficulty:7
SliderMultiplier:1.8
SliderTickRate:2

[Events]
//Background and Video events
0,0,"Rainbow_Overdose_Wallpaper_by_pronouncedyou.jpg"
//Break Periods
2,87040,96153
2,127891,137004
//Storyboard Layer 0 (Background)
//Storyboard Layer 1 (Fail)
//Storyboard Layer 2 (Pass)
//Storyboard Layer 3 (Foreground)
//Storyboard Sound Samples
//Background Colour Transformations
3,100,163,162,255

[TimingPoints]
32.304149914474,319.148936170213,4,1,0,80,1,0
40723,-100,4,2,0,100,0,0
50936,-200,4,2,0,100,0,0
58675,-200,4,1,0,80,0,0
58835,-200,4,2,0,100,0,0
59314,-200,4,1,0,80,0,0
59473,-200,4,2,0,100,0,0
59872,-100,4,1,0,80,0,0
102120,-100,4,2,0,100,0,0
106947,-100,4,1,0,80,0,0
127691,-100,4,2,0,100,0,0
137106,-200,4,2,0,100,0,0
156894,-100,4,1,0,61,0,0
157213,-100,4,1,0,70,0,0
157532,-100,4,1,0,80,0,0
158330,-100,4,1,0,80,0,1
188968,-100,4,1,0,80,0,0

[Colours]
Combo1 : 252,239,3
Combo2 : 234,11,134
Combo3 : 234,105,11
Combo4 : 86,225,19
Combo5 : 11,157,244

[HitObjects]
77,68,15351,1,4
156,120,15511,1,0
251,131,15670,1,8
342,107,15830,1,0
428,70,15989,2,0,B|482:148|437:188|437:188|435:189,1,90,0|0
397,229,16308,1,8
309,193,16468,2,2,B|230:131|137:156,1,180
60,207,16947,1,8
66,300,17106,1,0
156,270,17266,2,0,B|275:250|359:316|359:316,1,180,4|8
416,344,17745,5,0
476,270,17904,1,0
490,174,18064,1,0
461,82,18223,2,2,B|378:21|272:90,1,180
360,160,18702,1,0
360,256,18862,1,8
303,333,19021,2,2,B|119:333,1,180,2|2
43,277,19500,1,8
27,182,19659,1,8
44,87,19819,2,4,B|116:3|228:15,2,180
24,224,20617,5,0
56,320,20776,1,8
135,265,20936,1,0
231,265,21096,1,2
318,303,21255,1,2
400,352,21415,1,2
473,290,21574,2,2,B|521:215|484:114,1,180,2|2
419,49,22053,1,8
326,29,22213,1,8
256,88,22372,2,4,B|255:271,2,180
184,29,23170,5,0
90,54,23330,2,0,B|50:142|82:190|178:214|178:214|170:206,1,180,4|0
205,128,23808,2,2,B|301:80|373:200,1,180
408,259,24287,1,0
348,333,24447,2,0,B|260:285|124:357,1,180,4|0
82,357,24925,2,4,B|1:297|13:153,1,180
7,103,25404,1,0
63,26,25564,1,0
136,88,25723,5,0
190,165,25883,1,8
280,191,26042,1,0
355,134,26202,2,2,B|396:47,1,90
480,51,26521,1,2
506,142,26681,2,2,B|530:222|501:338,1,180,2|2
411,328,27159,1,8
316,330,27319,1,8
224,320,27479,2,4,B|195:235|233:130,2,180
326,234,28276,5,0
416,150,28436,2,0,B|360:70|208:86,1,180,4|0
165,109,28915,2,2,B|61:162|93:309,1,180
179,271,29394,2,4,B|259:199|360:277,2,180,4|4|4
241,341,30191,1,0
335,345,30351,1,0
363,346,30431,1,0
390,340,30511,1,0
415,326,30590,1,0
435,307,30670,5,4
416,120,30989,1,8
352,64,31149,2,0,B|166:64,1,180,4|0
112,120,31628,1,8
56,328,31947,5,0
56,168,32266,1,2
184,256,32585,1,2
256,296,32745,1,0
328,256,32904,1,8
344,168,33064,6,0,B|160:168,1,180
112,96,33542,1,8
400,96,33862,1,0
448,168,34021,1,0
440,256,34181,1,8
376,312,34340,2,0,B|324:249|343:139,2,180,0|2|2
448,264,35138,2,0,B|360:200|256:256,1,180,4|8
206,292,35617,1,0
112,321,35776,5,0
40,160,36096,1,8
92,93,36255,2,0,B|280:93,1,180,0|0
357,97,36734,1,8
176,160,37053,5,2
368,248,37372,1,10
176,328,37691,1,2
256,344,37851,1,0
336,328,38011,1,8
445,296,38170,6,0,B|477:208|457:116,1,180,0|0
408,48,38649,1,8
256,192,38968,1,0
256,104,39128,1,0
256,16,39287,1,8
256,16,39447,1,0
256,192,39606,12,0,40564
449,63,40883,5,2
367,86,41042,1,0
308,148,41202,1,8
271,236,41362,2,0,B|384:237,1,90,0|2
319,311,41681,2,0,B|230:311,1,90,0|8
141,301,42000,1,0
176,224,42159,5,4
117,161,42319,1,0
31,154,42479,1,0
0,73,42638,2,2,B|75:31|178:58,1,180,4|2
239,112,43117,1,8
317,78,43276,1,2
428,73,43436,6,0,B|418:187|307:201,1,180,2|8
240,148,43915,1,2
151,116,44074,2,2,B|34:147|37:276,1,180,2|10
76,317,44553,1,0
144,265,44713,1,8
207,321,44872,2,0,B|284:258,1,90,0|8
344,316,45191,1,0
412,264,45351,1,4
337,60,45670,1,4
114,119,45989,5,2
73,194,46149,1,0
87,277,46308,1,8
163,316,46468,2,0,B|263:315,1,90,0|2
295,240,46787,2,0,B|175:241,1,90,0|8
147,177,47106,1,0
202,65,47266,5,4
282,37,47425,1,0
366,52,47585,1,0
425,117,47745,2,2,B|414:220|296:275,1,180,4|2
269,195,48223,1,8
184,182,48383,1,2
56,225,48542,6,0,B|46:338|183:346,1,180,0|8
209,212,49021,1,2
248,83,49181,2,0,B|359:95|356:237,1,180,0|8
334,288,49659,1,2
256,324,49819,2,0,B|223:239,1,90,8|0
140,261,50138,1,8
79,200,50298,1,0
90,115,50457,1,4
264,194,50776,1,4
432,56,51096,5,2
386,71,51255,1,0
344,46,51415,1,0
299,62,51574,1,0
250,41,51734,1,0
206,62,51894,1,0
161,44,52053,1,0
117,64,52213,1,0
40,156,52372,5,2
83,176,52532,1,0
109,215,52691,1,0
127,259,52851,1,0
155,297,53011,1,0
197,318,53170,1,0
244,314,53330,1,0
286,292,53489,1,0
372,190,53649,5,2
329,167,53808,1,0
284,184,53968,1,0
237,170,54128,1,0
216,126,54287,1,0
216,77,54447,1,0
249,43,54606,1,2
296,33,54766,1,0
421,26,54925,5,2
452,62,55085,1,0
471,105,55245,1,0
479,152,55404,1,0
479,200,55564,1,8
470,247,55723,1,0
451,291,55883,1,8
423,330,56042,1,0
304,344,56202,6,0,B|184:344,1,90,8|0
100,341,56840,1,0
66,306,57000,1,0
51,260,57159,1,2
61,213,57319,1,0
86,172,57479,6,0,B|191:172,1,90,2|0
275,220,58117,1,0
318,240,58276,1,0
366,237,58436,1,2
408,214,58596,1,0
422,168,58755,6,0,B|328:168,1,90,4|2
291,85,59394,6,0,B|177:85,1,90,4|2
112,168,60032,5,4
256,312,60351,1,4
400,168,60670,1,4
256,136,60830,1,0
256,128,60909,1,0
256,120,60989,1,0
256,112,61069,1,0
256,104,61149,1,0
256,96,61229,1,0
256,88,61308,5,0
167,53,61468,1,0
75,72,61628,1,8
27,153,61787,1,0
32,256,61947,2,2,B|48:344|112:352,1,90,2|2
165,342,62266,1,2
205,257,62425,2,2,B|271:183|377:266,1,180
439,318,62904,1,8
486,235,63064,1,0
475,141,63223,2,4,B|456:59|380:32|301:72,1,180,4|8
305,146,63702,5,0
267,232,63862,1,0
191,288,64021,1,0
97,272,64181,2,0,B|33:254|25:192,1,90,2|2
30,121,64500,2,2,B|27:64|86:37,1,90,0|2
162,66,64819,1,8
221,139,64979,2,2,B|264:222|331:236|382:223,1,180,2|2
448,182,65457,1,8
485,269,65617,1,8
417,334,65776,5,4
117,230,66096,1,4
321,85,66415,1,4
230,53,66574,5,0
133,54,66734,1,8
54,109,66894,1,0
23,199,67053,2,2,B|7:266|37:306,2,90
107,153,67532,2,2,B|183:97|292:137,1,180
367,164,68011,1,8
427,236,68170,1,8
400,327,68330,1,4
139,350,68649,2,0,B|31:320|18:211,1,180,4|4
24,129,69128,5,0
66,43,69287,2,0,B|146:5|244:57,1,180,4|0
269,143,69766,2,2,B|362:94|442:132,1,180,2|2
466,223,70245,1,8
421,305,70404,1,0
332,336,70564,1,8
236,331,70723,1,0
163,267,70883,2,2,B|139:173|200:121|140:74,2,180,10|10|14
85,324,71681,5,0
40,239,71840,1,0
74,149,72000,1,0
35,61,72159,1,2
127,35,72319,2,2,B|208:96,1,90
288,64,72638,2,2,B|268:155|329:187|395:213,1,180
465,210,73117,1,8
485,302,73276,1,0
395,334,73436,2,0,B|327:370|308:284|178:367,1,180,4|8
126,355,73915,5,0
51,296,74074,1,0
27,204,74234,1,0
66,117,74394,2,2,B|137:54,1,90
217,100,74713,1,8
290,40,74872,1,2
364,98,75032,1,2
443,47,75191,1,0
256,192,75351,12,0,76308
32,120,76628,6,0,B|128:64,1,90,4|0
160,152,76947,2,0,B|256:96,1,90,8|0
296,184,77266,2,0,B|392:128,1,90
424,216,77585,2,0,B|520:160,1,90,8|0
488,264,77904,6,0,B|400:360,1,90
344,288,78223,2,0,B|264:232,1,90,8|0
176,248,78542,2,0,B|112:328,1,90
40,264,78862,2,8,B|8:160,1,90,8|8
104,144,79181,6,0,B|32:80,1,90,4|0
176,104,79500,2,0,B|144:16,1,90,8|0
264,96,79819,2,0,B|272:0,1,90,4|0
344,128,80138,2,0,B|400:56,1,90,8|0
456,176,80457,6,0,B|456:280|456:280|448:288,1,90
376,320,80776,2,0,B|376:230,1,90,8|0
296,176,81096,2,0,B|296:280|296:280|288:288,1,90,0|8
216,320,81415,2,8,B|216:230,1,90
128,200,81734,6,0,B|160:104,1,90,4|0
240,72,82053,2,0,B|360:104,1,90,8|0
384,168,82372,2,0,B|328:272,1,90
264,304,82691,2,0,B|160:272,1,90,8|0
56,200,83011,6,0,B|88:104,1,90,0|0
136,40,83330,2,0,B|256:8,1,90,8|0
320,24,83649,2,0,B|408:72,1,90
472,128,83968,2,8,B|456:224,1,90
400,320,84287,6,0,B|296:320,1,90,4|0
216,320,84606,2,0,B|120:320,1,90,8|0
64,248,84925,2,0,B|152:184,1,90,4|0
216,248,85245,2,8,B|304:184,1,90,8|8
368,152,85564,6,0,B|272:80,1,90,4|0
200,104,85883,2,0,B|104:160,1,90,4|0
256,192,86202,12,0,86840
400,72,97053,5,4
440,256,97372,1,8
352,296,97532,2,0,B|256:344|256:256|112:320,1,180
80,320,98011,1,8
200,176,98330,5,2
49,61,98649,1,2
232,32,98968,1,2
320,56,99128,1,0
384,120,99287,1,8
376,216,99447,6,0,B|176:216,1,180,4|0
104,232,99925,1,8
256,344,100245,1,0
432,288,100564,1,8
480,208,100723,2,2,B|496:104|408:32,1,180,2|2
329,31,101202,1,8
240,72,101362,1,0
296,152,101521,1,8
240,224,101681,1,0
224,224,101761,1,0
208,224,101840,1,0
192,224,101920,1,0
176,224,102000,1,0
160,224,102080,1,0
144,224,102159,6,0,B|96:120,1,90,2|0
200,128,102479,2,0,B|200:32,1,90,8|0
280,88,102798,2,0,B|336:16,1,90,2|0
392,88,103117,2,0,B|496:88,1,90,8|0
480,184,103436,5,4
448,272,103596,1,0
368,328,103755,1,0
288,280,103915,2,0,B|248:192|120:168,1,180,4|2
56,184,104394,1,8
48,280,104553,5,2
128,328,104713,2,0,B|232:280|232:168,1,180,2|8
192,104,105191,1,0
272,56,105351,1,2
360,80,105511,1,0
393,163,105670,1,0
256,192,105830,12,0,106947
448,278,107266,5,4
359,248,107425,1,0
264,243,107585,1,8
174,274,107745,1,0
91,319,107904,2,2,B|37:345|4:338,2,90
134,234,108383,2,2,B|204:145|165:62,1,180,2|2
73,52,108862,1,8
5,117,109021,1,0
15,211,109181,2,4,B|221:210,1,180,4|8
289,209,109659,1,0
352,279,109819,6,2,B|428:214,1,90
368,144,110138,2,2,B|328:56,1,90,2|2
238,40,110457,1,2
143,46,110617,1,0
57,85,110776,1,8
51,179,110936,2,2,B|164:145|248:307,1,180
163,325,111415,1,8
253,349,111574,1,8
339,309,111734,1,4
169,70,112053,2,4,B|364:69,1,180
429,119,112532,5,0
456,209,112691,1,8
419,296,112851,1,0
324,293,113011,2,2,B|220:293,2,90
375,214,113489,2,2,B|340:116|224:104,1,180
150,76,113968,1,8
79,139,114128,1,8
134,215,114287,2,4,B|101:323|-51:345,2,180
189,138,115085,5,0
281,119,115245,2,0,B|399:135|494:199,1,180,4|0
381,236,115723,2,2,B|273:246|191:307,1,180
120,321,116202,1,8
59,247,116362,1,0
40,154,116521,1,8
77,66,116681,1,0
162,106,116840,2,2,B|262:156|398:90,1,180,6|2
361,107,117239,1,0
384,114,117319,1,0
408,108,117399,1,0
432,113,117479,5,4
368,288,117798,1,8
184,312,118117,1,0
256,136,118436,1,8
80,72,118755,5,4
24,248,119074,1,2
184,152,119394,1,2
304,296,119713,1,2
432,64,120032,6,0,B|248:64,1,180,4|8
306,162,120511,1,0
357,262,120670,2,0,B|173:262,1,180,0|8
117,335,121149,1,0
74,255,121308,5,0
76,160,121467,1,0
123,76,121627,1,10
208,35,121787,1,2
304,35,121947,5,2
389,76,122107,1,0
436,160,122267,1,10
438,255,122426,1,0
372,329,122585,6,0,B|182:329,1,180,4|8
121,241,123064,1,0
54,150,123223,2,0,B|261:150,1,180,0|8
329,90,123702,1,0
426,33,123862,6,0,B|493:140|418:235,1,180,0|10
86,351,124500,2,0,B|19:244|94:149,1,180,0|10
116,91,124979,1,10
218,56,125138,6,0,B|333:87,1,90
229,137,125457,2,0,B|143:181,1,90,10|0
234,218,125776,2,0,B|349:249,1,90
245,299,126095,2,0,B|159:343,1,90,10|2
256,192,126415,12,4,127691
191,118,137904,5,2
352,60,138542,1,8
458,193,139181,1,2
237,344,139819,5,2
194,339,139979,1,0
153,324,140138,1,0
115,303,140298,1,0
87,270,140457,6,0,B|40:187,1,90,2|0
123,163,141096,2,0,B|112:69,1,90,2|0
194,98,141734,2,0,B|248:16,2,90,2|0|8
222,178,142691,1,0
324,128,143011,5,2
362,146,143170,1,0
389,178,143330,1,2
408,280,143649,6,0,L|400:272|400:280|392:272|392:280|384:272|384:280|376:272|376:280|368:272|368:280|360:272|360:280|352:272|352:280|344:272,1,90,4|0
288,128,144287,6,2,L|280:136|280:128|272:136|272:128|264:136|264:128|256:136|256:128|248:136|248:128|240:136|240:128|232:136|232:128|224:136,1,90,2|0
160,272,144925,6,2,L|152:264|152:272|144:264|144:272|136:264|136:272|128:264|128:272|120:264|120:272|112:264|112:272|104:264|104:272|96:264,1,90,2|2
64,176,145404,1,0
104,96,145564,2,2,B|208:96,1,90,2|0
280,96,146042,1,0
368,112,146202,2,2,B|424:112,1,45
488,96,146521,1,2
480,248,146840,6,0,B|424:280,1,45,2|0
360,328,147159,2,0,B|312:304,1,45
248,240,147479,1,2
312,104,147798,1,8
160,56,148117,6,0,B|80:88|72:144,1,90,4|0
32,192,148596,2,2,B|128:192,1,90
216,192,149074,1,8
304,288,149394,5,8
416,208,149713,1,2
368,80,150032,1,2
368,80,150191,1,0
368,80,150351,1,0
367,80,150511,6,2,B|303:72|255:112,1,90
208,136,150989,1,0
272,256,151308,1,8
235,278,151468,1,0
192,274,151628,1,0
153,256,151787,5,0
58,150,152106,1,2
177,61,152425,1,2
184,111,152585,2,0,B|237:147|301:153,1,90,2|0
311,148,153064,1,0
374,90,153223,5,10
443,118,153383,1,0
426,192,153542,1,2
463,303,153862,2,0,B|394:335|352:330,1,90,4|0
317,183,154500,6,2,B|265:149|204:144,1,90,2|0
126,309,155138,6,0,B|73:280|65:231|65:231|67:227,1,90,2|0
69,155,155617,1,2
117,77,155776,2,0,B|215:76,1,90,2|0
273,69,156255,5,0
320,102,156415,1,2
362,61,156574,1,0
414,88,156734,1,2
472,208,157053,5,0
256,208,157372,1,0
40,208,157691,1,0
128,304,157851,1,0
168,304,157931,1,0
208,304,158011,1,0
248,304,158090,1,0
288,304,158170,1,0
328,304,158250,1,0
368,304,158330,6,0,B|440:232,1,90,4|0
462,150,158649,2,0,B|422:54,1,90,8|0
333,78,158968,1,2
247,118,159128,1,2
154,101,159287,1,2
68,60,159447,2,2,B|-8:116|16:202|65:230,1,180
107,288,159925,1,8
194,323,160085,1,8
287,306,160245,2,4,B|319:193|463:167,2,180
372,345,161042,5,0
443,282,161202,2,4,B|480:194|412:103,1,180
329,145,161681,2,2,B|248:229|128:162,1,180
82,131,162159,1,8
139,56,162319,1,0
232,40,162479,1,8
325,52,162638,1,0
411,89,162798,5,4
140,205,163117,1,4
366,320,163436,1,4
436,256,163596,5,0
451,163,163755,1,8
388,92,163915,1,0
297,65,164074,2,2,B|209:90|221:156,1,90
190,203,164394,1,2
272,248,164553,2,2,B|241:350|108:338,1,180
55,280,165032,1,8
51,185,165191,1,8
81,95,165351,2,4,B|144:28|259:41,2,180
106,186,166149,5,0
169,255,166308,2,0,B|260:292|312:227|336:164,1,180
245,137,166787,2,2,B|260:32|392:52,1,180
438,127,167266,1,8
392,209,167425,1,0
430,295,167585,1,8
341,329,167745,1,0
327,235,167904,2,4,B|241:194|143:241,2,180
400,296,168702,5,0
472,232,168862,1,8
400,168,169021,1,0
472,104,169181,1,0
400,40,169340,1,0
328,104,169500,1,8
256,40,169659,1,0
160,64,169819,6,0,B|72:24,1,90,4|0
96,120,170138,2,0,B|-8:112,1,90,8|0
56,192,170457,2,0,B|0:264,1,90
96,264,170776,2,0,B|88:360,1,90,8|8
232,336,171096,5,4
320,304,171255,1,0
408,272,171415,2,0,B|352:184,1,90,8|0
264,176,171734,1,0
176,208,171894,1,0
88,248,172053,2,0,B|32:160,1,90,8|0
64,80,172372,5,4
160,80,172532,1,0
256,80,172691,1,10
352,80,172851,1,0
432,136,173011,2,0,B|480:232,1,90,2|2
448,304,173330,2,10,B|336:256,1,90
272,240,173649,5,4
200,304,173808,1,0
128,240,173968,1,10
56,304,174128,1,0
16,216,174287,1,0
24,120,174447,1,0
80,48,174606,1,10
168,24,174766,1,2
216,104,174925,6,0,B|328:104,1,90,4|0
393,65,175245,1,10
456,134,175404,1,0
466,228,175564,1,0
436,317,175723,1,0
348,353,175883,1,10
253,348,176042,1,8
175,292,176202,6,2,B|106:190,1,90,6|2
219,222,176521,2,0,B|193:127,1,90,8|0
293,222,176840,2,2,B|319:127,1,90
337,292,177159,2,0,B|406:190,1,90,8|0
256,320,177479,5,4
256,224,177638,1,0
256,128,177798,1,4
256,32,177957,1,0
256,192,178117,12,4,178755
