osu file format v13

[General]
AudioFilename: Fighting is Magic - Pinkie Pie.mp3
AudioLeadIn: 2000
PreviewTime: 31479
Countdown: 1
SampleSet: None
StackLeniency: 0.7
Mode: 0
LetterboxInBreaks: 1
WidescreenStoryboard: 0

[Editor]
DistanceSpacing: 1
BeatDivisor: 4
GridSize: 4
TimelineZoom: 1

[Metadata]
Title:Pinkie Pie Theme
TitleUnicode:Pinkie Pie Theme
Artist:Whitetail
ArtistUnicode:Whitetail
Creator:Itachi_Uchiha
Version:Fluttershy
Source:Fighting is Magic
Tags:My Little Pony MLP Fighting is Magic Inori KazukiSinx CLSW
BeatmapID:596043
BeatmapSetID:260985

[Difficulty]
HPDrainRate:3
CircleSize:3
OverallDifficulty:3
ApproachRate:4
SliderMultiplier:0.8
SliderTickRate:1

[Events]
//Background and Video events
0,0,"502215-20121206011247.jpg",0,0
//Break Periods
2,50881,58961
2,130081,138161
2,182881,184961
//Storyboard Layer 0 (Background)
Sprite,Background,Centre,"SB\ponies\ponyville.jpg",320,240 F,0,91177,91477,0,1 F,0,91477,129577,1 F,0,129577,129877,1,0
//Storyboard Layer 1 (Fail)
//Storyboard Layer 2 (Pass)
//Storyboard Layer 3 (Foreground)
Sprite,Foreground,Centre,"SB\pulsation_f.jpg",320,240 L,31481,33 F,1,0,600,0.5,0 S,1,0,600,1,1.1 L,149079,53 F,1,0,600,0.5,0 S,1,0,600,1,1.1
Sprite,Foreground,Centre,"SB\Ponies\Rarity.png",320,240 F,0,91477,96277,0 M,0,91478,,450,360 F,0,96277,96877,0,1 F,0,96877,129577,1 P,0,125077,129877,H MX,0,126577,129877,450,700 F,0,129577,129877,1,0
Sprite,Foreground,Centre,"SB\Ponies\Rainbow_Dash.png",320,240 F,0,91477,115477,0 M,0,91479,,400,385 F,0,115477,116077,0,1 F,0,116077,129577,1 P,0,125077,129877,H MX,0,126577,129877,400,650 F,0,129577,129877,1,0
Sprite,Foreground,Centre,"SB\Ponies\Twilight_Sparkle.png",320,240 M,0,91475,,535,395 F,0,91477,92077,0,1 F,0,92077,129577,1 P,0,125077,129877,H MX,0,126577,129877,535,785 F,0,129577,129877,1,0
Sprite,Foreground,Centre,"SB\Ponies\Applejack.png",320,240 M,0,91474,,185,375 F,0,91477,105877,0 F,0,105877,106477,0,1 F,0,106477,129577,1 MX,0,125077,129877,185,785 F,0,129577,129877,1,0
Sprite,Foreground,Centre,"SB\Ponies\Fluttershy.png",320,240 M,0,91473,,215,400 F,0,91477,110677,0 F,0,110677,111277,0,1 F,0,111277,129577,1 MX,0,125077,129877,215,815 F,0,129577,129877,1,0
Sprite,Foreground,Centre,"SB\Ponies\Pinkie_Pie.png",320,240 M,0,101072,,100,400 F,0,101077,101677,0,1 F,0,101677,129577,1 MX,0,125077,129877,100,700 F,0,129577,129877,1,0
//Storyboard Sound Samples

[TimingPoints]
281.190856944947,300,4,1,1,60,1,0
9881,-100,4,1,1,40,0,0
31481,-100,4,1,1,75,0,1
50681,-100,4,1,1,75,0,0
91481,-133.333333333333,4,2,1,40,0,0
139481,-100,4,1,1,75,0,0
149081,-100,4,1,1,75,0,1
168206,-100,4,1,1,75,0,0
168281,-100,4,1,1,75,0,1
180281,-100,4,1,1,75,0,0
182606,-100,4,2,1,75,0,0
182681,600,4,2,1,40,1,0
185756,-100,4,2,1,40,0,0
186281,300,4,1,1,75,1,0
186281,-100,4,1,1,75,0,0

[Colours]
Combo1 : 255,255,4
Combo2 : 233,46,254
Combo3 : 255,17,17

[HitObjects]
120,104,9881,6,0,P|256:32|396:112,1,320,4|8,0:0|0:0,0:0:0:0:
256,192,11681,1,4,0:0:0:0:
120,280,12281,2,0,P|256:352|396:272,1,320,4|8,0:0|0:0,0:0:0:0:
256,192,14081,1,4,0:0:0:0:
112,192,14681,6,0,P|120:108|196:68,1,160,4|8,0:0|0:0,0:0:0:0:
333,69,15881,2,0,P|392:108|400:192,1,160,4|8,0:0|0:0,0:0:0:0:
328,324,17081,2,0,P|256:352|168:316,1,160,4|8,0:0|0:0,0:0:0:0:
216,184,18281,2,0,L|216:104,1,80,4|8,0:0|0:0,0:0:0:0:
296,104,18881,2,0,L|296:184,1,80,4|8,0:0|0:0,0:0:0:0:
256,256,19481,5,4,0:0:0:0:
112,192,20081,1,8,0:0:0:0:
256,128,20681,1,4,0:0:0:0:
400,192,21281,1,8,0:0:0:0:
256,192,21881,5,4,0:0:0:0:
256,32,22481,1,8,0:0:0:0:
256,192,23081,1,4,0:0:0:0:
256,352,23681,1,8,0:0:0:0:
240,192,24281,6,0,P|172:144|168:64,1,160,4|8,0:0|0:0,0:0:0:0:
272,192,25481,2,0,P|340:144|344:64,1,160,12|0,0:0|0:0,0:0:0:0:
184,56,26681,2,0,B|76:212|296:212|184:360,1,320,4|4,0:0|0:0,0:0:0:0:
328,248,28481,1,4,0:0:0:0:
256,192,29081,12,4,31481,0:0:0:0:
176,56,32681,5,4,0:0:0:0:
336,56,33281,2,0,P|384:56|408:96,2,80,4|8|4,0:0|0:0|0:0,0:0:0:0:
176,56,34481,1,4,0:0:0:0:
256,192,35081,1,4,0:0:0:0:
336,328,35681,2,0,P|384:328|408:288,2,80,4|8|4,0:0|0:0|0:0,0:0:0:0:
256,192,36881,5,4,0:0:0:0:
96,192,37481,1,4,0:0:0:0:
172,52,38081,1,4,0:0:0:0:
336,52,38681,1,4,0:0:0:0:
416,192,39281,1,4,0:0:0:0:
256,192,39881,2,0,P|208:144|256:80,2,160,4|4|4,0:0|0:0|0:0,0:0:0:0:
416,192,41681,6,0,B|416:244|388:268|388:268|312:268,1,160,4|4,0:0|0:0,0:0:0:0:
152,272,42881,1,4,0:0:0:0:
152,112,43481,1,4,0:0:0:0:
296,40,44081,1,4,0:0:0:0:
296,200,44681,2,0,L|296:292,1,80,4|8,0:0|0:0,0:0:0:0:
216,280,45281,2,0,L|216:196,1,80,4|8,0:0|0:0,0:0:0:0:
256,128,45881,5,4,0:0:0:0:
416,128,46481,1,4,0:0:0:0:
416,280,47081,1,4,0:0:0:0:
256,280,47681,2,0,L|256:192,1,80,4|8,0:0|0:0,0:0:0:0:
256,192,48281,12,4,50681,0:0:0:0:
176,64,60281,5,4,0:0:0:0:
336,64,60881,1,4,0:0:0:0:
256,200,61481,2,0,B|216:276|296:276|256:352,1,160,4|4,0:0|0:0,0:0:0:0:
120,264,62681,5,4,0:0:0:0:
120,108,63281,1,4,0:0:0:0:
256,192,63881,2,0,B|332:232|332:160|408:192,1,160,4|4,0:0|0:0,0:0:0:0:
336,336,65081,5,4,0:0:0:0:
176,336,65681,1,4,0:0:0:0:
256,192,66281,1,4,0:0:0:0:
256,32,66881,1,4,0:0:0:0:
256,192,67481,12,4,69881,0:0:0:0:
96,192,71081,6,0,L|96:100,1,80,4|8,0:0|0:0,0:0:0:0:
176,112,71681,2,0,L|176:200,1,80,4|8,0:0|0:0,0:0:0:0:
256,192,72281,2,0,B|236:244|272:264|256:316,2,120,4|4|4,0:0|0:0|0:0,0:0:0:0:
336,112,73481,2,0,B|392:48|432:104|480:32,2,160,4|4|4,0:0|0:0|0:0,0:0:0:0:
388,220,75131,6,0,P|368:300|336:324,1,120,4|4,0:0|0:0,0:0:0:0:
264,308,75881,2,0,L|195:266,1,80,4|8,0:0|0:0,0:0:0:0:
128,224,76481,2,0,L|116:136,1,80,4|8,0:0|0:0,0:0:0:0:
84,72,77081,2,0,P|40:32|-20:40,2,120,4|4|4,0:0|0:0|0:0,0:0:0:0:
116,144,78281,1,4,0:0:0:0:
240,44,78881,1,4,0:0:0:0:
376,132,79481,5,4,0:0:0:0:
308,232,79931,1,4,0:0:0:0:
200,288,80381,1,4,0:0:0:0:
132,248,80681,2,0,L|148:164,1,80,4|8,0:0|0:0,0:0:0:0:
68,156,81281,2,0,L|53:234,1,80,4|8,0:0|0:0,0:0:0:0:
80,312,81881,5,4,0:0:0:0:
196,336,82331,1,4,0:0:0:0:
316,316,82781,1,4,0:0:0:0:
316,236,83081,2,0,P|264:183|220:242,2,160,4|4|4,0:0|0:0|0:0,0:0:0:0:
436,236,84731,6,0,P|464:176|456:112,1,120,4|4,0:0|0:0,0:0:0:0:
428,48,85481,2,0,L|344:48,1,80,4|8,0:0|0:0,0:0:0:0:
348,128,86081,2,0,L|260:128,1,80,4|8,0:0|0:0,0:0:0:0:
232,200,86681,5,4,0:0:0:0:
124,148,87131,1,4,0:0:0:0:
112,28,87581,1,4,0:0:0:0:
256,192,87881,12,4,91481,0:0:0:0:
256,160,92681,5,8,0:0:0:0:
416,160,93281,1,8,0:0:0:0:
416,320,93881,2,0,B|256:280|256:360|168:328,2,240.000009155274,4|8|4,0:0|0:0|0:0,0:0:0:0:
416,160,96881,5,2,0:0:0:0:
256,160,97481,1,8,0:0:0:0:
96,160,98081,1,8,0:0:0:0:
176,24,98681,2,0,B|288:72|288:-8|424:32,1,240.000009155274,4|2,0:0|0:0,0:0:0:0:
416,168,100481,1,2,0:0:0:0:
416,328,101081,5,2,0:0:0:0:
256,328,101681,1,8,0:0:0:0:
256,192,102281,2,0,L|232:128,1,60.0000022888184,4|0,0:0|0:0,0:0:0:0:
208,72,102881,2,0,L|168:16,1,60.0000022888184,8|0,0:0|0:0,0:0:0:0:
104,16,103481,2,0,P|16:120|208:336,1,480.000018310548,2|4,0:0|0:0,0:0:0:0:
336,336,106481,5,2,0:0:0:0:
336,216,107081,2,0,L|336:152,3,60.0000022888184,8|0|8|0,0:0|0:0|0:0|0:0,0:0:0:0:
256,192,108281,12,4,110681,0:0:0:0:
168,184,111881,6,0,B|256:264|256:264|352:176,1,240.000009155274,8|4,0:0|0:0,0:0:0:0:
424,64,113681,1,2,0:0:0:0:
424,224,114281,2,0,B|256:224|440:336|256:336,1,240.000009155274,8|4,0:0|0:0,0:0:0:0:
120,256,116081,5,2,0:0:0:0:
120,96,116681,1,8,0:0:0:0:
256,184,117281,2,0,P|336:272|440:240,1,240.000009155274,8|8,0:0|0:0,0:0:0:0:
416,124,119081,1,8,0:0:0:0:
296,124,119681,1,8,0:0:0:0:
296,244,120281,5,4,0:0:0:0:
176,244,120881,1,2,0:0:0:0:
128,136,121481,2,0,B|248:184|248:120|368:144,1,240.000009155274,8|4,0:0|0:0,0:0:0:0:
384,264,123281,5,2,0:0:0:0:
256,264,123881,1,8,0:0:0:0:
256,136,124481,1,8,0:0:0:0:
256,192,125081,12,0,129881,0:0:0:0:
38,137,139481,6,0,L|96:192,1,80,4|8,0:0|0:0,0:0:0:0:
153,137,140081,2,0,L|212:192,1,80,4|8,0:0|0:0,0:0:0:0:
268,135,140681,2,0,L|324:192,1,80,4|8,0:0|0:0,0:0:0:0:
377,133,141281,2,4,L|432:192,1,80,4|12,0:0|0:0,0:0:0:0:
416,272,141881,5,4,0:0:0:0:
256,272,142481,1,4,0:0:0:0:
96,272,143081,1,4,0:0:0:0:
96,112,143681,1,4,0:0:0:0:
248,96,144281,6,0,L|313:49,1,80,4|8,0:0|0:0,0:0:0:0:
360,112,144881,2,0,L|296:159,1,80,4|8,0:0|0:0,0:0:0:0:
344,224,145481,2,0,L|408:176,1,80,4|8,0:0|0:0,0:0:0:0:
456,240,146081,2,0,L|390:286,1,80,4|8,0:0|0:0,0:0:0:0:
256,192,146681,12,4,149081,0:0:0:0:
96,192,150281,5,4,0:0:0:0:
152,72,150881,2,0,P|184:36|229:45,2,80,4|8|4,0:0|0:0|0:0,0:0:0:0:
96,192,152081,1,4,0:0:0:0:
256,192,152681,1,4,0:0:0:0:
336,328,153281,2,0,P|384:328|408:288,2,80,4|8|4,0:0|0:0|0:0,0:0:0:0:
256,192,154481,5,4,0:0:0:0:
116,272,155081,1,4,0:0:0:0:
116,120,155681,2,0,P|248:56|408:128,1,320,4|4,0:0|0:0,0:0:0:0:
352,272,157481,2,0,P|415:318|463:270,2,160,4|4|4,0:0|0:0|0:0,0:0:0:0:
216,352,159281,6,0,B|164:352|140:324|140:324|140:248,1,160,4|4,0:0|0:0,0:0:0:0:
144,88,160481,1,4,0:0:0:0:
304,112,161081,1,4,0:0:0:0:
448,184,161681,1,4,0:0:0:0:
296,184,162281,2,0,L|296:276,1,80,4|8,0:0|0:0,0:0:0:0:
216,264,162881,2,0,L|216:180,1,80,4|8,0:0|0:0,0:0:0:0:
256,112,163481,5,4,0:0:0:0:
96,112,164081,1,4,0:0:0:0:
92,272,164681,1,4,0:0:0:0:
256,276,165281,2,0,L|256:188,1,80,4|8,0:0|0:0,0:0:0:0:
256,192,165881,12,4,168281,0:0:0:0:
256,32,169481,5,4,0:0:0:0:
408,80,170081,1,4,0:0:0:0:
408,240,170681,1,4,0:0:0:0:
256,292,171281,6,0,B|200:252|152:304|96:264,1,160,4|4,0:0|0:0,0:0:0:0:
116,112,172481,2,0,P|100:72|124:48,2,80,4|8|4,0:0|0:0|0:0,0:0:0:0:
256,192,173681,5,4,0:0:0:0:
416,192,174281,1,4,0:0:0:0:
336,328,174881,1,4,0:0:0:0:
336,168,175481,1,4,0:0:0:0:
256,28,176081,1,4,0:0:0:0:
256,192,176681,6,0,B|224:168|200:192|176:200|152:184|128:168|88:192|88:192,1,160,4|4,0:0|0:0,0:0:0:0:
256,192,177881,6,0,B|232:224|256:248|264:272|248:296|232:320|256:360|256:360,1,160,4|4,0:0|0:0,0:0:0:0:
256,192,179081,6,0,B|244:196|284:172|308:188|332:204|356:196|380:172|412:196,1,160,4|4,0:0|0:0,0:0:0:0:
256,192,180281,12,0,182681,0:0:0:0:
256,192,186281,12,0,191081,0:0:0:0:
