osu file format v6

[General]
AudioFilename: yayissa.mp3
AudioLeadIn: 0
PreviewTime: 58728
Countdown: 0
SampleSet: Normal
StackLeniency: 0.7
Mode: 0
LetterboxInBreaks: 1

[Editor]
DistanceSpacing: 0.800000011920929
BeatDivisor: 4
GridSize: 8

[Metadata]
Title:Natsu Matsuri
Artist:Whiteberry
Creator:NatsumeRin
Version:Easy
Source:Taiko no Tatsujin
Tags:summer festival

[Difficulty]
HPDrainRate:3
CircleSize:3
OverallDifficulty:4
SliderMultiplier:1.4
SliderTickRate:1

[Events]
//Background and Video events
0,0,"1000p.jpg"
//Break Periods
2,70877,76165
//Storyboard Layer 0 (Background)
//Storyboard Layer 1 (Fail)
//Storyboard Layer 2 (Pass)
//Storyboard Layer 3 (Foreground)
//Storyboard Sound Samples
//Background Colour Transformations
3,100,0,0,0

[TimingPoints]
890,425.531914893617,4,1,1,85,1,0
58762,-100,4,1,1,85,0,1
70677,-100,4,1,1,85,0,0
104719,-100,4,1,1,82,0,1
109826,-100,4,1,1,87,0,1
111528,-100,4,1,1,85,0,1
118336,-100,4,1,1,89,0,1
123443,-100,4,1,1,85,0,0

[Colours]
Combo1 : 255,100,26
Combo2 : 255,128,255
Combo3 : 255,255,128
Combo4 : 255,0,128

[HitObjects]
200,128,24719,2,0,B|168:208|200:272,1,140
312,264,25570,2,0,B|344:184|312:120,1,140,0|2
200,128,26421,6,0,B|168:208|200:272,1,140
312,264,27272,2,0,B|344:184|312:120,1,140,0|2
256,248,28124,5,0
200,192,28549,1,0
256,136,28975,1,0
312,192,29400,1,2
368,248,29826,2,0,B|448:192|360:128,2,140
112,72,31528,5,0
256,72,32379,1,0
400,72,33230,1,0
400,72,33655,2,0,B|424:136|400:216,1,140,0|2
400,312,34932,5,0
256,312,35783,1,0
112,312,36634,1,0
112,312,37059,2,0,B|88:248|112:168,1,140,0|2
192,136,38336,6,0,B|256:104|328:144,2,140
256,192,39613,1,2
320,248,40038,2,0,B|256:280|184:240,2,140
424,216,41741,6,0,B|432:128|400:72,1,140
328,56,42592,1,0
248,48,43017,1,2
168,56,43443,2,0,B|72:72|48:136|96:160,2,140
336,112,45145,5,0
336,272,45996,1,0
184,248,46847,1,0
136,192,47272,1,0
184,136,47698,1,2
176,272,48549,5,0
176,112,49400,1,0
328,136,50251,1,0
376,192,50676,1,0
328,248,51102,1,2
176,248,51953,6,0,B|112:280|72:184|88:176,2,140
248,296,53230,1,2
336,296,53655,2,0,B|440:304|464:200|448:128|408:72|304:64|208:88,1,420
144,88,55358,6,0,B|72:152|128:216,1,140
176,280,56209,1,0
256,288,56634,1,2
256,208,57060,12,0,58762
120,104,59187,5,0
208,88,59613,1,2
296,96,60038,1,0
384,120,60464,2,0,B|440:184|416:248|424:264,1,140
344,280,61315,1,2
200,304,62166,6,0,B|136:328|88:304|72:272,1,140,0|2
72,192,63017,1,0
88,112,63443,1,2
152,64,63868,1,2
312,80,64719,1,2
408,192,65570,6,0,B|336:168|296:216|248:184,2,140,0|0|2
392,272,66847,1,0
312,312,67272,1,2
224,312,67698,2,0,B|128:312|72:288,1,140
256,208,68975,12,0,70677
112,312,77485,5,0
256,312,78336,1,0
400,312,79187,1,0
400,312,79612,2,0,B|424:248|400:168,1,140,0|2
400,72,80889,5,0
256,72,81740,1,0
112,72,82591,1,0
112,72,83016,2,0,B|88:136|112:216,1,140,0|2
320,248,84293,6,0,B|256:280|184:240,2,140
256,192,85570,1,2
192,136,85995,2,0,B|256:104|328:144,2,140
424,168,87698,6,0,B|432:256|400:312,1,140
328,328,88549,1,0
248,336,88974,1,2
168,328,89400,2,0,B|72:312|48:248|96:224,2,140
336,272,91102,5,0
336,112,91953,1,0
184,136,92804,1,0
136,192,93229,1,0
184,248,93655,1,2
176,112,94506,5,0
176,272,95357,1,0
328,248,96208,1,0
376,192,96633,1,0
328,136,97059,1,2
176,72,97911,6,0,B|120:112|136:208|224:240|368:96|440:216|344:304,1,420
256,328,99613,1,0
256,192,100464,5,0
336,72,101315,6,0,B|392:112|376:208|288:240|144:96|72:216|168:304,1,420
256,328,103017,1,0
192,192,103868,6,0,B|264:176|304:216|336:192,2,140
104,192,105145,1,2
104,104,105570,1,0
176,64,105996,1,0
256,72,106421,2,0,B|328:88|376:72|400:80,1,140,2|0
424,160,107272,1,2
416,248,107698,1,0
344,312,108124,6,0,B|184:336|88:288|88:144|136:80|160:64,1,420
240,104,109826,1,2
400,80,110677,1,2
400,248,111528,5,0
320,288,111953,1,2
256,232,112379,1,0
256,144,112804,1,2
184,96,113230,1,2
104,112,113655,1,0
96,192,114081,1,2
256,208,114932,12,0,116634
216,152,118336,5,0
296,152,118762,1,0
296,232,119187,1,0
216,232,119613,1,2
200,128,120038,6,0,B|168:208|200:272,1,140
312,264,120889,2,0,B|344:184|312:120,1,140,0|2
256,192,121741,6,0,B|240:264|280:304|256:336,2,140
256,192,123017,1,2
256,192,123443,5,4
