osu file format v14

[General]
AudioFilename: Fallen Amaterasu.mp3
AudioLeadIn: 0
PreviewTime: 7889
Countdown: 0
SampleSet: None
StackLeniency: 0.2
Mode: 1
LetterboxInBreaks: 0
WidescreenStoryboard: 1

[Editor]
DistanceSpacing: 1.6
BeatDivisor: 3
GridSize: 32
TimelineZoom: 1.5

[Metadata]
Title:Fallen Amaterasu
TitleUnicode:Fallen Amaterasu
Artist:Whispered
ArtistUnicode:Whispered
Creator:lolcubes
Version:Muzukashii
Source:
Tags:Shogunate Macabre deathstreams
BeatmapID:943386
BeatmapSetID:396428

[Difficulty]
HPDrainRate:4.5
CircleSize:5
OverallDifficulty:5
ApproachRate:5
SliderMultiplier:1.4
SliderTickRate:1

[Events]
//Background and Video events
0,0,"amaterasu.jpg",0,16
//Break Periods
//Storyboard Layer 0 (Background)
//Storyboard Layer 1 (Fail)
//Storyboard Layer 2 (Pass)
//Storyboard Layer 3 (Foreground)
//Storyboard Sound Samples

[TimingPoints]
76,279.06976744186,4,1,3,50,1,0
76,-133.333333333333,4,1,3,50,0,0
7750,-100,4,1,1,80,0,0
129564,-100,4,1,1,80,0,1
147424,-100,4,1,1,80,0,0
147564,-105.263157894737,4,1,1,75,0,0
147703,-105.263157894737,4,1,1,75,0,0
147843,-108.695652173913,4,1,1,70,0,0
147982,-111.111111111111,4,1,1,70,0,0
148122,-114.942528735632,4,1,1,68,0,0
148262,-117.647058823529,4,1,1,66,0,0
148541,-120.481927710843,4,1,1,64,0,0
148680,-123.456790123457,4,1,1,62,0,0
148820,-125,4,1,1,60,0,0
148959,-126.582278481013,4,1,1,58,0,0
149099,-128.205128205128,4,1,1,55,0,0
149238,-129.87012987013,4,1,1,53,0,0
149378,-131.578947368421,4,1,1,50,0,0
149587,-133.333333333333,4,1,2,45,0,0
152796,-100,4,1,2,55,0,0
152936,-100,4,1,2,65,0,0
153006,-100,4,1,1,80,0,0
172122,-102.040816326531,4,1,1,75,0,0
172401,-104.166666666667,4,1,1,70,0,0
172541,-106.382978723404,4,1,1,66,0,0
172680,-108.695652173913,4,1,1,66,0,0
172820,-111.111111111111,4,1,1,66,0,0
173099,-112.359550561798,4,1,1,66,0,0
173238,-113.636363636364,4,1,1,66,0,0
173378,-114.942528735632,4,1,1,66,0,0
173517,-116.279069767442,4,1,1,66,0,0
173657,-117.647058823529,4,1,1,66,0,0
173796,-119.047619047619,4,1,1,66,0,0
173936,-120.481927710843,4,1,1,66,0,0
174215,-133.333333333333,4,1,1,66,0,0
181052,-114.942528735632,4,1,1,73,0,0
188587,-100,4,1,1,80,0,0
192145,-100,4,1,3,80,0,0
194238,-100,4,1,1,80,0,0
197727,-100,4,1,3,80,0,0
198703,-100,4,1,1,80,0,0
207773,-100,4,3,1,5,0,0
209657,-100,4,3,1,5,0,0
212075,-200,4,1,2,15,0,0
216262,-200,4,1,3,60,0,0
216727,-200,4,3,1,5,0,0
221006,-200,4,1,2,15,0,0
222145,-166.666666666667,4,1,2,30,0,0
223262,-133.333333333333,4,1,2,50,0,0
224913,-100,4,1,1,80,0,0
225564,-100,4,1,1,80,0,0
225634,-100,4,1,1,80,0,0
252355,-100,4,1,1,80,0,1
269099,-100,4,1,1,80,0,0
270215,-100,4,1,1,80,0,1
288075,-100,4,1,1,80,0,0
288169,-108.695652173913,4,3,1,5,0,0
292448,-117.647058823529,4,3,1,5,0,0
294680,-128.205128205128,4,3,1,5,0,0
296913,-142.857142857143,4,3,1,5,0,0
299145,-161.290322580645,4,3,1,5,0,0
301378,-178.571428571429,4,3,1,5,0,0
303610,-200,4,3,1,5,0,0

[HitObjects]
256,192,76,5,0,0:0:0:0:
256,192,494,1,0,0:0:0:0:
256,192,634,1,8,0:0:0:0:
256,192,913,1,0,0:0:0:0:
256,192,1192,1,0,0:0:0:0:
256,192,1750,1,8,0:0:0:0:
256,192,2029,1,0,0:0:0:0:
256,192,2308,1,0,0:0:0:0:
256,192,2727,1,0,0:0:0:0:
256,192,2866,1,8,0:0:0:0:
256,192,3145,1,0,0:0:0:0:
256,192,3424,1,8,0:0:0:0:
256,192,3982,1,0,0:0:0:0:
256,192,4262,1,8,0:0:0:0:
256,192,4541,1,4,0:0:0:0:
256,192,4959,1,0,0:0:0:0:
256,192,5099,1,8,0:0:0:0:
256,192,5378,1,0,0:0:0:0:
256,192,5657,1,0,0:0:0:0:
256,192,6215,1,8,0:0:0:0:
256,192,6494,1,0,0:0:0:0:
256,192,6773,1,0,0:0:0:0:
256,192,7192,1,0,0:0:0:0:
256,192,7331,1,8,0:0:0:0:
256,192,7610,1,0,0:0:0:0:
256,192,7889,1,8,0:0:0:0:
256,192,7959,1,8,0:0:0:0:
256,192,8029,1,8,0:0:0:0:
256,192,8169,1,0,0:0:0:0:
256,192,8448,1,8,0:0:0:0:
256,192,8727,1,8,0:0:0:0:
256,192,8866,1,8,0:0:0:0:
256,192,9006,1,4,0:0:0:0:
256,192,10122,1,4,0:0:0:0:
256,192,11238,1,4,0:0:0:0:
256,192,12355,1,8,0:0:0:0:
256,192,12424,1,8,0:0:0:0:
256,192,12494,1,8,0:0:0:0:
256,192,12634,1,0,0:0:0:0:
256,192,12913,1,8,0:0:0:0:
256,192,13192,1,8,0:0:0:0:
256,192,13331,1,8,0:0:0:0:
256,192,13471,1,4,0:0:0:0:
256,192,13750,1,8,0:0:0:0:
256,192,13889,1,0,0:0:0:0:
256,192,14029,1,8,0:0:0:0:
256,192,14308,1,0,0:0:0:0:
256,192,14587,1,0,0:0:0:0:
256,192,14866,1,8,0:0:0:0:
256,192,15006,1,8,0:0:0:0:
256,192,15145,1,4,0:0:0:0:
256,192,15424,1,12,0:0:0:0:
256,192,15703,1,4,0:0:0:0:
256,192,15982,1,8,0:0:0:0:
256,192,16122,1,0,0:0:0:0:
256,192,16262,1,8,0:0:0:0:
256,192,16541,1,0,0:0:0:0:
256,192,16820,1,8,0:0:0:0:
256,192,16889,1,8,0:0:0:0:
256,192,16959,1,8,0:0:0:0:
256,192,17099,1,0,0:0:0:0:
256,192,17378,1,0,0:0:0:0:
256,192,17448,1,0,0:0:0:0:
256,192,17517,1,0,0:0:0:0:
256,192,17657,1,8,0:0:0:0:
256,192,17936,1,4,0:0:0:0:
256,192,18215,1,8,0:0:0:0:
256,192,18355,1,0,0:0:0:0:
256,192,18494,1,8,0:0:0:0:
256,192,18634,1,8,0:0:0:0:
256,192,18773,1,0,0:0:0:0:
256,192,19052,1,0,0:0:0:0:
256,192,19331,1,8,0:0:0:0:
256,192,19471,1,8,0:0:0:0:
256,192,19610,1,4,0:0:0:0:
256,192,19889,1,4,0:0:0:0:
256,192,20169,1,4,0:0:0:0:
256,192,20448,1,8,0:0:0:0:
256,192,20587,1,0,0:0:0:0:
256,192,20727,1,8,0:0:0:0:
256,192,20866,1,8,0:0:0:0:
256,192,21006,1,0,0:0:0:0:
256,192,21285,1,8,0:0:0:0:
256,192,21355,1,8,0:0:0:0:
256,192,21424,1,8,0:0:0:0:
256,192,21564,1,0,0:0:0:0:
256,192,21843,1,8,0:0:0:0:
256,192,22122,1,8,0:0:0:0:
256,192,22192,1,8,0:0:0:0:
256,192,22262,1,8,0:0:0:0:
256,192,22401,1,4,0:0:0:0:
256,192,22680,1,8,0:0:0:0:
256,192,22820,1,0,0:0:0:0:
256,192,22959,1,8,0:0:0:0:
256,192,23099,1,8,0:0:0:0:
256,192,23238,1,0,0:0:0:0:
256,192,23517,1,0,0:0:0:0:
256,192,23796,1,8,0:0:0:0:
256,192,23936,1,8,0:0:0:0:
256,192,24075,1,4,0:0:0:0:
256,192,24355,1,12,0:0:0:0:
256,192,24634,1,4,0:0:0:0:
256,192,24913,1,8,0:0:0:0:
256,192,25052,1,0,0:0:0:0:
256,192,25192,1,8,0:0:0:0:
256,192,25331,1,8,0:0:0:0:
256,192,25471,1,0,0:0:0:0:
256,192,25750,1,8,0:0:0:0:
256,192,25820,1,8,0:0:0:0:
256,192,25889,1,8,0:0:0:0:
256,192,26029,1,0,0:0:0:0:
256,192,26308,1,0,0:0:0:0:
256,192,26866,1,4,0:0:0:0:
256,192,27145,1,8,0:0:0:0:
256,192,27424,1,8,0:0:0:0:
256,192,27564,1,0,0:0:0:0:
256,192,27703,1,0,0:0:0:0:
256,192,27843,1,0,0:0:0:0:
256,192,27982,1,8,0:0:0:0:
256,192,28262,1,0,0:0:0:0:
256,192,28401,1,0,0:0:0:0:
256,192,28541,1,8,0:0:0:0:
256,192,28820,1,0,0:0:0:0:
256,192,29099,1,0,0:0:0:0:
256,192,29378,1,8,0:0:0:0:
256,192,29657,1,8,0:0:0:0:
256,192,29796,1,8,0:0:0:0:
256,192,29936,1,0,0:0:0:0:
256,192,30075,1,0,0:0:0:0:
256,192,30215,1,8,0:0:0:0:
256,192,30494,1,0,0:0:0:0:
256,192,30634,1,0,0:0:0:0:
256,192,30773,1,8,0:0:0:0:
256,192,31052,1,8,0:0:0:0:
256,192,31331,1,0,0:0:0:0:
256,192,31610,1,8,0:0:0:0:
256,192,31889,1,8,0:0:0:0:
256,192,32029,1,8,0:0:0:0:
256,192,32169,1,0,0:0:0:0:
256,192,32308,1,0,0:0:0:0:
256,192,32448,1,8,0:0:0:0:
256,192,32727,1,8,0:0:0:0:
256,192,32866,1,0,0:0:0:0:
256,192,33006,1,8,0:0:0:0:
256,192,33285,1,0,0:0:0:0:
256,192,33564,1,8,0:0:0:0:
256,192,33843,1,8,0:0:0:0:
256,192,33982,1,0,0:0:0:0:
256,192,34122,1,0,0:0:0:0:
256,192,34262,1,0,0:0:0:0:
256,192,34401,1,8,0:0:0:0:
256,192,34680,1,0,0:0:0:0:
256,192,34750,1,0,0:0:0:0:
256,192,34820,1,0,0:0:0:0:
256,192,34959,1,8,0:0:0:0:
256,192,35029,1,8,0:0:0:0:
256,192,35099,1,8,0:0:0:0:
256,192,35238,1,0,0:0:0:0:
256,192,35796,1,4,0:0:0:0:
256,192,36075,1,8,0:0:0:0:
256,192,36354,1,8,0:0:0:0:
256,192,36494,1,0,0:0:0:0:
256,192,36633,1,0,0:0:0:0:
256,192,36773,1,0,0:0:0:0:
256,192,36912,1,8,0:0:0:0:
256,192,37192,1,0,0:0:0:0:
256,192,37331,1,0,0:0:0:0:
256,192,37471,1,8,0:0:0:0:
256,192,37750,1,0,0:0:0:0:
256,192,38029,1,0,0:0:0:0:
256,192,38308,1,8,0:0:0:0:
256,192,38587,1,8,0:0:0:0:
256,192,38726,1,8,0:0:0:0:
256,192,38866,1,0,0:0:0:0:
256,192,39005,1,0,0:0:0:0:
256,192,39145,1,8,0:0:0:0:
256,192,39424,1,0,0:0:0:0:
256,192,39564,1,0,0:0:0:0:
256,192,39703,1,8,0:0:0:0:
256,192,39982,1,8,0:0:0:0:
256,192,40261,1,0,0:0:0:0:
256,192,40540,1,8,0:0:0:0:
256,192,40819,1,8,0:0:0:0:
256,192,40959,1,8,0:0:0:0:
256,192,41099,1,0,0:0:0:0:
256,192,41238,1,0,0:0:0:0:
256,192,41378,1,8,0:0:0:0:
256,192,41657,1,8,0:0:0:0:
256,192,41796,1,0,0:0:0:0:
256,192,41936,1,8,0:0:0:0:
256,192,42215,1,0,0:0:0:0:
256,192,42494,1,0,0:0:0:0:
256,192,42564,1,0,0:0:0:0:
256,192,42634,1,0,0:0:0:0:
256,192,42773,1,8,0:0:0:0:
256,192,42843,1,8,0:0:0:0:
256,192,42913,1,8,0:0:0:0:
256,192,43052,1,0,0:0:0:0:
256,192,43331,1,8,0:0:0:0:
256,192,43610,1,0,0:0:0:0:
256,192,43750,1,8,0:0:0:0:
256,192,43820,1,8,0:0:0:0:
256,192,43889,1,8,0:0:0:0:
256,192,44029,1,8,0:0:0:0:
256,192,44169,1,8,0:0:0:0:
256,192,44727,1,4,0:0:0:0:
256,192,44866,1,0,0:0:0:0:
256,192,45145,1,0,0:0:0:0:
256,192,45285,1,8,0:0:0:0:
256,192,45564,1,0,0:0:0:0:
256,192,45703,1,0,0:0:0:0:
256,192,45982,1,0,0:0:0:0:
256,192,46122,1,0,0:0:0:0:
256,192,46262,1,0,0:0:0:0:
256,192,46401,1,8,0:0:0:0:
256,192,46680,1,0,0:0:0:0:
256,192,46959,1,0,0:0:0:0:
256,192,47099,1,0,0:0:0:0:
256,192,47378,1,0,0:0:0:0:
256,192,47517,1,8,0:0:0:0:
256,192,47796,1,0,0:0:0:0:
256,192,47936,1,0,0:0:0:0:
256,192,48215,1,0,0:0:0:0:
256,192,48355,1,0,0:0:0:0:
256,192,48494,1,0,0:0:0:0:
256,192,48634,1,8,0:0:0:0:
256,192,48913,1,8,0:0:0:0:
256,192,49052,1,8,0:0:0:0:
256,192,49192,1,4,0:0:0:0:
256,192,49331,1,0,0:0:0:0:
256,192,49610,1,0,0:0:0:0:
256,192,49750,1,8,0:0:0:0:
256,192,50169,1,0,0:0:0:0:
256,192,50448,1,0,0:0:0:0:
256,192,50587,1,0,0:0:0:0:
256,192,50727,1,0,0:0:0:0:
256,192,50866,1,8,0:0:0:0:
256,192,51145,1,0,0:0:0:0:
256,192,51424,1,0,0:0:0:0:
256,192,51703,1,8,0:0:0:0:
256,192,51982,1,8,0:0:0:0:
256,192,52122,1,8,0:0:0:0:
256,192,52192,1,8,0:0:0:0:
256,192,52262,1,8,0:0:0:0:
256,192,52401,1,8,0:0:0:0:
256,192,52541,1,8,0:0:0:0:
256,192,53099,1,0,0:0:0:0:
256,192,53192,1,0,0:0:0:0:
256,192,53285,1,0,0:0:0:0:
256,192,53378,1,0,0:0:0:0:
256,192,53657,1,4,0:0:0:0:
256,192,53796,1,0,0:0:0:0:
256,192,54075,1,0,0:0:0:0:
256,192,54215,1,8,0:0:0:0:
256,192,54494,1,0,0:0:0:0:
256,192,54634,1,0,0:0:0:0:
256,192,54913,1,0,0:0:0:0:
256,192,55052,1,0,0:0:0:0:
256,192,55192,1,0,0:0:0:0:
256,192,55331,1,8,0:0:0:0:
256,192,55610,1,0,0:0:0:0:
256,192,55889,1,0,0:0:0:0:
256,192,56029,1,0,0:0:0:0:
256,192,56308,1,0,0:0:0:0:
256,192,56448,1,8,0:0:0:0:
256,192,56727,1,0,0:0:0:0:
256,192,56866,1,0,0:0:0:0:
256,192,57145,1,0,0:0:0:0:
256,192,57285,1,0,0:0:0:0:
256,192,57424,1,0,0:0:0:0:
256,192,57564,1,8,0:0:0:0:
256,192,57843,1,8,0:0:0:0:
256,192,57982,1,8,0:0:0:0:
256,192,58122,1,4,0:0:0:0:
256,192,58262,1,0,0:0:0:0:
256,192,58541,1,0,0:0:0:0:
256,192,58680,1,8,0:0:0:0:
256,192,58959,1,0,0:0:0:0:
256,192,59099,1,0,0:0:0:0:
256,192,59378,1,0,0:0:0:0:
256,192,59517,1,0,0:0:0:0:
256,192,59657,1,0,0:0:0:0:
256,192,59796,1,8,0:0:0:0:
256,192,60075,1,0,0:0:0:0:
256,192,60355,1,0,0:0:0:0:
256,192,60634,1,8,0:0:0:0:
256,192,60913,1,8,0:0:0:0:
256,192,61052,1,8,0:0:0:0:
256,192,61122,1,8,0:0:0:0:
256,192,61192,1,8,0:0:0:0:
256,192,61331,1,8,0:0:0:0:
256,192,61471,1,8,0:0:0:0:
256,192,62029,1,0,0:0:0:0:
256,192,62099,1,0,0:0:0:0:
256,192,62169,1,0,0:0:0:0:
256,192,62238,1,0,0:0:0:0:
256,192,62308,1,0,0:0:0:0:
256,192,62587,1,4,0:0:0:0:
256,192,62727,1,0,0:0:0:0:
256,192,63006,1,0,0:0:0:0:
256,192,63145,1,8,0:0:0:0:
256,192,63424,1,0,0:0:0:0:
256,192,63564,1,8,0:0:0:0:
256,192,63843,1,8,0:0:0:0:
256,192,63982,1,0,0:0:0:0:
256,192,64122,1,0,0:0:0:0:
256,192,64262,1,8,0:0:0:0:
256,192,64541,1,0,0:0:0:0:
256,192,64680,1,8,0:0:0:0:
256,192,64820,1,0,0:0:0:0:
256,192,64959,1,0,0:0:0:0:
256,192,65238,1,0,0:0:0:0:
256,192,65378,1,8,0:0:0:0:
256,192,65657,1,0,0:0:0:0:
256,192,65796,1,8,0:0:0:0:
256,192,66075,1,8,0:0:0:0:
256,192,66145,1,8,0:0:0:0:
256,192,66215,1,8,0:0:0:0:
256,192,66355,1,8,0:0:0:0:
256,192,66494,1,8,0:0:0:0:
256,192,66773,1,8,0:0:0:0:
256,192,67052,1,4,0:0:0:0:
256,192,67192,1,0,0:0:0:0:
256,192,67471,1,0,0:0:0:0:
256,192,67610,1,8,0:0:0:0:
256,192,67889,1,0,0:0:0:0:
256,192,68029,1,8,0:0:0:0:
256,192,68308,1,8,0:0:0:0:
256,192,68447,1,0,0:0:0:0:
256,192,68587,1,0,0:0:0:0:
256,192,68727,1,8,0:0:0:0:
256,192,69006,1,8,0:0:0:0:
256,192,69145,1,8,0:0:0:0:
256,192,69285,1,0,0:0:0:0:
256,192,69424,1,0,0:0:0:0:
256,192,69703,1,0,0:0:0:0:
256,192,69843,1,8,0:0:0:0:
256,192,70122,1,0,0:0:0:0:
256,192,70401,1,8,0:0:0:0:
256,192,70471,1,8,0:0:0:0:
256,192,70541,1,8,0:0:0:0:
256,192,70680,1,0,0:0:0:0:
256,192,70959,1,8,0:0:0:0:
256,192,71238,1,8,0:0:0:0:
256,192,71308,1,8,0:0:0:0:
256,192,71378,1,8,0:0:0:0:
256,192,71517,1,4,0:0:0:0:
256,192,71657,1,0,0:0:0:0:
256,192,71936,1,0,0:0:0:0:
256,192,72075,1,8,0:0:0:0:
256,192,72354,1,0,0:0:0:0:
256,192,72494,1,8,0:0:0:0:
256,192,72773,1,8,0:0:0:0:
256,192,72912,1,0,0:0:0:0:
256,192,73052,1,0,0:0:0:0:
256,192,73192,1,8,0:0:0:0:
256,192,73471,1,0,0:0:0:0:
256,192,73610,1,8,0:0:0:0:
256,192,73750,1,0,0:0:0:0:
256,192,73889,1,0,0:0:0:0:
256,192,74168,1,0,0:0:0:0:
256,192,74308,1,8,0:0:0:0:
256,192,74587,1,0,0:0:0:0:
256,192,74726,1,8,0:0:0:0:
256,192,75005,1,8,0:0:0:0:
256,192,75075,1,8,0:0:0:0:
256,192,75145,1,8,0:0:0:0:
256,192,75285,1,8,0:0:0:0:
256,192,75424,1,8,0:0:0:0:
256,192,75703,1,8,0:0:0:0:
256,192,75982,1,4,0:0:0:0:
256,192,76122,1,0,0:0:0:0:
256,192,76401,1,0,0:0:0:0:
256,192,76540,1,8,0:0:0:0:
256,192,76819,1,0,0:0:0:0:
256,192,76959,1,8,0:0:0:0:
256,192,77238,1,8,0:0:0:0:
256,192,77377,1,0,0:0:0:0:
256,192,77517,1,0,0:0:0:0:
256,192,77657,1,8,0:0:0:0:
256,192,77936,1,8,0:0:0:0:
256,192,78075,1,8,0:0:0:0:
256,192,78215,1,0,0:0:0:0:
256,192,78354,1,0,0:0:0:0:
256,192,78634,1,0,0:0:0:0:
256,192,78773,1,8,0:0:0:0:
256,192,79052,1,0,0:0:0:0:
256,192,79191,1,8,0:0:0:0:
256,192,79471,1,8,0:0:0:0:
256,192,79541,1,8,0:0:0:0:
256,192,79610,1,8,0:0:0:0:
256,192,79750,1,8,0:0:0:0:
256,192,79889,1,8,0:0:0:0:
256,192,80448,1,4,0:0:0:0:
256,192,80587,1,0,0:0:0:0:
256,192,80866,1,0,0:0:0:0:
256,192,81006,1,8,0:0:0:0:
256,192,81424,1,0,0:0:0:0:
256,192,81703,1,0,0:0:0:0:
256,192,81843,1,0,0:0:0:0:
256,192,81982,1,0,0:0:0:0:
256,192,82122,1,8,0:0:0:0:
256,192,82401,1,0,0:0:0:0:
256,192,82541,1,0,0:0:0:0:
256,192,82680,1,0,0:0:0:0:
256,192,82820,1,0,0:0:0:0:
256,192,83099,1,0,0:0:0:0:
256,192,83238,1,8,0:0:0:0:
256,192,83657,1,0,0:0:0:0:
256,192,83936,1,0,0:0:0:0:
256,192,84075,1,0,0:0:0:0:
256,192,84215,1,0,0:0:0:0:
256,192,84355,1,8,0:0:0:0:
256,192,84634,1,0,0:0:0:0:
256,192,84913,1,0,0:0:0:0:
256,192,85052,1,0,0:0:0:0:
256,192,85331,1,0,0:0:0:0:
256,192,85471,1,8,0:0:0:0:
256,192,85889,1,0,0:0:0:0:
256,192,86169,1,0,0:0:0:0:
256,192,86308,1,0,0:0:0:0:
256,192,86448,1,0,0:0:0:0:
256,192,86587,1,8,0:0:0:0:
256,192,86866,1,0,0:0:0:0:
256,192,87145,1,0,0:0:0:0:
256,192,87285,1,8,0:0:0:0:
256,192,87424,1,8,0:0:0:0:
256,192,87703,1,8,0:0:0:0:
256,192,87843,1,8,0:0:0:0:
256,192,88122,1,8,0:0:0:0:
256,192,88262,1,8,0:0:0:0:
256,192,88401,1,0,0:0:0:0:
256,192,88541,1,8,0:0:0:0:
256,192,88820,1,8,0:0:0:0:
256,192,88913,1,8,0:0:0:0:
256,192,89006,1,8,0:0:0:0:
256,192,89099,1,8,0:0:0:0:
256,192,89378,1,4,0:0:0:0:
256,192,89517,1,0,0:0:0:0:
256,192,89796,1,0,0:0:0:0:
256,192,89936,1,8,0:0:0:0:
256,192,90355,1,0,0:0:0:0:
256,192,90634,1,0,0:0:0:0:
256,192,90773,1,0,0:0:0:0:
256,192,90913,1,0,0:0:0:0:
256,192,91052,1,8,0:0:0:0:
256,192,91331,1,0,0:0:0:0:
256,192,91471,1,0,0:0:0:0:
256,192,91610,1,0,0:0:0:0:
256,192,91750,1,0,0:0:0:0:
256,192,92029,1,0,0:0:0:0:
256,192,92169,1,8,0:0:0:0:
256,192,92587,1,0,0:0:0:0:
256,192,92866,1,0,0:0:0:0:
256,192,93006,1,0,0:0:0:0:
256,192,93145,1,0,0:0:0:0:
256,192,93285,1,8,0:0:0:0:
256,192,93564,1,0,0:0:0:0:
256,192,93843,1,0,0:0:0:0:
256,192,93982,1,0,0:0:0:0:
256,192,94262,1,0,0:0:0:0:
256,192,94401,1,8,0:0:0:0:
256,192,94820,1,0,0:0:0:0:
256,192,95099,1,0,0:0:0:0:
256,192,95238,1,0,0:0:0:0:
256,192,95378,1,0,0:0:0:0:
256,192,95517,1,8,0:0:0:0:
256,192,95796,1,0,0:0:0:0:
256,192,96075,1,0,0:0:0:0:
256,192,96215,1,8,0:0:0:0:
256,192,96355,1,8,0:0:0:0:
256,192,96634,1,8,0:0:0:0:
256,192,96773,1,8,0:0:0:0:
256,192,97052,1,8,0:0:0:0:
256,192,97192,1,8,0:0:0:0:
256,192,97471,1,0,0:0:0:0:
256,192,97610,1,8,0:0:0:0:
256,192,97750,1,0,0:0:0:0:
256,192,97843,1,0,0:0:0:0:
256,192,97936,1,0,0:0:0:0:
256,192,98029,1,0,0:0:0:0:
256,192,98308,1,12,0:0:0:0:
256,192,102773,1,4,0:0:0:0:
256,192,102913,1,0,0:0:0:0:
256,192,103192,1,0,0:0:0:0:
256,192,103331,1,8,0:0:0:0:
256,192,103610,1,0,0:0:0:0:
256,192,103750,1,8,0:0:0:0:
256,192,103889,1,0,0:0:0:0:
256,192,104029,1,8,0:0:0:0:
256,192,104168,1,0,0:0:0:0:
256,192,104308,1,0,0:0:0:0:
256,192,104448,1,8,0:0:0:0:
256,192,104727,1,0,0:0:0:0:
256,192,104866,1,8,0:0:0:0:
256,192,105006,1,0,0:0:0:0:
256,192,105145,1,0,0:0:0:0:
256,192,105424,1,0,0:0:0:0:
256,192,105564,1,8,0:0:0:0:
256,192,105843,1,0,0:0:0:0:
256,192,105982,1,8,0:0:0:0:
256,192,106261,1,8,0:0:0:0:
256,192,106331,1,8,0:0:0:0:
256,192,106401,1,8,0:0:0:0:
256,192,106541,1,8,0:0:0:0:
256,192,106680,1,8,0:0:0:0:
256,192,106959,1,8,0:0:0:0:
256,192,107238,1,4,0:0:0:0:
256,192,107378,1,0,0:0:0:0:
256,192,107657,1,0,0:0:0:0:
256,192,107796,1,8,0:0:0:0:
256,192,108075,1,8,0:0:0:0:
256,192,108215,1,8,0:0:0:0:
256,192,108354,1,0,0:0:0:0:
256,192,108494,1,8,0:0:0:0:
256,192,108633,1,0,0:0:0:0:
256,192,108773,1,0,0:0:0:0:
256,192,108913,1,8,0:0:0:0:
256,192,109192,1,8,0:0:0:0:
256,192,109331,1,8,0:0:0:0:
256,192,109471,1,0,0:0:0:0:
256,192,109610,1,0,0:0:0:0:
256,192,109889,1,0,0:0:0:0:
256,192,110029,1,8,0:0:0:0:
256,192,110308,1,0,0:0:0:0:
256,192,110448,1,8,0:0:0:0:
256,192,110866,1,8,0:0:0:0:
256,192,111145,1,8,0:0:0:0:
256,192,111215,1,8,0:0:0:0:
256,192,111285,1,8,0:0:0:0:
256,192,111355,1,8,0:0:0:0:
256,192,111424,1,8,0:0:0:0:
256,192,111703,1,4,0:0:0:0:
256,192,111982,1,8,0:0:0:0:
256,192,112122,1,0,0:0:0:0:
256,192,112261,1,8,0:0:0:0:
256,192,112401,1,0,0:0:0:0:
256,192,112540,1,0,0:0:0:0:
256,192,112680,1,0,0:0:0:0:
256,192,112819,1,8,0:0:0:0:
256,192,113099,1,0,0:0:0:0:
256,192,113238,1,0,0:0:0:0:
256,192,113378,1,8,0:0:0:0:
256,192,113657,1,0,0:0:0:0:
256,192,113936,1,8,0:0:0:0:
256,192,114215,1,8,0:0:0:0:
256,192,114355,1,0,0:0:0:0:
256,192,114494,1,8,0:0:0:0:
256,192,114633,1,8,0:0:0:0:
256,192,114773,1,0,0:0:0:0:
256,192,114912,1,0,0:0:0:0:
256,192,115052,1,8,0:0:0:0:
256,192,115331,1,0,0:0:0:0:
256,192,115471,1,0,0:0:0:0:
256,192,115610,1,8,0:0:0:0:
256,192,115889,1,8,0:0:0:0:
256,192,116168,1,0,0:0:0:0:
256,192,116447,1,8,0:0:0:0:
256,192,116587,1,0,0:0:0:0:
256,192,116726,1,8,0:0:0:0:
256,192,116866,1,8,0:0:0:0:
256,192,117006,1,0,0:0:0:0:
256,192,117145,1,0,0:0:0:0:
256,192,117285,1,8,0:0:0:0:
256,192,117564,1,8,0:0:0:0:
256,192,117703,1,0,0:0:0:0:
256,192,117843,1,8,0:0:0:0:
256,192,118122,1,0,0:0:0:0:
256,192,118401,1,8,0:0:0:0:
256,192,118680,1,8,0:0:0:0:
256,192,118819,1,8,0:0:0:0:
256,192,118959,1,0,0:0:0:0:
256,192,119099,1,0,0:0:0:0:
256,192,119238,1,8,0:0:0:0:
256,192,119517,1,0,0:0:0:0:
256,192,119587,1,0,0:0:0:0:
256,192,119657,1,0,0:0:0:0:
256,192,119796,1,8,0:0:0:0:
256,192,119866,1,8,0:0:0:0:
256,192,119936,1,8,0:0:0:0:
256,192,120075,1,0,0:0:0:0:
256,192,120633,1,4,0:0:0:0:
256,192,120913,1,8,0:0:0:0:
256,192,121052,1,0,0:0:0:0:
256,192,121192,1,8,0:0:0:0:
256,192,121332,1,0,0:0:0:0:
256,192,121471,1,0,0:0:0:0:
256,192,121611,1,0,0:0:0:0:
256,192,121750,1,8,0:0:0:0:
256,192,122030,1,0,0:0:0:0:
256,192,122169,1,0,0:0:0:0:
256,192,122309,1,8,0:0:0:0:
256,192,122588,1,0,0:0:0:0:
256,192,122867,1,8,0:0:0:0:
256,192,123146,1,8,0:0:0:0:
256,192,123285,1,0,0:0:0:0:
256,192,123425,1,8,0:0:0:0:
256,192,123564,1,8,0:0:0:0:
256,192,123704,1,0,0:0:0:0:
256,192,123843,1,0,0:0:0:0:
256,192,123983,1,8,0:0:0:0:
256,192,124262,1,0,0:0:0:0:
256,192,124402,1,0,0:0:0:0:
256,192,124541,1,8,0:0:0:0:
256,192,124820,1,8,0:0:0:0:
256,192,125099,1,0,0:0:0:0:
256,192,125378,1,8,0:0:0:0:
256,192,125517,1,0,0:0:0:0:
256,192,125657,1,8,0:0:0:0:
256,192,125797,1,8,0:0:0:0:
256,192,125937,1,0,0:0:0:0:
256,192,126076,1,0,0:0:0:0:
256,192,126216,1,8,0:0:0:0:
256,192,126495,1,8,0:0:0:0:
256,192,126634,1,0,0:0:0:0:
256,192,126774,1,8,0:0:0:0:
256,192,127053,1,0,0:0:0:0:
256,192,127332,1,8,0:0:0:0:
256,192,127471,1,8,0:0:0:0:
256,192,127541,1,8,0:0:0:0:
256,192,127610,1,8,0:0:0:0:
256,192,127750,1,8,0:0:0:0:
256,192,127889,1,0,0:0:0:0:
256,192,128169,1,8,0:0:0:0:
256,192,128308,1,8,0:0:0:0:
256,192,128448,1,8,0:0:0:0:
256,192,128727,1,0,0:0:0:0:
256,192,129006,1,8,0:0:0:0:
256,192,129564,1,4,0:0:0:0:
256,192,129843,1,8,0:0:0:0:
256,192,130122,1,0,0:0:0:0:
256,192,130262,1,0,0:0:0:0:
256,192,130401,1,8,0:0:0:0:
256,192,130680,1,0,0:0:0:0:
256,192,130959,1,8,0:0:0:0:
256,192,131238,1,0,0:0:0:0:
256,192,131378,1,0,0:0:0:0:
256,192,131517,1,8,0:0:0:0:
256,192,131657,1,0,0:0:0:0:
256,192,131796,1,0,0:0:0:0:
256,192,132075,1,8,0:0:0:0:
256,192,132355,1,0,0:0:0:0:
256,192,132494,1,0,0:0:0:0:
256,192,132634,1,8,0:0:0:0:
256,192,132913,1,0,0:0:0:0:
256,192,133192,1,8,0:0:0:0:
256,192,133471,1,0,0:0:0:0:
256,192,133610,1,8,0:0:0:0:
256,192,133750,1,8,0:0:0:0:
256,192,134029,1,4,0:0:0:0:
256,192,134308,1,8,0:0:0:0:
256,192,134587,1,0,0:0:0:0:
256,192,134727,1,0,0:0:0:0:
256,192,134866,1,8,0:0:0:0:
256,192,135145,1,0,0:0:0:0:
256,192,135424,1,8,0:0:0:0:
256,192,135703,1,0,0:0:0:0:
256,192,135843,1,0,0:0:0:0:
256,192,135982,1,8,0:0:0:0:
256,192,136122,1,8,0:0:0:0:
256,192,136262,1,0,0:0:0:0:
256,192,136401,1,0,0:0:0:0:
256,192,136680,1,8,0:0:0:0:
256,192,136820,1,8,0:0:0:0:
256,192,137099,1,8,0:0:0:0:
256,192,137378,1,0,0:0:0:0:
256,192,137517,1,8,0:0:0:0:
256,192,137796,1,8,0:0:0:0:
256,192,137936,1,0,0:0:0:0:
256,192,138215,1,8,0:0:0:0:
256,192,138494,1,4,0:0:0:0:
256,192,138773,1,8,0:0:0:0:
256,192,139052,1,0,0:0:0:0:
256,192,139192,1,0,0:0:0:0:
256,192,139331,1,8,0:0:0:0:
256,192,139610,1,0,0:0:0:0:
256,192,139889,1,8,0:0:0:0:
256,192,140169,1,8,0:0:0:0:
256,192,140308,1,0,0:0:0:0:
256,192,140448,1,8,0:0:0:0:
256,192,140587,1,8,0:0:0:0:
256,192,140727,1,0,0:0:0:0:
256,192,141006,1,8,0:0:0:0:
256,192,141285,1,0,0:0:0:0:
256,192,141424,1,0,0:0:0:0:
256,192,141564,1,8,0:0:0:0:
256,192,141843,1,0,0:0:0:0:
256,192,141982,1,8,0:0:0:0:
256,192,142262,1,0,0:0:0:0:
256,192,142401,1,8,0:0:0:0:
256,192,142680,1,0,0:0:0:0:
256,192,142820,1,8,0:0:0:0:
256,192,142959,1,0,0:0:0:0:
256,192,143238,1,8,0:0:0:0:
256,192,143517,1,0,0:0:0:0:
256,192,143657,1,0,0:0:0:0:
256,192,143796,1,8,0:0:0:0:
256,192,144075,1,0,0:0:0:0:
256,192,144355,1,8,0:0:0:0:
256,192,144494,1,0,0:0:0:0:
256,192,144634,1,0,0:0:0:0:
256,192,144773,1,0,0:0:0:0:
256,192,144913,1,8,0:0:0:0:
256,192,145192,1,12,0:0:0:0:
256,192,145471,1,0,0:0:0:0:
256,192,145610,1,8,0:0:0:0:
256,192,145889,1,0,0:0:0:0:
256,192,146029,1,8,0:0:0:0:
256,192,146308,1,0,0:0:0:0:
256,192,146448,1,0,0:0:0:0:
256,192,146587,1,8,0:0:0:0:
256,192,146866,1,8,0:0:0:0:
256,192,146959,1,8,0:0:0:0:
256,192,147052,1,8,0:0:0:0:
256,192,147145,1,8,0:0:0:0:
256,192,147424,1,4,0:0:0:0:
256,192,148541,1,0,0:0:0:0:
256,192,149099,1,0,0:0:0:0:
256,192,149238,1,0,0:0:0:0:
256,192,149378,1,0,0:0:0:0:
256,192,149657,1,4,0:0:0:0:
256,192,150075,1,8,0:0:0:0:
256,192,150215,1,0,0:0:0:0:
256,192,150355,1,8,0:0:0:0:
256,192,151192,1,8,0:0:0:0:
256,192,151331,1,0,0:0:0:0:
256,192,151471,1,8,0:0:0:0:
256,192,152308,1,8,0:0:0:0:
256,192,152448,1,0,0:0:0:0:
256,192,152587,1,8,0:0:0:0:
256,192,153006,1,8,0:0:0:0:
256,192,153075,1,8,0:0:0:0:
256,192,153145,1,8,0:0:0:0:
256,192,153285,1,0,0:0:0:0:
256,192,153424,1,8,0:0:0:0:
256,192,153564,1,0,0:0:0:0:
256,192,153843,1,8,0:0:0:0:
256,192,154122,1,0,0:0:0:0:
256,192,154192,1,0,0:0:0:0:
256,192,154262,1,0,0:0:0:0:
256,192,154401,1,8,0:0:0:0:
256,192,154959,1,8,0:0:0:0:
256,192,155238,1,0,0:0:0:0:
256,192,155308,1,0,0:0:0:0:
256,192,155378,1,0,0:0:0:0:
256,192,155517,1,8,0:0:0:0:
256,192,156075,1,8,0:0:0:0:
256,192,156355,1,0,0:0:0:0:
256,192,156424,1,0,0:0:0:0:
256,192,156494,1,0,0:0:0:0:
256,192,156634,1,8,0:0:0:0:
256,192,157192,1,8,0:0:0:0:
256,192,157471,1,0,0:0:0:0:
256,192,157541,1,0,0:0:0:0:
256,192,157610,1,0,0:0:0:0:
256,192,157750,1,8,0:0:0:0:
256,192,158029,1,0,0:0:0:0:
256,192,158169,1,0,0:0:0:0:
256,192,158308,1,8,0:0:0:0:
256,192,158587,1,0,0:0:0:0:
256,192,158657,1,0,0:0:0:0:
256,192,158727,1,0,0:0:0:0:
256,192,158866,1,8,0:0:0:0:
256,192,159424,1,8,0:0:0:0:
256,192,159703,1,0,0:0:0:0:
256,192,159773,1,0,0:0:0:0:
256,192,159843,1,0,0:0:0:0:
256,192,159982,1,8,0:0:0:0:
256,192,160541,1,8,0:0:0:0:
256,192,160820,1,0,0:0:0:0:
256,192,160889,1,0,0:0:0:0:
256,192,160959,1,0,0:0:0:0:
256,192,161099,1,8,0:0:0:0:
256,192,161657,1,8,0:0:0:0:
256,192,161936,1,0,0:0:0:0:
256,192,162075,1,8,0:0:0:0:
256,192,162215,1,8,0:0:0:0:
256,192,162355,1,8,0:0:0:0:
256,192,162494,1,0,0:0:0:0:
256,192,163052,1,0,0:0:0:0:
256,192,163122,1,0,0:0:0:0:
256,192,163192,1,0,0:0:0:0:
256,192,163331,1,8,0:0:0:0:
256,192,163889,1,8,0:0:0:0:
256,192,164169,1,0,0:0:0:0:
256,192,164238,1,0,0:0:0:0:
256,192,164308,1,0,0:0:0:0:
256,192,164448,1,8,0:0:0:0:
256,192,164727,1,0,0:0:0:0:
256,192,164866,1,0,0:0:0:0:
256,192,165006,1,8,0:0:0:0:
256,192,165285,1,0,0:0:0:0:
256,192,165355,1,0,0:0:0:0:
256,192,165424,1,0,0:0:0:0:
256,192,165564,1,8,0:0:0:0:
256,192,166122,1,8,0:0:0:0:
256,192,166401,1,0,0:0:0:0:
256,192,166471,1,0,0:0:0:0:
256,192,166541,1,0,0:0:0:0:
256,192,166680,1,8,0:0:0:0:
256,192,166959,1,0,0:0:0:0:
256,192,167052,1,0,0:0:0:0:
256,192,167145,1,0,0:0:0:0:
256,192,167238,1,0,0:0:0:0:
256,192,167517,1,0,0:0:0:0:
256,192,167587,1,0,0:0:0:0:
256,192,167657,1,0,0:0:0:0:
256,192,167796,1,8,0:0:0:0:
256,192,168355,1,8,0:0:0:0:
256,192,168634,1,0,0:0:0:0:
256,192,168703,1,0,0:0:0:0:
256,192,168773,1,0,0:0:0:0:
256,192,168913,1,8,0:0:0:0:
256,192,169192,1,0,0:0:0:0:
256,192,169331,1,0,0:0:0:0:
256,192,169471,1,8,0:0:0:0:
256,192,169750,1,0,0:0:0:0:
256,192,169820,1,0,0:0:0:0:
256,192,169889,1,0,0:0:0:0:
256,192,170029,1,8,0:0:0:0:
256,192,170587,1,8,0:0:0:0:
256,192,170866,1,0,0:0:0:0:
256,192,170936,1,0,0:0:0:0:
256,192,171006,1,8,0:0:0:0:
256,192,171424,1,8,0:0:0:0:
256,192,171843,1,8,0:0:0:0:
256,192,171982,1,4,0:0:0:0:
256,192,172262,1,8,0:0:0:0:
256,192,172820,1,8,0:0:0:0:
256,192,173099,1,0,0:0:0:0:
256,192,173378,1,8,0:0:0:0:
256,192,173657,1,0,0:0:0:0:
256,192,173796,1,0,0:0:0:0:
256,192,173936,1,8,0:0:0:0:
256,192,174215,1,0,0:0:0:0:
256,192,174494,1,8,0:0:0:0:
256,192,175052,1,8,0:0:0:0:
256,192,175331,1,0,0:0:0:0:
256,192,175610,1,8,0:0:0:0:
256,192,175750,1,0,0:0:0:0:
256,192,175889,1,8,0:0:0:0:
256,192,176169,1,8,0:0:0:0:
256,192,176308,1,8,0:0:0:0:
256,192,176448,1,4,0:0:0:0:
256,192,176727,1,8,0:0:0:0:
256,192,177285,1,8,0:0:0:0:
256,192,177564,1,0,0:0:0:0:
256,192,177843,1,8,0:0:0:0:
256,192,178122,1,0,0:0:0:0:
256,192,178262,1,0,0:0:0:0:
256,192,178401,1,8,0:0:0:0:
256,192,178680,1,0,0:0:0:0:
256,192,178959,1,8,0:0:0:0:
256,192,179517,1,8,0:0:0:0:
256,192,179796,1,0,0:0:0:0:
256,192,180075,1,8,0:0:0:0:
256,192,180215,1,0,0:0:0:0:
256,192,180355,1,8,0:0:0:0:
256,192,180634,1,8,0:0:0:0:
256,192,180773,1,8,0:0:0:0:
256,192,180913,1,4,0:0:0:0:
256,192,181192,1,8,0:0:0:0:
256,192,181750,1,8,0:0:0:0:
256,192,182029,1,0,0:0:0:0:
256,192,182308,1,8,0:0:0:0:
256,192,182448,1,0,0:0:0:0:
256,192,182587,1,0,0:0:0:0:
256,192,182727,1,0,0:0:0:0:
256,192,182866,1,8,0:0:0:0:
256,192,183145,1,0,0:0:0:0:
256,192,183424,1,8,0:0:0:0:
256,192,183982,1,8,0:0:0:0:
256,192,184262,1,0,0:0:0:0:
256,192,184541,1,8,0:0:0:0:
256,192,184680,1,0,0:0:0:0:
256,192,184820,1,8,0:0:0:0:
256,192,185099,1,8,0:0:0:0:
256,192,185238,1,8,0:0:0:0:
256,192,185378,1,4,0:0:0:0:
256,192,185657,1,8,0:0:0:0:
256,192,186215,1,8,0:0:0:0:
256,192,186494,1,0,0:0:0:0:
256,192,186773,1,8,0:0:0:0:
256,192,186913,1,0,0:0:0:0:
256,192,187052,1,0,0:0:0:0:
256,192,187192,1,0,0:0:0:0:
256,192,187331,1,8,0:0:0:0:
256,192,187610,1,4,0:0:0:0:
256,192,187889,1,8,0:0:0:0:
256,192,188448,1,8,0:0:0:0:
256,192,188727,1,8,0:0:0:0:
256,192,188820,1,8,0:0:0:0:
256,192,188913,1,8,0:0:0:0:
256,192,189006,1,8,0:0:0:0:
256,192,189285,1,0,0:0:0:0:
256,192,189378,1,0,0:0:0:0:
256,192,189471,1,0,0:0:0:0:
256,192,189564,1,0,0:0:0:0:
256,192,189843,1,12,0:0:0:0:
256,192,192075,1,4,0:0:0:0:
256,192,193192,1,0,0:0:0:0:
256,192,193750,1,0,0:0:0:0:
256,192,194308,1,12,0:0:0:0:
256,192,196541,1,4,0:0:0:0:
256,192,197657,1,4,0:0:0:0:
256,192,198215,1,0,0:0:0:0:
256,192,198401,1,0,0:0:0:0:
256,192,198587,1,0,0:0:0:0:
256,192,198773,1,12,0:0:0:0:
256,192,201006,1,4,0:0:0:0:
256,192,201564,1,0,0:0:0:0:
256,192,202122,1,8,0:0:0:0:
256,192,202215,1,8,0:0:0:0:
256,192,202308,1,8,0:0:0:0:
256,192,202401,1,8,0:0:0:0:
256,192,202680,1,8,0:0:0:0:
256,192,202773,1,8,0:0:0:0:
256,192,202866,1,8,0:0:0:0:
256,192,202959,1,8,0:0:0:0:
256,192,203238,1,4,0:0:0:0:
256,192,205471,1,12,0:0:0:0:
256,192,206587,1,12,0:0:0:0:
256,192,207145,1,8,0:0:0:0:
256,192,207331,1,8,0:0:0:0:
256,192,207517,1,8,0:0:0:0:
256,192,207703,1,4,0:0:0:0:
256,192,209936,8,0,211889,0:0:0:0:
192,256,212169,6,0,B|248:208|257:135|257:135|264:208|320:256,1,280
184,192,214401,2,0,L|336:192,1,140
184,120,215517,2,0,L|336:120,1,140
256,192,216355,1,0,0:0:0:0:
256,192,216634,1,0,0:0:0:0:
256,192,218866,8,0,220820,0:0:0:0:
144,232,221099,6,0,L|360:232,1,210
120,160,222215,2,0,L|384:160,1,251.999992309571
0,48,223331,2,0,B|256:136|256:136|512:48,1,525.000020027161
256,192,225006,1,12,0:0:0:0:
256,192,225145,1,12,0:0:0:0:
256,192,225424,1,12,0:0:0:0:
256,192,225564,1,4,0:0:0:0:
256,192,226680,1,4,0:0:0:0:
256,192,227796,1,4,0:0:0:0:
256,192,228913,1,8,0:0:0:0:
256,192,228982,1,8,0:0:0:0:
256,192,229052,1,8,0:0:0:0:
256,192,229192,1,0,0:0:0:0:
256,192,229331,1,0,0:0:0:0:
256,192,229471,1,8,0:0:0:0:
256,192,229750,1,8,0:0:0:0:
256,192,229889,1,8,0:0:0:0:
256,192,230029,1,4,0:0:0:0:
256,192,230308,1,8,0:0:0:0:
256,192,230447,1,0,0:0:0:0:
256,192,230587,1,8,0:0:0:0:
256,192,230727,1,8,0:0:0:0:
256,192,230866,1,0,0:0:0:0:
256,192,231145,1,0,0:0:0:0:
256,192,231424,1,8,0:0:0:0:
256,192,231564,1,8,0:0:0:0:
256,192,231703,1,4,0:0:0:0:
256,192,231982,1,12,0:0:0:0:
256,192,232261,1,4,0:0:0:0:
256,192,232540,1,8,0:0:0:0:
256,192,232680,1,0,0:0:0:0:
256,192,232820,1,8,0:0:0:0:
256,192,232959,1,8,0:0:0:0:
256,192,233099,1,0,0:0:0:0:
256,192,233378,1,8,0:0:0:0:
256,192,233448,1,8,0:0:0:0:
256,192,233517,1,8,0:0:0:0:
256,192,233657,1,0,0:0:0:0:
256,192,233936,1,0,0:0:0:0:
256,192,234006,1,0,0:0:0:0:
256,192,234075,1,0,0:0:0:0:
256,192,234215,1,8,0:0:0:0:
256,192,234494,1,4,0:0:0:0:
256,192,235610,1,8,0:0:0:0:
256,192,235889,1,8,0:0:0:0:
256,192,236169,1,0,0:0:0:0:
256,192,236238,1,0,0:0:0:0:
256,192,236308,1,0,0:0:0:0:
256,192,236378,1,0,0:0:0:0:
256,192,236448,1,0,0:0:0:0:
256,192,236727,1,4,0:0:0:0:
256,192,237006,1,8,0:0:0:0:
256,192,237146,1,0,0:0:0:0:
256,192,237285,1,8,0:0:0:0:
256,192,237425,1,0,0:0:0:0:
256,192,237564,1,0,0:0:0:0:
256,192,237704,1,0,0:0:0:0:
256,192,237843,1,8,0:0:0:0:
256,192,238123,1,0,0:0:0:0:
256,192,238262,1,0,0:0:0:0:
256,192,238402,1,8,0:0:0:0:
256,192,238681,1,8,0:0:0:0:
256,192,238960,1,0,0:0:0:0:
256,192,239239,1,8,0:0:0:0:
256,192,239379,1,0,0:0:0:0:
256,192,239518,1,8,0:0:0:0:
256,192,239657,1,8,0:0:0:0:
256,192,239797,1,0,0:0:0:0:
256,192,239936,1,0,0:0:0:0:
256,192,240076,1,8,0:0:0:0:
256,192,240355,1,0,0:0:0:0:
256,192,240495,1,0,0:0:0:0:
256,192,240634,1,8,0:0:0:0:
256,192,240913,1,0,0:0:0:0:
256,192,241192,1,8,0:0:0:0:
256,192,241471,1,8,0:0:0:0:
256,192,241611,1,8,0:0:0:0:
256,192,241750,1,0,0:0:0:0:
256,192,241890,1,0,0:0:0:0:
256,192,242030,1,8,0:0:0:0:
256,192,242309,1,12,0:0:0:0:
256,192,242866,1,0,0:0:0:0:
256,192,242936,1,0,0:0:0:0:
256,192,243006,1,0,0:0:0:0:
256,192,243075,1,0,0:0:0:0:
256,192,243145,1,0,0:0:0:0:
256,192,243424,1,4,0:0:0:0:
256,192,243703,1,8,0:0:0:0:
256,192,243843,1,0,0:0:0:0:
256,192,243982,1,8,0:0:0:0:
256,192,244122,1,0,0:0:0:0:
256,192,244261,1,0,0:0:0:0:
256,192,244401,1,0,0:0:0:0:
256,192,244540,1,8,0:0:0:0:
256,192,244820,1,0,0:0:0:0:
256,192,244959,1,0,0:0:0:0:
256,192,245099,1,8,0:0:0:0:
256,192,245378,1,0,0:0:0:0:
256,192,245657,1,8,0:0:0:0:
256,192,245936,1,8,0:0:0:0:
256,192,246076,1,0,0:0:0:0:
256,192,246215,1,8,0:0:0:0:
256,192,246354,1,8,0:0:0:0:
256,192,246494,1,0,0:0:0:0:
256,192,246633,1,0,0:0:0:0:
256,192,246773,1,8,0:0:0:0:
256,192,247052,1,0,0:0:0:0:
256,192,247192,1,0,0:0:0:0:
256,192,247331,1,8,0:0:0:0:
256,192,247610,1,8,0:0:0:0:
256,192,247889,1,0,0:0:0:0:
256,192,248168,1,8,0:0:0:0:
256,192,248308,1,0,0:0:0:0:
256,192,248447,1,8,0:0:0:0:
256,192,248587,1,8,0:0:0:0:
256,192,248727,1,0,0:0:0:0:
256,192,248866,1,0,0:0:0:0:
256,192,249006,1,8,0:0:0:0:
256,192,249285,1,8,0:0:0:0:
256,192,249424,1,0,0:0:0:0:
256,192,249564,1,8,0:0:0:0:
256,192,249843,1,0,0:0:0:0:
256,192,250122,1,12,0:0:0:0:
256,192,250401,1,8,0:0:0:0:
256,192,250471,1,8,0:0:0:0:
256,192,250541,1,8,0:0:0:0:
256,192,250680,1,0,0:0:0:0:
256,192,250820,1,0,0:0:0:0:
256,192,250959,1,8,0:0:0:0:
256,192,251238,1,0,0:0:0:0:
256,192,251378,1,8,0:0:0:0:
256,192,251448,1,8,0:0:0:0:
256,192,251517,1,8,0:0:0:0:
256,192,251657,1,8,0:0:0:0:
256,192,251796,1,0,0:0:0:0:
256,192,252355,1,4,0:0:0:0:
256,192,252494,1,0,0:0:0:0:
256,192,252773,1,0,0:0:0:0:
256,192,252843,1,0,0:0:0:0:
256,192,252913,1,0,0:0:0:0:
256,192,253052,1,0,0:0:0:0:
256,192,253331,1,0,0:0:0:0:
256,192,253471,1,0,0:0:0:0:
256,192,253610,1,0,0:0:0:0:
256,192,253889,1,0,0:0:0:0:
256,192,254029,1,8,0:0:0:0:
256,192,254169,1,0,0:0:0:0:
256,192,254308,1,0,0:0:0:0:
256,192,254448,1,8,0:0:0:0:
256,192,254587,1,0,0:0:0:0:
256,192,254727,1,0,0:0:0:0:
256,192,255006,1,0,0:0:0:0:
256,192,255075,1,0,0:0:0:0:
256,192,255146,1,0,0:0:0:0:
256,192,255285,1,0,0:0:0:0:
256,192,255564,1,0,0:0:0:0:
256,192,255704,1,0,0:0:0:0:
256,192,255843,1,0,0:0:0:0:
256,192,255983,1,8,0:0:0:0:
256,192,256262,1,8,0:0:0:0:
256,192,256541,1,8,0:0:0:0:
256,192,256680,1,8,0:0:0:0:
256,192,256820,1,4,0:0:0:0:
256,192,256959,1,0,0:0:0:0:
256,192,257238,1,0,0:0:0:0:
256,192,257308,1,0,0:0:0:0:
256,192,257378,1,0,0:0:0:0:
256,192,257518,1,0,0:0:0:0:
256,192,257796,1,0,0:0:0:0:
256,192,257936,1,0,0:0:0:0:
256,192,258075,1,0,0:0:0:0:
256,192,258355,1,0,0:0:0:0:
256,192,258494,1,8,0:0:0:0:
256,192,258634,1,0,0:0:0:0:
256,192,258773,1,8,0:0:0:0:
256,192,258913,1,8,0:0:0:0:
256,192,259053,1,0,0:0:0:0:
256,192,259192,1,0,0:0:0:0:
256,192,259471,1,8,0:0:0:0:
256,192,259611,1,8,0:0:0:0:
256,192,259890,1,8,0:0:0:0:
256,192,260169,1,0,0:0:0:0:
256,192,260308,1,8,0:0:0:0:
256,192,260448,1,8,0:0:0:0:
256,192,260587,1,8,0:0:0:0:
256,192,260727,1,0,0:0:0:0:
256,192,261285,1,4,0:0:0:0:
256,192,261424,1,0,0:0:0:0:
256,192,261703,1,0,0:0:0:0:
256,192,261773,1,0,0:0:0:0:
256,192,261843,1,0,0:0:0:0:
256,192,261983,1,0,0:0:0:0:
256,192,262262,1,0,0:0:0:0:
256,192,262401,1,0,0:0:0:0:
256,192,262541,1,0,0:0:0:0:
256,192,262820,1,0,0:0:0:0:
256,192,262960,1,8,0:0:0:0:
256,192,263099,1,0,0:0:0:0:
256,192,263239,1,8,0:0:0:0:
256,192,263378,1,8,0:0:0:0:
256,192,263518,1,0,0:0:0:0:
256,192,263657,1,0,0:0:0:0:
256,192,263936,1,0,0:0:0:0:
256,192,264006,1,0,0:0:0:0:
256,192,264076,1,0,0:0:0:0:
256,192,264215,1,0,0:0:0:0:
256,192,264494,1,0,0:0:0:0:
256,192,264634,1,0,0:0:0:0:
256,192,264773,1,8,0:0:0:0:
256,192,265053,1,0,0:0:0:0:
256,192,265192,1,8,0:0:0:0:
256,192,265471,1,0,0:0:0:0:
256,192,265611,1,8,0:0:0:0:
256,192,265750,1,0,0:0:0:0:
256,192,265889,1,0,0:0:0:0:
256,192,266169,1,0,0:0:0:0:
256,192,266238,1,0,0:0:0:0:
256,192,266308,1,0,0:0:0:0:
256,192,266448,1,0,0:0:0:0:
256,192,266727,1,0,0:0:0:0:
256,192,266866,1,0,0:0:0:0:
256,192,267006,1,0,0:0:0:0:
256,192,267285,1,0,0:0:0:0:
256,192,267425,1,8,0:0:0:0:
256,192,267564,1,0,0:0:0:0:
256,192,267704,1,8,0:0:0:0:
256,192,267843,1,8,0:0:0:0:
256,192,267983,1,4,0:0:0:0:
256,192,268262,1,8,0:0:0:0:
256,192,268401,1,8,0:0:0:0:
256,192,268680,1,8,0:0:0:0:
256,192,268820,1,8,0:0:0:0:
256,192,269099,1,8,0:0:0:0:
256,192,269192,1,8,0:0:0:0:
256,192,269285,1,8,0:0:0:0:
256,192,269378,1,8,0:0:0:0:
256,192,269657,1,0,0:0:0:0:
256,192,269750,1,0,0:0:0:0:
256,192,269843,1,0,0:0:0:0:
256,192,269936,1,0,0:0:0:0:
256,192,270215,1,12,0:0:0:0:
256,192,270494,1,8,0:0:0:0:
256,192,271052,1,8,0:0:0:0:
256,192,271331,1,0,0:0:0:0:
256,192,271610,1,8,0:0:0:0:
256,192,271889,1,0,0:0:0:0:
256,192,272075,1,0,0:0:0:0:
256,192,272169,1,8,0:0:0:0:
256,192,272355,1,0,0:0:0:0:
256,192,272448,1,0,0:0:0:0:
256,192,272727,1,8,0:0:0:0:
256,192,273285,1,8,0:0:0:0:
256,192,273564,1,0,0:0:0:0:
256,192,273843,1,8,0:0:0:0:
256,192,274122,1,0,0:0:0:0:
256,192,274215,1,0,0:0:0:0:
256,192,274308,1,0,0:0:0:0:
256,192,274401,1,8,0:0:0:0:
256,192,274680,1,0,0:0:0:0:
256,192,274959,1,8,0:0:0:0:
256,192,275517,1,8,0:0:0:0:
256,192,275796,1,0,0:0:0:0:
256,192,276075,1,8,0:0:0:0:
256,192,276355,1,0,0:0:0:0:
256,192,276541,1,0,0:0:0:0:
256,192,276634,1,8,0:0:0:0:
256,192,276820,1,0,0:0:0:0:
256,192,276913,1,0,0:0:0:0:
256,192,277192,1,8,0:0:0:0:
256,192,277750,1,8,0:0:0:0:
256,192,278029,1,4,0:0:0:0:
256,192,278587,1,0,0:0:0:0:
256,192,278680,1,0,0:0:0:0:
256,192,278773,1,0,0:0:0:0:
256,192,278866,1,0,0:0:0:0:
256,192,279145,1,12,0:0:0:0:
256,192,279424,1,8,0:0:0:0:
256,192,279982,1,8,0:0:0:0:
256,192,280261,1,0,0:0:0:0:
256,192,280540,1,8,0:0:0:0:
256,192,280819,1,0,0:0:0:0:
256,192,281005,1,0,0:0:0:0:
256,192,281099,1,8,0:0:0:0:
256,192,281285,1,0,0:0:0:0:
256,192,281378,1,0,0:0:0:0:
256,192,281657,1,8,0:0:0:0:
256,192,282215,1,8,0:0:0:0:
256,192,282494,1,0,0:0:0:0:
256,192,282773,1,8,0:0:0:0:
256,192,282866,1,8,0:0:0:0:
256,192,282959,1,8,0:0:0:0:
256,192,283052,1,8,0:0:0:0:
256,192,283331,1,8,0:0:0:0:
256,192,283610,1,0,0:0:0:0:
256,192,283889,1,8,0:0:0:0:
256,192,284447,1,8,0:0:0:0:
256,192,284726,1,0,0:0:0:0:
256,192,285005,1,8,0:0:0:0:
256,192,285285,1,8,0:0:0:0:
256,192,285471,1,8,0:0:0:0:
256,192,285564,1,8,0:0:0:0:
256,192,285750,1,8,0:0:0:0:
256,192,285843,1,0,0:0:0:0:
256,192,286122,1,8,0:0:0:0:
256,192,286680,1,8,0:0:0:0:
256,192,286959,1,4,0:0:0:0:
256,192,287517,1,8,0:0:0:0:
256,192,287610,1,8,0:0:0:0:
256,192,287703,1,8,0:0:0:0:
256,192,287796,1,8,0:0:0:0:
256,192,288075,1,4,0:0:0:0:
256,192,290308,12,0,292262,0:0:0:0:
256,192,292541,12,0,294494,0:0:0:0:
256,192,294773,12,0,296727,0:0:0:0:
256,192,297006,12,0,298959,0:0:0:0:
256,192,299238,12,0,301192,0:0:0:0:
256,192,301471,12,0,303424,0:0:0:0:
256,192,303703,12,0,305657,0:0:0:0:
