osu file format v9

[General]
AudioFilename: Non-Elektro Pomf =3.mp3
AudioLeadIn: 684
PreviewTime: 14367
Countdown: 0
SampleSet: Soft
StackLeniency: 0.7
Mode: 0
LetterboxInBreaks: 1

[Editor]
DistanceSpacing: 0.8
BeatDivisor: 4
GridSize: 8

[Metadata]
Title:Non-Elektro Pomf =3
Artist:WhatAreWeGonnaDo
Creator:Kujo
Version:Insane
Source:POMF
Tags:POMF What are we gonna do on the bed?

[Difficulty]
HPDrainRate:10
CircleSize:4
OverallDifficulty:4
ApproachRate:9
SliderMultiplier:1.8
SliderTickRate:1

[Events]
//Background and Video events
0,0,"Screenshot (2011-05-02 at 10.38.15).jpg"
Video,0,"Non-Elektro Pomf =3.avi"
//Break Periods
//Storyboard Layer 0 (Background)
//Storyboard Layer 1 (Fail)
//Storyboard Layer 2 (Pass)
//Storyboard Layer 3 (Foreground)
//Storyboard Sound Samples
//Background Colour Transformations
3,100,163,162,255

[TimingPoints]
492.182290921235,434.776470588235,4,2,0,52,1,0
13463,-50,4,1,0,67,0,0
14207,-100,4,1,0,52,0,0
28229,-100,4,2,0,5,0,0

[HitObjects]
176,272,494,1,0
152,248,600,1,0
136,216,709,1,0
120,184,818,1,0
112,152,926,1,0
120,120,1035,1,0
152,96,1144,1,0
184,80,1253,1,0
216,64,1361,2,0,B|280:32|328:48|360:80,1,135
376,88,1796,2,0,B|400:136|368:192|328:216|264:152,1,180
248,168,2339,5,0
208,168,2448,1,0
176,184,2557,1,0
152,208,2666,1,0
144,240,2774,1,0
152,272,2883,1,0
184,288,2992,1,0
216,288,3100,2,0,B|296:272|336:224,1,135
352,192,3535,2,0,B|352:128|296:72|216:64,1,180
208,72,4079,5,0
208,72,4187,1,0
208,72,4296,1,0
208,72,4405,1,0
208,72,4513,1,0
208,72,4622,1,0
208,72,4731,1,0
208,72,4839,2,0,B|136:80|80:160,1,135
104,176,5274,2,0,B|152:192|200:176|176:104|192:88|264:144,1,180
248,168,5818,2,0,B|312:168,6,45
248,208,6579,6,0,B|256:248|280:264|320:256|352:224|280:320|240:312|208:304,2,180
224,184,7557,6,0,B|176:184,1,45
184,152,7774,2,0,B|184:96,1,45
144,112,7992,2,0,B|96:112,1,45
72,136,8209,1,0
72,176,8318,2,0,B|96:248|120:264|184:232,1,135
200,248,8752,2,0,B|240:272|240:304|280:280|296:232|328:320|368:336,1,180
368,296,9296,5,0
376,264,9405,1,0
368,232,9513,1,0
344,208,9622,1,0
312,200,9731,1,0
280,192,9839,1,0
248,176,9948,1,0
208,176,10057,2,0,B|224:240|200:272|128:264,1,135
112,248,10492,2,0,B|80:208|120:176|72:160|32:144|104:64,1,180
128,80,11035,6,0,B|176:80,1,45
176,120,11252,2,0,B|176:176,1,45
216,168,11470,2,0,B|264:168,1,45
264,128,11687,1,0
280,96,11796,2,0,B|336:80|408:88|376:168,1,135
376,176,12231,2,0,B|408:216|376:264|320:232|288:288|312:328,1,180
272,304,12774,5,0
272,264,12883,1,0
272,224,12992,1,0
272,192,13100,1,0
272,152,13209,1,0
272,120,13318,1,0
256,88,13426,1,0
104,32,13535,6,4,B|16:192,1,180
376,336,13970,2,4,B|472:176,1,180
240,192,14405,5,0
240,192,14513,1,0
240,192,14622,1,0
240,192,14731,1,0
240,192,14839,1,0
240,192,14948,1,0
240,192,15057,1,0
240,192,15165,1,0
240,192,15274,1,0
432,48,15491,1,0
328,320,15709,2,0,B|272:312|208:280|176:240|152:200,1,180
208,216,16252,5,0
240,192,16361,1,0
272,168,16470,1,0
304,144,16578,1,0
328,120,16687,1,0
360,96,16796,1,0
392,88,16904,1,0
424,104,17013,2,0,B|456:152|440:216|392:256,1,135
384,248,17448,2,0,B|296:272|304:216|248:264|232:312,1,180
200,296,17991,6,0,B|200:240,7,45
72,48,18970,1,0
352,312,19187,2,0,B|392:272|408:224|344:208|464:168,1,180
416,152,19731,1,0
384,136,19839,1,0
344,136,19948,1,0
304,136,20057,1,0
272,152,20165,1,0
240,160,20274,1,0
208,152,20383,1,0
176,136,20491,2,0,B|128:112|72:112|72:112|72:208,2,180
176,176,21470,6,0,B|176:248,1,45
176,256,21687,2,0,B|176:312,1,45
216,304,21904,2,0,B|272:304,1,45
264,264,22122,2,0,B|264:192,1,45
440,48,22448,1,0
168,336,22665,2,0,B|112:280|96:216|96:160,1,180
128,160,23209,5,0
152,184,23317,1,0
168,216,23426,1,0
184,248,23535,1,0
208,272,23644,1,0
240,272,23752,1,0
272,256,23861,1,0
256,192,23970,12,0,24404
336,144,24839,1,0
336,144,24948,1,0
336,144,25057,1,0
336,144,25165,1,0
336,144,25274,1,0
336,144,25383,1,0
336,144,25491,1,0
336,144,25600,1,0
336,144,25709,1,0
72,304,25926,1,0
440,176,26143,2,0,B|448:144|456:88|496:136|504:80|480:56|424:24,1,180
400,48,26687,6,0,B|352:64,6,45
256,192,27448,12,0,27883
256,192,27883,12,0,28317
