osu file format v10

[General]
AudioFilename: werk - Fantastic Phantasm.mp3
AudioLeadIn: 1500
PreviewTime: 14528
Countdown: 0
SampleSet: Soft
StackLeniency: 0.5
Mode: 0
LetterboxInBreaks: 1

[Editor]
DistanceSpacing: 1
BeatDivisor: 4
GridSize: 4

[Metadata]
Title:Fantastic Phantasm
TitleUnicode:Fantastic Phantasm
Artist:Werk
ArtistUnicode:Werk
Creator:uchiha225
Version:Full Moon
Source:Battle Moon Wars
Tags:Arcueid Brunstud Melty Blood Phantasmoon Tsukihime Yu-Izanagi-12 chaotic_iak CoroQuetz
BeatmapID:186408
BeatmapSetID:61383

[Difficulty]
HPDrainRate:8
CircleSize:5
OverallDifficulty:7
ApproachRate:8
SliderMultiplier:1.4
SliderTickRate:2

[Events]
//Background and Video events
0,0,"Phantas-Moon.full.392634.jpg"
//Break Periods
//Storyboard Layer 0 (Background)
//Storyboard Layer 1 (Fail)
//Storyboard Layer 2 (Pass)
//Storyboard Layer 3 (Foreground)
//Storyboard Sound Samples
//Background Colour Transformations
3,100,163,162,255

[TimingPoints]
804,428.571428571429,4,2,1,100,1,0
13232,-100,4,1,1,70,0,0
14518,-100,4,2,1,100,0,0
20518,-100,4,1,1,70,0,0
21375,-100,4,2,1,100,0,0
27375,-100,4,1,1,70,0,0
28232,-100,4,2,1,100,0,0
34232,-100,4,1,1,70,0,0
35089,-100,4,2,1,100,0,1
40982,-100,4,1,1,70,0,1
41946,-100,4,2,1,100,0,1
47304,-100,4,1,1,70,0,1
48804,-100,4,2,1,100,0,0
54804,-100,4,1,1,70,0,0
55661,-100,4,2,1,100,0,0
60589,-100,4,1,1,70,0,0
62518,-100,4,2,1,100,0,0

[Colours]
Combo1 : 255,55,55
Combo2 : 255,255,255
Combo3 : 242,0,242
Combo4 : 255,255,89
Combo5 : 255,207,159
Combo6 : 0,255,255

[HitObjects]
112,56,803,1,0,0:0:0
144,120,1018,1,0,0:0:0
144,120,1125,1,0,0:0:0
232,176,1446,1,0,0:0:0
232,176,1554,1,0,0:0:0
320,120,1875,1,0,0:0:0
320,120,1982,1,0,0:0:0
376,208,2304,1,0,0:0:0
304,208,2518,6,0,B|304:128|304:128,1,70
232,136,2946,2,0,B|160:136|160:136,1,70
160,200,3375,1,0,0:0:0
104,232,3589,1,0,0:0:0
216,232,3804,1,0,0:0:0
160,272,4018,1,0,0:0:0
160,336,4232,1,0,0:0:0
232,336,4446,5,0,0:0:0
232,336,4554,1,0,0:0:0
304,256,4875,1,0,0:0:0
304,256,4982,1,0,0:0:0
232,184,5304,1,0,0:0:0
232,184,5411,1,0,0:0:0
152,256,5732,1,0,0:0:0
152,184,5946,2,0,B|72:192|16:72|152:32|152:32,2,210,0|0|2,0:0|0:0|0:0,0:0:0
280,128,7661,6,0,B|304:184|376:184,1,105
352,80,8303,1,2,0:0:0
288,56,8518,2,0,B|184:56|184:56,1,105
240,144,9161,1,2,0:0:0
312,144,9375,2,0,B|304:208|232:208,1,105
160,144,10018,1,2,0:0:0
160,216,10232,2,0,B|160:256|216:288,3,70,0|0|0|2,0:0|0:0|0:0|0:0,0:0:0
264,208,11089,6,0,B|336:224|352:128,1,105,0|0,0:0|0:0,0:0:0
264,88,11732,1,2,0:0:0
336,88,11946,2,0,B|432:136|432:136,1,105
352,208,12589,1,2,0:0:0
312,264,12803,1,0,0:0:0
208,168,13232,1,0,0:0:0
160,224,13446,1,0,0:0:0
88,152,13768,2,0,B|32:152,2,35
160,152,14196,2,0,B|200:152,2,35
160,152,14518,6,0,B|160:224|160:224,1,70,4|0,0:0|0:0,0:0:0
112,272,14946,1,2,0:0:0
160,320,15161,1,0,0:0:0
208,264,15375,2,0,B|256:264,1,35
312,264,15696,2,0,B|320:352|256:352,1,105,0|0,0:0|0:0,0:0:0
240,288,16232,6,0,B|176:232,1,70
256,216,16661,2,0,B|312:160,1,70,2|0,0:0|0:0,0:0:0
344,104,17089,2,0,B|256:104,1,70
200,104,17518,1,2,0:0:0
200,104,17625,1,0,0:0:0
200,104,17732,1,0,0:0:0
274,104,17946,6,0,B|322:168,1,70
312,232,18375,2,0,B|280:296,1,70,2|0,0:0|0:0,0:0:0
281,294,18696,1,0,0:0:0
238,238,18911,1,0,0:0:0
238,238,19018,1,0,0:0:0
199,179,19232,1,2,0:0:0
268,177,19446,5,0,0:0:0
232,116,19661,2,0,B|232:62|164:62,1,70
165,129,20089,2,0,B|165:176|106:176,1,70,2|0,0:0|0:0,0:0:0
120,248,20518,1,0,0:0:0
80,304,20732,1,0,0:0:0
136,344,20946,1,0,0:0:0
136,344,21054,1,0,0:0:0
136,344,21161,1,0,0:0:0
176,288,21375,5,4,0:0:0
232,248,21589,1,0,0:0:0
176,200,21804,1,2,0:0:0
240,176,22018,1,0,0:0:0
312,168,22232,2,0,B|312:240|408:240,1,105
392,136,22875,2,0,B|376:56|280:64,1,140
288,136,23518,1,2,0:0:0
232,184,23732,2,0,B|296:240|376:176,1,140
288,137,24375,5,2,0:0:0
218,128,24589,2,0,B|142:127|142:127,1,70
146,197,25018,2,0,B|224:198|224:198,1,70,0|2,0:0|0:0,0:0:0
216,264,25446,2,0,B|136:264|136:264,1,70
147,264,25768,1,0,0:0:0
77,265,25982,2,0,B|77:184|147:184,1,105
148,264,26518,5,2,0:0:0
196,208,26732,1,0,0:0:0
248,264,26946,1,0,0:0:0
292,204,27161,1,0,0:0:0
329,263,27375,2,0,B|405:263,2,70,0|0|0,0:0|0:0|0:0,0:0:0
328,263,27911,1,0,0:0:0
328,262,28018,1,0,0:0:0
292,204,28232,1,4,0:0:0
225,203,28446,5,0,0:0:0
154,204,28661,1,2,0:0:0
191,145,28875,2,0,B|190:93,1,35
263,114,29196,2,0,B|262:157,1,35
331,140,29518,2,0,B|331:187|388:187,1,70,2|2,0:0|0:0,0:0:0
402,122,29946,2,0,B|434:146|482:122,2,70,0|0|2,0:0|0:0|0:0,0:0:0
357,67,30589,1,0,0:0:0
357,67,30696,1,0,0:0:0
286,67,30911,5,0,0:0:0
286,67,31018,1,0,0:0:0
286,136,31232,1,2,0:0:0
216,136,31446,2,0,B|216:87|272:81,1,70,2|0,0:0|0:0,0:0:0
320,84,31875,2,0,B|364:91|360:164,1,70,0|2,0:0|0:0,0:0:0
320,192,32304,2,0,B|285:218|233:184,1,70
254,195,32625,1,0,0:0:0
193,199,32839,2,0,B|80:199|80:199,1,105
88,128,33375,5,2,0:0:0
126,69,33589,1,0,0:0:0
159,130,33804,1,0,0:0:0
193,68,34018,1,0,0:0:0
226,129,34232,2,0,B|290:161,2,70,0|0|0,0:0|0:0|0:0,0:0:0
227,129,34768,1,0,0:0:0
226,129,34875,1,0,0:0:0
159,129,35089,6,0,B|112:263|254:277,1,210,4|0,0:0|0:0,0:0:0
248,276,35839,1,0,0:0:0
244,208,36054,1,0,0:0:0
244,208,36161,1,0,0:0:0
312,224,36375,2,0,B|354:210|336:160,1,70,2|0,0:0|0:0,0:0:0
297,101,36804,1,0,0:0:0
366,101,37018,1,0,0:0:0
340,168,37232,5,2,0:0:0
340,168,37339,1,0,0:0:0
264,160,37554,2,0,B|180:160|180:160,1,70
195,160,37875,1,0,0:0:0
195,229,38089,2,0,B|273:229|273:229,1,70,2|0,0:0|0:0,0:0:0
264,160,38518,6,0,B|264:104|328:104,1,70
301,107,38839,1,0,0:0:0
335,163,39054,1,0,0:0:0
335,163,39161,2,0,B|414:200|455:123,2,140
378,108,40232,1,2,0:0:0
308,108,40446,1,0,0:0:0
342,46,40661,1,0,0:0:0
342,46,40768,1,0,0:0:0
272,46,40982,5,0,0:0:0
272,46,41089,1,0,0:0:0
240,108,41304,1,0,0:0:0
205,47,41518,1,0,0:0:0
171,108,41732,1,0,0:0:0
137,46,41946,2,0,B|97:46|97:101,1,70
97,93,42268,1,0,0:0:0
128,192,42589,5,0,0:0:0
128,192,42696,1,0,0:0:0
210,257,43018,1,0,0:0:0
210,257,43125,1,0,0:0:0
110,289,43446,1,0,0:0:0
110,289,43554,1,0,0:0:0
36,214,43875,1,0,0:0:0
36,214,43982,1,0,0:0:0
98,129,44303,5,0,0:0:0
98,129,44411,1,0,0:0:0
175,199,44732,1,0,0:0:0
175,199,44839,1,0,0:0:0
217,295,45161,1,0,0:0:0
288,296,45375,6,0,B|320:296|320:248|356:248,1,70
344,184,45804,1,2,0:0:0
344,184,45911,1,0,0:0:0
292,136,46125,1,0,0:0:0
256,196,46339,1,0,0:0:0
256,196,46446,1,0,0:0:0
179,184,46661,2,0,B|172:152|137:160|130:128,2,70,2|0|0,0:0|0:0|0:0,0:0:0
179,184,47303,5,0,0:0:0
231,137,47518,1,0,0:0:0
280,186,47732,2,0,B|280:234,4,35
280,188,48268,2,0,B|328:188|384:188,1,105
446,182,48803,6,0,B|447:101|447:101,1,70,4|0,0:0|0:0,0:0:0
376,110,49232,2,0,B|376:184|376:184,1,70,2|0,0:0|0:0,0:0:0
376,180,49553,1,0,0:0:0
312,148,49768,1,0,0:0:0
312,148,49875,1,0,0:0:0
312,80,50089,2,0,B|292:40|248:56,1,70,2|0,0:0|0:0,0:0:0
252,124,50518,6,0,B|252:184|196:184,1,70
220,180,50839,2,0,B|220:228|276:252,1,70
252,240,51161,2,0,B|336:248|336:332,1,140
268,320,51803,1,2,0:0:0
268,320,51911,1,0,0:0:0
268,320,52018,1,0,0:0:0
204,260,52232,6,0,B|148:288|96:252|88:176,1,140,0|2,0:0|0:0,0:0:0
308,260,53089,2,0,B|364:288|416:252|424:176,1,140,0|2,0:0|0:0,0:0:0
256,208,53946,2,0,B|256:56,1,140,0|2,0:0|0:0,0:0:0
180,172,54803,1,0,0:0:0
144,232,55018,1,0,0:0:0
212,232,55232,1,0,0:0:0
212,232,55339,1,0,0:0:0
212,232,55446,1,0,0:0:0
288,216,55661,6,0,B|288:296|384:296,1,140,4|0,0:0|0:0,0:0:0
356,224,56303,1,0,0:0:0
356,224,56411,1,0,0:0:0
356,156,56625,1,0,0:0:0
356,156,56732,1,0,0:0:0
352,88,56946,2,0,B|352:48|292:48,1,70
296,120,57375,6,0,B|296:200|296:200,2,70,0|0|2,0:0|0:0|0:0,0:0:0
368,120,58018,2,0,B|416:120,1,35
388,188,58339,1,0,0:0:0
388,188,58446,1,0,0:0:0
359,248,58661,2,0,B|392:276|424:248,2,70,2|0|0,0:0|0:0|0:0,0:0:0
288,248,59303,1,0,0:0:0
220,252,59518,2,0,B|220:316|140:340,1,105,2|2,0:0|0:0,0:0:0
128,236,60161,5,0,0:0:0
128,168,60375,1,0,0:0:0
196,168,60589,2,0,B|196:272|292:272,1,140,4|4,0:0|0:0,0:0:0
271,203,61232,2,0,B|271:115|383:115,1,140,4|0,0:0|0:0,0:0:0
360,116,61768,1,0,0:0:0
360,116,61875,1,0,0:0:0
360,116,61982,1,0,0:0:0
396,176,62196,1,0,0:0:0
396,176,62303,1,0,0:0:0
396,176,62411,1,0,0:0:0
396,176,62518,1,4,0:0:0
