osu file format v9

[General]
AudioFilename: 16 - Tsuki no Curse~short Ver..mp3
AudioLeadIn: 0
PreviewTime: 862
Countdown: 1
SampleSet: Soft
StackLeniency: 0.7
Mode: 0
LetterboxInBreaks: 1
CountdownOffset: 2

[Editor]
DistanceSpacing: 1
BeatDivisor: 4
GridSize: 8

[Metadata]
Title:Tsuki no Curse~Short Ver.
Artist:Weng Lingjia
Creator:arsrun
Version:Hard
Source:Loveless
Tags:Kajiura Yuki

[Difficulty]
HPDrainRate:4
CircleSize:4
OverallDifficulty:6
ApproachRate:6
SliderMultiplier:1.2
SliderTickRate:1

[Events]
//Background and Video events
0,0,"loveless.jpg"
//Break Periods
2,10253,12210
//Storyboard Layer 0 (Background)
//Storyboard Layer 1 (Fail)
//Storyboard Layer 2 (Pass)
//Storyboard Layer 3 (Foreground)
//Storyboard Sound Samples
//Background Colour Transformations
3,100,163,162,255

[TimingPoints]
1675,413.793103448276,4,2,0,80,1,0
4778,-200,4,2,0,60,0,0
5606,-100,4,2,0,80,0,0
6278,413.793103448276,4,2,0,80,1,0
8398,413.793103448276,4,2,0,60,1,0
10053,-100,4,2,0,5,0,0
13260,413.793103448276,4,2,0,80,1,0
84432,-100,4,2,0,5,0,0

[Colours]
Combo1 : 255,128,64
Combo2 : 5,240,5
Combo3 : 5,5,240
Combo4 : 255,128,255

[HitObjects]
192,256,847,2,0,B|248:304|320:248|320:248,1,120
376,128,1675,1,0
304,128,1881,1,0
232,128,2088,1,0
160,128,2295,1,0
160,64,2502,6,0,B|216:16|288:72|288:72,1,120
328,80,3123,2,0,B|400:128|376:192|376:192,1,120
360,240,3743,1,0
320,288,3950,1,0
256,288,4157,2,0,B|136:288|136:288,1,120
136,216,4778,6,0,B|96:168|120:104|120:104,1,120
288,80,6278,5,2
384,144,6691,1,2
320,248,7105,1,2
200,248,7519,1,2
144,144,7933,1,2
168,200,8140,1,0
256,192,8398,12,0,10053
256,128,13260,6,0,B|256:56|256:56,2,60
336,216,14087,2,0,B|408:216|408:216,2,60
256,304,14915,2,0,B|256:368|256:368,2,60
168,216,15742,2,0,B|104:216|104:216,2,60
192,72,16570,6,0,B|264:32|328:88|328:88,1,120
408,144,17397,2,0,B|448:216|400:280|400:280,1,120
312,320,18225,2,0,B|256:360|176:312|176:312,1,120
112,232,19053,2,0,B|72:160|120:96|120:96,1,120
152,72,19673,1,0
208,72,19880,1,0
328,72,20294,1,0
328,192,20708,1,0
208,192,21122,1,0
208,312,21535,2,0,B|128:312|128:312,2,60
328,312,22363,6,0,B|400:312|400:312,2,60
328,192,23191,1,0
448,192,23604,1,0
448,72,24018,1,0
328,72,24432,1,0
208,72,24846,2,0,B|144:72|144:72,2,60
208,192,25673,2,0,B|128:192|128:192,2,60
120,272,26501,5,0
120,152,26915,1,0
120,32,27328,1,0
184,32,27535,1,0
248,32,27742,1,0
336,112,28156,2,0,B|432:192|432:192,1,120
464,304,28984,1,0
400,304,29191,1,0
336,304,29397,1,0
256,304,29604,6,0,B|224:304|224:304,2,30
256,240,30018,2,0,B|224:240|224:240,4,30
256,176,30639,2,0,B|224:176|224:176,4,30
320,176,31259,6,0,B|360:176|360:176,2,30
320,240,31673,2,0,B|360:240|360:240,4,30
320,304,32294,2,0,B|352:304|352:304,4,30
408,256,32915,5,0
448,208,33122,2,0,B|448:136|360:104|360:104,1,120
272,64,33949,2,0,B|192:32|144:104|144:104,1,120
80,176,34777,1,0
120,216,34984,1,0
160,256,35191,1,0
208,288,35397,2,0,B|328:288|328:288,1,120
352,240,36018,5,0
352,184,36225,1,0
352,120,36432,2,0,B|272:120|272:120,2,60
256,48,37260,2,0,B|320:48|320:48,2,60
192,48,37880,1,0
152,88,38087,1,0
112,136,38294,1,0
152,184,38501,1,0
200,224,38708,1,0
240,264,38915,2,0,B|320:264|320:264,1,60
280,320,39328,2,0,B|352:320|352:320,1,60
400,320,39742,6,0,B|456:272|392:216|392:216,1,120
280,168,40570,2,0,B|224:120|280:64|280:64,1,120
224,64,41191,1,0
192,64,41294,1,0
160,64,41397,1,0
160,128,41604,2,0,B|224:128|224:128,1,60
224,192,42018,2,0,B|160:192|160:192,1,60
160,256,42432,1,0
192,256,42535,1,0
224,256,42639,1,0
344,256,42846,5,0
344,192,43053,2,0,B|440:112|440:112,1,120
336,48,43880,2,0,B|240:128|240:128,1,120
200,168,44501,1,0
176,192,44604,1,0
152,216,44708,1,0
112,264,44915,1,0
152,312,45122,1,0
184,312,45225,1,0
216,312,45328,1,0
248,312,45432,1,0
280,312,45535,5,0
400,312,45949,1,0
400,192,46363,2,0,B|400:64|400:64,1,120
288,112,47191,1,0
240,72,47397,1,0
200,112,47604,1,0
160,72,47811,1,0
112,112,48018,2,0,B|64:168|128:240|128:240,1,120
160,264,48639,1,0
216,280,48846,1,0
272,256,49053,1,0
296,200,49260,1,0
360,96,49673,6,0,B|288:56|240:104|240:104,1,120
128,96,50501,2,0,B|200:56|256:104|256:104,1,120
192,208,51328,2,0,B|112:208|112:208,2,60
312,208,52156,2,0,B|384:208|384:208,2,60
368,312,52984,2,0,B|296:352|248:304|248:304,1,120
136,312,53811,2,0,B|208:352|264:304|264:304,1,120
320,216,54639,2,0,B|400:216|400:216,2,60
200,216,55466,2,0,B|136:216|136:216,2,60
256,112,56294,1,0
256,168,56501,1,0
256,232,56708,1,0
192,328,57122,6,0,B|120:328|120:328,2,60
312,328,57949,2,0,B|384:328|384:328,2,60
304,120,58777,6,0,B|376:120|376:120,2,60
184,120,59604,2,0,B|128:80|72:120|72:120,1,120
144,216,60432,2,0,B|80:216|80:216,2,60
264,216,61260,2,0,B|328:256|392:208|392:208,1,120
344,104,62087,1,0
280,104,62294,1,0
216,104,62501,2,0,B|88:104|88:104,1,120
112,224,63328,2,0,B|240:224|240:224,1,120
296,224,63949,1,0
360,224,64156,1,0
424,128,64570,2,0,B|368:80|312:128|312:128,1,120
192,128,65397,2,0,B|136:80|80:128|80:128,1,120
184,304,66225,5,0
248,304,66432,1,0
312,304,66639,1,0
400,224,67053,1,0
400,160,67260,1,0
400,96,67466,1,0
304,24,67880,1,0
240,24,68087,1,0
176,24,68294,1,0
80,96,68708,1,0
80,160,68915,1,0
80,224,69122,1,0
184,160,69535,6,0,B|264:160|264:160,2,60
280,232,70363,2,0,B|200:232|200:232,2,60
256,112,71191,1,0
136,112,71604,1,0
136,232,72018,1,0
256,232,72432,1,0
320,232,72639,1,0
320,232,72846,2,0,B|368:176|312:128|312:128,1,120
192,104,73673,5,0
72,104,74087,1,0
72,224,74501,1,0
192,224,74915,1,0
256,224,75122,1,0
256,224,75328,2,0,B|256:152|256:152,2,60
376,224,76156,2,0,B|424:160|360:104|360:104,1,120
176,120,76984,6,0,B|176:240|176:240,1,120
296,240,77811,2,0,B|296:120|296:120,1,120
208,40,78639,2,0,B|288:40|288:40,2,60
208,160,79466,1,0
248,208,79673,1,0
288,256,79880,1,0
344,256,80087,1,0
400,256,80294,1,0
400,200,80501,1,0
344,144,80915,6,0,B|224:144|224:144,1,120
176,104,81535,1,0
144,56,81742,1,0
216,152,82156,1,0
256,200,82363,1,0
256,192,82570,12,0,84432
