osu file format v5

[General]
AudioFilename: Weird Al Yankovic - White and Nerdy.mp3
AudioLeadIn: 0
PreviewTime: 13780
Countdown: 1
SampleSet: Normal
StackLeniency: 0.7
Mode: 0
LetterboxInBreaks: 1

[Metadata]
Title:White And Nerdy
Artist:Weird Al Yankovic
Creator:James2250
Version:Normal
Source:
Tags:

[Difficulty]
HPDrainRate:3
CircleSize:5
OverallDifficulty:5
SliderMultiplier:1
SliderTickRate:2

[Events]
//Background and Video events
1,0,"Weird_Al__Yankovic_-_White_&_Nerdy (video_flv).avi"
0,0,"oreilly-javascript-in-weird-al-yankovic-white-and-nerdy-music-video.jpg"
//Break Periods
2,30239,32136
2,73456,79758
2,97595,99912
2,140798,146891
//Storyboard Layer 0 (Background)
//Storyboard Layer 1 (Failing)
//Storyboard Layer 2 (Passing)
//Storyboard Layer 3 (Foreground)
//Storyboard Sound Samples
//Background Colour Transformations
3,100,163,162,255

[TimingPoints]
1722,419.58041958042,4,1,0,100,1

[HitObjects]
96,96,6966,1,0
144,96,7176,1,0
192,96,7386,1,0
240,96,7596,2,0,B|352:96,1,100,0|4
344,344,9064,5,0
296,344,9274,1,0
192,344,9694,2,0,B|192:232,1,100,0|4
192,96,10742,1,0
240,96,10952,2,0,B|360:96,1,100
392,96,11582,1,0
392,144,11791,1,0
392,192,12001,2,0,B|392:256,1,50
344,240,12421,1,0
296,240,12631,1,0
296,336,13050,1,0
344,336,13260,2,0,B|408:336,1,50
392,288,13680,6,0,B|392:216,2,50,0|0|0
344,288,14309,1,0
344,240,14519,1,0
344,192,14728,2,2,B|344:120,1,50
240,144,15358,5,0
192,144,15568,1,0
192,96,15777,2,0,B|136:96,1,50
88,96,16197,1,0
88,144,16407,2,2,B|88:216,1,50
88,296,17036,6,0,B|144:296,2,50
88,248,17666,1,0
136,248,17875,1,0
136,200,18085,2,2,B|72:200,1,50
80,96,18715,5,0
128,96,18924,1,0
176,96,19134,2,0,B|176:24,2,50
224,96,19763,2,2,B|296:96,1,50
376,96,20393,5,0
376,144,20603,1,0
376,192,20812,1,0
376,240,21022,2,0,B|424:240|448:336|440:320,1,100,0|4
184,312,22491,5,0
136,312,22701,2,0,B|136:200,1,100,0|4
328,56,24169,5,0
376,56,24379,1,0
472,56,24798,1,0
472,104,25008,2,0,B|472:168,1,50
472,200,25428,1,0
472,248,25638,2,0,B|400:248,2,50
368,248,26477,2,0,B|368:320,2,50
320,248,27106,6,0,B|256:248,1,50
272,200,27526,1,0
224,200,27735,2,0,B|224:264,1,50
176,248,28155,1,2
128,248,28365,1,2
128,144,28784,5,0
128,96,28994,2,0,B|88:56,1,50
144,64,29414,1,0
192,64,29624,1,0
240,64,29833,2,2,B|280:8,1,50
336,248,33190,6,2,B|336:312,2,50
288,248,33819,1,0
288,200,34029,2,0,B|368:200,1,75
368,120,34659,5,0
368,72,34868,2,0,B|296:72,1,50
264,72,35288,2,0,B|192:72,1,50
160,72,35708,1,2
160,144,36022,1,2
160,216,36337,6,0,B|88:216,1,50
112,264,36756,1,0
112,312,36966,1,0
160,312,37176,2,0,B|160:376,2,50
256,312,38015,5,0
256,264,38225,1,0
256,216,38435,1,0
304,216,38645,1,0
352,216,38854,1,0
352,168,39064,2,0,B|416:168,2,50
352,120,39694,6,0,B|288:120,1,50
248,120,40113,1,0
248,72,40323,1,0
200,72,40533,1,0
152,72,40742,1,0
152,120,40952,2,2,B|88:120,1,50
104,216,41582,6,0,B|168:216,1,50
152,264,42001,1,0
200,264,42211,1,0
248,264,42421,1,0
248,216,42631,2,2,B|176:216,1,50,2|2
192,112,43260,6,0,B|304:112,1,100
296,160,43889,2,0,B|368:160,1,50,0|0
392,160,44309,2,2,B|392:88,1,50
288,112,44938,2,0,B|288:40,2,50
240,112,45568,1,0
192,112,45777,1,0
144,112,45987,2,2,B|80:112,1,50,0|4
96,160,46407,5,0
96,208,46617,2,0,B|120:256|152:224,1,50
176,256,47036,2,0,B|208:288|240:272,1,50
272,280,47456,1,0
320,280,47666,2,2,B|384:280,1,50
368,176,48295,5,0
320,176,48505,2,0,B|296:224|264:192,1,50
240,232,48924,2,0,B|208:264|176:248,1,50
168,256,49239,1,0
120,256,49449,1,2
120,208,49659,1,2
120,136,49973,6,0,B|192:136,1,50
216,136,50393,1,0
312,136,50812,2,0,B|360:88,1,50
400,104,51232,2,0,B|400:176,1,50
400,200,51652,6,0,B|400:320,3,100
224,200,53749,2,0,B|128:200,2,75
224,248,54589,2,2,B|144:248,1,75
152,320,55218,5,0
104,320,55428,2,0,B|104:392,1,50
56,368,55847,2,0,B|56:312,1,50
56,264,56267,2,2,B|136:264,1,75
304,264,57316,6,0,B|368:264,1,50
360,216,57735,1,0
360,168,57945,2,2,B|272:168,1,75
208,168,58575,5,0
160,168,58784,2,0,B|128:128,1,50
128,80,59204,1,0
176,80,59414,1,0
224,80,59624,2,2,B|144:128,1,75
152,216,60358,6,0,B|152:296|152:296|376:296,1,300
376,224,61931,1,0
424,224,62141,2,0,B|424:336,3,100
376,328,63610,1,0
328,328,63819,2,0,B|264:328,1,50
224,328,64239,2,0,B|128:328,1,75
152,248,64868,5,0
104,256,65078,2,0,B|40:288,1,50
56,224,65498,1,0
56,176,65708,1,0
56,128,65917,2,0,B|144:56,1,100
232,64,66756,5,0
280,64,66966,1,0
280,112,67176,1,0
280,160,67386,1,0
328,160,67596,2,2,B|328:64,1,75
328,32,68120,1,0
400,32,68435,6,0,B|400:96,1,50
400,128,68854,1,0
400,176,69064,1,0
400,224,69274,1,0
400,296,69589,2,2,B|360:328|336:312,1,50
280,320,70113,6,0,B|216:320,3,50
176,320,70952,2,0,B|112:320,1,50
128,272,71372,1,2
128,224,71582,1,2
136,176,71791,6,0,B|152:112,1,50,0|0
152,80,72211,2,0,B|80:72,1,50
112,24,72631,2,0,B|184:16,2,50,0|0|2
264,208,80812,6,0,B|264:272,2,50
312,208,81442,1,0
360,208,81652,1,0
360,160,81861,1,2
360,112,82071,1,2
256,112,82491,5,0
208,112,82701,1,0
160,112,82910,1,0
112,112,83120,1,0
112,160,83330,1,0
112,208,83540,2,2,B|112:272,1,50
208,264,84169,5,0
208,312,84379,1,0
256,312,84589,1,0
304,312,84798,1,0
352,312,85008,2,2,B|352:376,2,50
448,312,85847,6,0,B|448:248,2,50
400,312,86477,1,0
400,264,86687,1,0
400,216,86896,2,2,B|400:160,1,50
400,64,87526,5,0
352,64,87735,1,0
304,64,87945,1,0
256,64,88155,2,0,B|256:176,1,100,0|4
72,336,89624,5,0
72,288,89833,2,0,B|72:176,1,100,0|4
320,184,91302,5,0
320,136,91512,2,0,B|216:136,1,100
224,88,92141,1,0
176,88,92351,1,0
176,136,92561,1,0
176,184,92770,2,0,B|144:240,1,50
200,232,93190,1,0
296,232,93610,2,0,B|296:168,1,50
344,184,94029,1,0
392,184,94239,6,0,B|456:184,1,50
440,232,94659,1,0
440,280,94868,1,0
392,280,95078,2,2,B|392:352,2,50
288,280,95917,6,0,B|288:344,2,50
240,280,96547,1,0
240,232,96756,1,0
240,184,96966,2,2,B|176:184,1,50
384,192,100952,6,0,B|320:192,1,50
280,192,101372,1,0
232,192,101582,1,0
184,192,101791,1,0
136,192,102001,2,0,B|136:128,2,50
136,240,102631,2,0,B|32:240,1,100
40,192,103260,2,0,B|40:120,1,50
40,88,103680,6,0,B|56:72|112:72|88:88,1,50
136,72,104099,2,2,B|152:56|208:56|192:80,1,50
232,56,104519,2,0,B|248:40|304:40|280:64,1,50
328,40,104938,2,2,B|344:24|400:24|384:40,1,50
376,80,105358,1,0
376,128,105568,6,0,B|392:144|352:136|400:168,1,50
400,216,105987,2,2,B|416:232|448:232|448:256,1,50
440,288,106407,2,0,B|456:304|472:336|496:320,1,50
432,344,106826,2,2,B|448:360|376:384|384:352,2,50
392,312,107456,6,0,B|296:312,2,75
392,232,108400,2,0,B|312:232,1,75
320,152,109029,1,0
240,152,109344,2,0,B|160:152,1,75
88,152,109973,2,2,B|88:240,1,75
88,304,110603,5,0
136,304,110812,2,0,B|248:304,1,100
232,152,111861,2,0,B|336:56,1,125
400,64,112701,1,0
400,112,112910,2,0,B|400:192,1,75
352,192,113435,2,0,B|352:264,1,50,0|0
232,208,114169,5,0
184,208,114379,1,0
184,256,114589,1,0
184,304,114798,1,0
232,304,115008,2,2,B|296:304,1,50
280,256,115428,5,0
280,208,115638,1,0
280,160,115847,1,0
232,160,116057,1,0
184,160,116267,1,0
136,160,116477,2,0,B|64:160,1,50
80,256,117106,5,0
80,304,117316,2,0,B|144:304,1,50
176,304,117735,1,0
176,256,117945,1,0
224,256,118155,1,0
272,256,118365,1,0
272,152,118784,5,0
224,152,118994,1,0
176,152,119204,1,0
128,152,119414,2,0,B|128:88,1,50
128,48,119833,1,0
176,48,120043,2,0,B|240:56,1,50
272,56,120463,6,0,B|296:88|328:64,1,50
360,80,120882,2,2,B|384:112|408:88,3,50
400,192,121931,6,0,B|336:192,1,50
296,192,122351,2,0,B|224:192,2,50
296,240,122980,2,0,B|296:296,1,50
248,288,123400,5,0
200,288,123610,1,0
200,240,123819,2,0,B|136:240,1,50
96,240,124239,1,0
96,192,124449,2,2,B|160:192,2,50
152,104,125288,5,8
200,104,125498,1,8
248,104,125708,2,0,B|312:104,1,50
296,152,126127,1,0
344,152,126337,1,0
392,152,126547,1,0
392,248,126966,2,2,B|376:288|344:264,2,50
296,272,127805,5,0
248,272,128015,1,0
200,272,128225,1,0
200,224,128435,2,0,B|264:224,1,50
248,176,128854,1,0
248,128,129064,1,0
144,128,129484,6,0,B|144:64,1,50
144,24,129903,1,0
192,24,130113,2,0,B|256:24,1,50
288,24,130533,1,0
288,176,131162,5,0
288,224,131372,1,0
288,272,131582,2,0,B|352:272,1,50
336,320,132001,1,0
288,320,132211,1,0
240,320,132421,1,0
192,320,132631,2,0,B|192:256,1,50
192,216,133050,6,0,B|256:216,1,50
240,168,133470,2,0,B|240:80,1,75
312,96,134099,2,2,B|312:160,2,50
336,96,134624,1,0
408,96,134938,2,2,B|408:32,1,50
456,48,135358,2,0,B|456:96,1,25
456,144,135777,6,0,B|440:104|408:144,3,50
368,136,136617,2,0,B|352:96|320:120,3,50
232,120,137666,6,0,B|160:120,2,50
232,168,138295,1,0
232,216,138505,2,0,B|392:216,1,150
384,136,139449,6,0,B|448:136,2,50
384,56,140183,1,0
336,56,140393,2,0,B|272:56,1,50
32,192,147945,6,0,B|96:192,2,50
32,240,148575,1,0
32,288,148784,1,0
80,288,148994,1,2
128,288,149204,1,2
224,288,149624,5,0
272,288,149833,1,0
272,240,150043,2,0,B|272:176,1,50
272,136,150463,2,2,B|200:136,1,50,0|2
168,136,150882,1,2
64,136,151302,6,0,B|64:200,2,50
112,136,151931,1,0
160,136,152141,1,0
160,184,152351,2,2,B|224:184,1,50
208,280,152980,5,0
256,280,153190,1,0
256,232,153400,2,0,B|192:232,1,50
208,184,153819,1,0
208,136,154029,2,0,B|280:136,1,50,0|2
360,128,154659,6,0,B|328:152|296:128,2,50
368,176,155288,2,0,B|368:288,1,100,0|4
120,264,156756,2,0,B|48:264,1,50
72,160,157386,1,4
320,160,158435,5,0
368,160,158645,1,0
464,160,159064,2,0,B|464:224,2,50
416,160,159694,1,0
368,160,159903,1,0
368,112,160113,1,0
368,64,160323,1,0
264,64,160742,5,0
216,64,160952,2,0,B|176:112,1,50
184,152,161372,2,2,B|232:152,2,25
184,200,161791,1,0
184,248,162001,1,0
136,248,162211,1,0
88,248,162421,2,0,B|88:184,1,50
88,96,163050,5,2
136,96,163260,1,2
136,48,163470,2,0,B|72:48,1,50
32,48,163889,1,0
32,96,164099,2,0,B|32:160,1,50
256,192,164728,12,4,167875
