osu file format v5

[General]
AudioFilename: Weird Al Yankovic - Trapped in the Drive Thru.mp3
AudioLeadIn: 1037
PreviewTime: 159868
Countdown: 1
SampleSet: Soft
StackLeniency: 0.7
Mode: 0
LetterboxInBreaks: 1
EditorDistanceSpacing: 1.29999995231628

[Metadata]
Title:Trapped in the Drive-Thru
Artist:Weird Al Yankovic
Creator:Larto
Version:Wtf
Source:
Tags:

[Difficulty]
HPDrainRate:5
CircleSize:5
OverallDifficulty:7
SliderMultiplier:2.1
SliderTickRate:1

[Events]
//Background and Video events
0,0,"may_drive_thru_ba_sa_langit_by_dyam_II.jpg"
//Break Periods
2,201947,206750
//Storyboard Layer 0 (Background)
//Storyboard Layer 1 (Fail)
//Storyboard Layer 2 (Pass)
//Storyboard Layer 3 (Foreground)
Animation,Foreground,Centre,"prettynotes.PNG",320,240,3,500 F,0,2928,,0 F,0,2928,3484,0,1 M,0,3484,21262,320,240
Sprite,Foreground,Centre,"sevenoclock.png",320,240 F,0,21262,,1 M,0,22373,,320,240
Animation,Foreground,Centre,"prettynotes.PNG",320,240,3,500 M,0,3484,21262,320,240
Sprite,Foreground,Centre,"bgw.png",320,240 S,0,18484,,1.17408 F,0,18484,21262,0,1
Sprite,Foreground,Centre,"onemoreminute.png",320,240 F,0,22234,22373,0,1 F,0,22373,23484,1 F,0,23484,,1
Animation,Foreground,Centre,"stupidontv.png",320,240,2,500 F,0,23484,25012,1 F,0,25012,25706,1
Sprite,Foreground,Centre,"sittingoncouch.png",320,240 M,0,25706,27928,320,240
Sprite,Foreground,Centre,"wifeenters.png",320,240 F,0,27650,27928,0,1 M,0,27928,30150,320,240
//Storyboard Sound Samples
//Background Colour Transformations
3,100,163,162,255

[TimingPoints]
1262,555.555555555556,4,2,0,33,1,0
3340,-100,4,1,0,33,0,0
3617,-100,4,2,0,33,0,0
7784,-100,4,1,0,33,0,0
8061,-100,4,2,0,33,0,0
12229,-100,4,1,0,33,0,0
12506,-100,4,2,0,33,0,0
14451,-100,4,1,0,33,0,0
14728,-100,4,2,0,33,0,0
16800,-100,4,1,0,33,0,0
16949,-100,4,2,0,33,0,0
18409,-100,4,2,0,33,0,0
18757,-100,4,2,0,33,0,0
18964,-100,4,2,0,33,0,0
19241,-100,4,2,0,33,0,0
19518,-100,4,2,0,33,0,0
19795,-100,4,2,0,33,0,0
20072,-100,4,2,0,33,0,0
20349,-100,4,2,0,33,0,0
20626,-100,4,2,0,33,0,0
20903,-100,4,2,0,33,0,0
21180,-100,4,2,0,33,0,0
25562,-100,4,1,0,33,0,0
25839,-100,4,2,0,33,0,0
30007,-100,4,1,0,33,0,0
30284,-100,4,2,0,33,0,0
34450,-100,4,1,0,33,0,0
34727,-100,4,2,0,33,0,0
39034,-100,4,1,0,33,0,0
39172,-100,4,2,0,33,0,0
41118,-100,4,1,0,33,0,0
41395,-100,4,2,0,33,0,0
160012,-50,4,2,0,33,0,0
160289,-100,4,2,0,0,0,0
160358,-100,4,2,0,33,0,0
198868,-100,4,2,0,33,0,0
199680,-100,4,2,0,18,0,0
200776,-100,4,2,0,8,0,0
385376,365.185636031649,4,1,0,33,1,0
386311,365.185636031649,4,1,0,33,1,0
401892,-100,4,2,0,32,0,0
402020,555.555555555556,4,2,0,33,1,0
640908,2666.66666666667,4,2,0,50,1,0
641141,-100,4,2,0,37,0,0
641473,-100,4,2,0,30,0,0
641807,-100,4,2,0,21,0,0
642140,-100,4,2,0,13,0,0

[Colours]
Combo1 : 119,71,0
Combo2 : 27,143,45
Combo3 : 3,66,143
Combo4 : 109,30,3

[HitObjects]
256,192,1540,1,0
256,192,1818,1,2
256,192,2095,1,2
256,192,2373,1,0
256,192,2651,1,2
256,192,2929,1,2
256,192,3206,1,0
256,192,3484,1,4
328,240,3762,5,0
408,216,4039,1,0
456,152,4317,1,0
456,64,4595,6,2,B|408:104|344:136|232:152|128:96,1,315,2|0
80,144,5706,2,2,B|128:184|192:216|336:216|408:176,1,315,2|0
448,232,6817,2,2,B|400:264|328:288|224:288|120:256,1,315,2|0
80,320,7928,6,0,C|32:264|88:200|32:144|88:80|24:16,1,420,4|2
152,24,9317,1,0
152,24,9456,1,0
152,23,9595,2,0,C|213:85|157:149|213:205|157:269,1,315,2|0
112,304,10706,5,0
184,344,10984,1,2
256,304,11262,1,2
328,344,11539,1,0
400,304,11817,1,2
472,344,12095,1,2
472,256,12373,6,0,C|400:184|328:256|256:184|176:256,1,420,4|2
32,336,14039,5,0
40,248,14317,1,0
56,168,14595,2,0,C|128:96|200:168|272:96|352:168,3,420,4|2|4|2
256,224,18206,5,2
256,224,18345,1,2
256,224,18484,2,2,C|256:256,40,26.25,0|0|0|0|0|0|0|0|0|0|0|0|0|0|0|0|0|0|0|0|0|0|0|0|0|0|0|0|0|0|0|0|0|0|0|0|0|0|0|0|2
360,280,21817,5,0
392,240,21956,1,0
392,192,22095,1,0
384,144,22234,2,0,B|368:88|336:48|296:32,1,105
288,24,22650,1,0
240,16,22789,2,0,B|184:0|144:48,1,105
128,80,23206,1,0
112,120,23345,1,0
104,168,23484,6,2,B|144:224|192:248|240:264|288:256|328:232,2,210
112,64,24873,1,0
224,112,25150,1,2
344,176,25428,1,0
464,224,25706,6,0,B|424:280|376:304|328:320|280:312|240:288,2,210,4|2|4
464,224,27095,1,0
336,232,27373,1,0
216,256,27650,5,0
216,256,27789,1,0
216,256,27928,2,0,B|176:232|160:272|112:248,1,105
96,192,28345,2,0,B|144:216|184:176|216:200,1,105
200,144,28762,1,0
200,144,28900,1,0
200,144,29039,2,2,C|232:120|272:144|312:120|352:144|392:120|432:144|472:120,1,315
464,240,30150,5,4
312,336,30428,5,0
264,344,30567,1,0
216,352,30706,2,2,B|176:360|104:352,1,105
8,352,31262,2,0,B|48:360|120:352,1,105,0|0
216,352,31817,2,0,B|176:360|104:352,1,105
40,248,32373,6,0,C|72:224|112:248|152:224|192:248|232:224,1,210
320,240,33206,1,0
400,176,33484,6,0,C|368:152|328:176|288:152|248:176|208:152,1,210
120,168,34317,1,0
184,80,34595,5,4
288,64,34873,5,0
392,72,35150,1,0
464,152,35428,1,0
464,152,35567,1,0
464,152,35706,2,0,B|464:224|424:272|344:288,1,157.5
304,152,36539,5,0
304,152,36678,1,0
304,152,36817,2,0,B|304:224|344:272|424:288,1,157.5
392,120,37650,5,0
392,120,37789,1,0
392,120,37928,2,0,B|336:96|288:88,1,105
240,88,38345,2,0,B|184:88|128:104,1,105
88,128,38762,2,0,B|48:168|32:224,1,105,0|4
256,328,39734,5,0
256,288,39873,1,0
256,248,40012,1,0
216,216,40150,2,2,B|216:208|232:192|248:184|264:184|280:192|296:208|296:224,3,105
256,304,41262,1,4
416,304,41678,5,0
416,304,41817,1,0
400,200,42095,1,0
304,152,42373,2,0,B|248:136|192:160,1,105
280,224,42928,2,0,B|232:240|168:232,1,105
80,192,43484,1,0
320,96,44178,5,0
320,96,44317,1,0
216,112,44595,2,0,B|160:112|160:64,2,52.5
280,192,45150,2,0,B|296:256|368:272,1,105
456,264,45706,2,0,B|440:328|376:336,1,105
280,336,46262,2,0,B|256:296|200:264,1,105
112,216,46817,1,0
112,216,47095,1,0
112,216,47373,1,0
352,64,48067,5,0
352,64,48206,1,0
456,128,48484,2,0,B|304:128,1,105
456,192,49039,2,0,B|344:192,1,105
456,256,49595,1,0
160,320,50289,5,0
160,320,50428,1,0
56,256,50706,2,0,B|208:256,1,105
56,192,51261,2,0,B|168:192,1,105
56,128,51817,1,0
256,72,52373,5,0
312,160,52650,1,0
256,256,52928,1,0
200,160,53206,1,0
256,72,53484,1,0
256,72,53623,1,0
256,72,53762,1,0
256,72,53900,1,0
256,72,54039,1,0
256,72,54178,1,0
256,72,54317,1,0
256,72,54456,1,0
360,72,54734,6,0,B|440:72,1,52.5
464,160,55150,1,0
360,160,55428,1,0
464,240,55706,1,0
360,240,55984,1,0
464,312,56262,1,0
360,312,56539,1,0
256,272,56817,6,0,B|192:272|144:320,1,105
256,272,57373,2,0,B|320:272|368:320,1,105
256,272,57928,2,0,B|256:144,1,105
336,104,58484,1,0
256,64,58762,1,0
256,64,58900,1,0
176,104,59178,1,0
256,167,59456,2,0,B|256:336,1,157.5
152,320,60150,6,0,B|56:320,1,52.5
48,320,60428,2,0,B|24:320|24:272,1,52.5
72,272,60706,2,0,B|128:272,1,52.5
176,272,60984,1,0
208,88,61539,5,0
208,88,61678,1,0
208,88,61817,1,0
304,88,62095,1,0
304,88,62234,1,0
304,88,62373,1,0
256,240,62789,6,0,B|256:312,1,52.5
344,240,63206,1,0
256,176,63484,1,0
168,232,63762,1,0
256,288,64039,1,0
344,240,64317,1,0
256,176,64595,2,0,B|160:152|256:120|256:120|336:88|248:56,1,210
392,112,65706,5,0
392,112,65845,1,0
392,112,65984,1,0
392,224,66262,2,0,C|368:280|296:288,1,105
208,280,66817,1,0
152,296,66956,1,0
104,264,67095,1,0
160,240,67234,1,0
120,112,68067,5,0
120,112,68206,1,0
120,112,68345,1,0
120,112,68484,2,0,C|144:168|216:176,1,105
304,176,69039,1,0
360,192,69178,1,0
408,160,69317,1,0
352,136,69456,1,0
256,288,70150,5,0
256,168,70428,2,0,C|256:48,1,105
144,104,70984,1,0
144,104,71123,1,0
144,104,71262,1,0
144,104,71400,1,0
144,104,71539,1,0
144,104,71678,2,0,C|136:128|144:152|136:184|144:208|136:232|144:256,1,157.5
248,304,72373,5,0
248,304,72512,6,0,C|304:320,1,52.5
288,264,72789,2,0,C|344:256,1,52.5
296,216,73067,2,0,C|344:192,1,52.5
256,152,73484,1,0
256,152,73762,1,0
256,152,73900,2,0,C|248:128|256:104|248:72|256:48|248:24|256:0,1,157.5
112,104,74734,5,0
112,104,74873,2,0,B|64:160|104:200,1,105
208,160,75428,2,0,B|264:224|200:272,1,105
104,264,75984,2,0,B|48:328|112:376,1,105,0|0
208,352,76539,5,0
264,352,76678,1,0
320,352,76817,2,0,B|448:352,1,105
456,304,77234,2,0,B|328:304,1,105
320,256,77650,2,0,B|432:256,1,105
376,168,78345,5,0
376,168,78623,1,0
376,168,78900,1,0
192,48,79595,6,0,B|208:24|248:24|408:16|352:120|360:176|256:144|256:144|256:272,1,420
248,352,80984,1,0
248,352,81262,1,0
40,304,81956,6,0,B|16:176,4,70
40,304,82928,2,0,B|112:336|160:320|184:272|152:208,1,210
344,72,84178,5,0
344,72,84317,1,0
448,272,84873,5,0
280,224,85289,5,0
232,256,85428,1,0
184,232,85567,1,0
144,264,85706,1,0
96,240,85845,1,0
144,64,86400,5,0
200,64,86539,1,0
256,64,86678,1,0
312,64,86817,2,0,B|416:64,1,70
456,64,87187,1,0
416,120,87373,2,0,B|200:120,1,210
120,176,88206,5,0
120,232,88345,1,0
208,176,88623,5,0
208,232,88762,1,0
208,288,88900,1,0
304,176,89178,5,0
304,232,89317,1,0
304,288,89456,1,0
384,176,89734,5,0
384,232,89873,1,0
384,288,90012,1,0
440,288,90150,1,0
496,288,90289,1,0
256,192,90706,12,4,92373
448,80,92789,6,0,B|384:56,1,52.5
352,96,93067,2,0,B|304:120,1,52.5
248,104,93345,2,0,B|192:80,1,52.5
88,48,93762,1,0
88,160,94039,1,0
208,328,94734,5,0
208,328,94873,2,0,B|352:328,2,105
304,264,95706,5,0
304,264,95845,1,0
304,264,95984,2,0,B|160:264,2,105
392,160,96817,5,0
256,160,97095,1,0
120,160,97373,1,0
88,112,97512,1,0
120,64,97650,1,0
232,64,97928,2,0,B|280:104|352:104|392:88|432:48,2,210
144,144,99317,5,0
256,144,99595,1,0
368,144,99873,1,0
424,248,100150,1,0
368,272,100289,1,0
312,272,100428,1,0
224,216,100706,6,0,B|176:192|128:224|128:224|96:192|8:216,1,210,0|0
23,212,101400,1,0
23,212,101539,1,0
88,304,101817,1,0
88,304,101956,1,0
88,304,102095,1,0
200,312,102373,1,0
200,312,102512,1,0
200,312,102650,1,0
200,312,102789,1,0
200,312,102928,1,0
200,312,103067,1,0
200,312,103206,1,0
200,312,103345,1,0
312,240,103623,5,0
256,40,104039,1,0
200,240,104456,1,0
200,240,104595,2,0,C|136:264|80:216|-8:288,2,210
192,120,157095,5,0
328,120,157373,1,0
328,264,157650,1,0
192,264,157928,1,0
224,200,158113,1,0
288,200,158299,1,0
328,264,158484,1,0
376,264,158623,6,0,B|432:264,2,52.5
232,336,159178,2,0,B|288:336,2,52.5,0|0|0
136,264,159734,2,0,B|192:264,1,52.5
192,160,160150,6,0,L|208:152|224:160|240:152|256:160|272:152|288:160,1,105
368,160,160428,5,0
256,48,160706,1,0
144,160,160984,1,0
256,272,161262,1,0
256,272,161539,1,0
256,272,161817,1,0
256,272,162095,1,0
144,272,162373,5,0
368,272,162789,1,0
352,48,163484,5,0
344,120,163669,1,0
304,176,163854,1,0
256,224,164039,1,0
208,176,164224,1,0
168,120,164410,1,0
160,48,164595,1,0
256,112,165012,1,0
504,192,166076,5,0
440,144,166262,1,0
376,192,166447,1,0
400,256,166632,1,0
472,256,166817,1,0
440,80,167234,1,0
8,192,168067,5,0
72,144,168253,1,0
136,192,168438,1,0
112,256,168623,1,0
40,256,168808,1,0
8,192,169039,1,0
72,80,169410,1,0
320,272,170336,5,0
256,224,170522,1,0
192,272,170707,1,0
216,336,170892,1,0
288,336,171077,1,0
320,272,171308,1,0
256,160,171679,1,0
104,248,181447,6,0,B|104:160,4,70
168,216,182373,1,0
40,216,182743,1,0
408,248,183669,6,0,B|408:160,4,70
344,216,184595,1,0
472,216,184965,1,0
256,352,185891,6,0,B|256:264,4,70
192,320,186817,1,0
320,320,187187,1,0
256,32,188113,6,0,B|256:120,4,70
192,64,189039,1,0
192,176,189317,1,0
256,272,189595,1,0
320,176,189873,1,0
320,64,190150,5,0
392,96,190336,1,0
432,160,190521,1,0
432,232,190706,1,0
392,296,190891,1,0
320,312,191076,1,0
240,320,191262,2,0,B|152:312|104:256,1,140
88,112,192558,5,0
56,176,192743,1,0
80,248,192928,1,0
128,312,193113,1,0
208,328,193298,1,0
288,328,193484,2,0,B|376:320|424:264,1,140
88,272,194780,5,0
56,208,194965,1,0
80,136,195150,1,0
128,72,195335,1,0
208,56,195520,1,0
288,56,195706,2,0,B|376:64|424:120,1,140
424,272,197002,5,0
456,208,197187,1,0
432,136,197372,1,0
384,72,197557,1,0
304,56,197742,1,0
224,56,197928,2,0,B|136:64|88:120,1,140
256,96,199039,6,0,B|168:104|120:160,1,140
288,128,200150,6,0,B|200:136|152:192,1,140
312,160,201262,6,0,B|224:168|176:224,1,140
256,192,207650,5,0
48,128,385376,5,0
152,104,385558,1,0
232,168,385741,1,0
336,144,385923,1,0
416,216,386106,1,0
376,328,386311,6,0,C|336:304|304:320|264:304|224:320|184:296,1,210
56,136,387041,6,0,B|72:112|120:72|184:64|256:64,1,210
352,72,387589,1,0
352,72,387680,1,0
352,72,387771,1,0
448,112,387954,1,0
456,216,388136,2,0,B|440:240|392:280|328:288|256:288,1,210
256,32,388867,5,0
168,88,389049,1,0
256,136,389232,1,0
344,192,389415,1,0
256,248,389597,1,0
176,312,389780,1,0
256,368,389962,1,0
256,192,390145,12,0,391423
168,88,391788,5,0
112,184,391971,1,0
128,296,392153,2,0,C|168:336|184:320|208:304|240:320|352:320,1,210
472,168,392884,5,0
408,72,393066,1,0
296,40,393249,1,0
192,104,393432,1,0
168,208,393614,1,0
216,304,393797,2,0,B|264:344|312:352|376:336|432:272,1,210
272,192,394527,5,0
272,192,394710,1,0
160,160,394892,1,0
160,160,395075,1,0
40,152,395258,1,0
40,152,395440,2,0,B|32:264|72:296|112:272|112:272|112:352,1,210
344,344,396171,6,0,B|400:312|392:248,1,105
280,272,396536,2,0,B|232:232|248:176,1,105
360,192,396901,2,0,B|416:176|416:104,1,105
304,136,397266,2,0,B|248:112|272:48,1,105
168,96,397631,5,0
88,184,397814,1,0
64,72,397996,2,0,C|80:120|136:136|152:184|224:200,1,210
288,264,398544,1,0
376,336,398727,1,0
408,104,399092,6,0,C|408:160,2,52.5
288,112,399457,2,0,C|288:40,2,52.5
168,112,399822,1,0
48,112,400005,1,0
112,208,400188,1,0
256,192,400553,12,0,402013
136,192,580492,5,0
136,192,580631,1,0
112,288,580908,2,0,B|224:288,1,105,0|0
216,288,581325,1,0
376,192,582714,5,0
376,192,582853,1,0
400,96,583130,2,0,B|288:96,1,105,0|0
296,96,583547,1,0
256,312,584936,5,0
256,312,585075,1,0
352,336,585352,2,0,B|352:224,1,105,0|0
352,232,585769,1,0
256,72,587158,5,0
256,72,587297,1,0
160,48,587574,2,0,B|160:160,1,105,0|0
160,152,587991,1,0
152,256,589381,6,0,B|200:304,1,52.5
288,232,589797,2,0,B|208:144,1,105
217,154,590214,1,0
360,128,591557,6,0,B|312:80,1,52.5
224,152,591927,2,0,B|304:240,1,105
216,216,592390,2,0,B|296:304,1,105,0|0
200,280,592853,2,0,B|280:368,1,105,0|0
256,32,640914,5,0
256,32,641241,1,0
256,32,641574,1,0
256,32,641907,1,0
256,32,642241,1,0
256,32,642907,2,0,B|256:248,1,210
