osu file format v14

[General]
AudioFilename: Captain Underpants Theme Song.mp3
AudioLeadIn: 0
PreviewTime: -1
Countdown: 1
SampleSet: None
StackLeniency: 0.7
Mode: 0
LetterboxInBreaks: 1
WidescreenStoryboard: 0

[Editor]
DistanceSpacing: 1.2
BeatDivisor: 4
GridSize: 4
TimelineZoom: 1

[Metadata]
Title:Captain Underpants Theme Song
TitleUnicode:Captain Underpants Theme Song
Artist:Weird Al Yankovic
ArtistUnicode:Weird Al Yankovic
Creator:sweetiepippy
Version:Normal
Source:Captain Underpants: The First Epic Movie
Tags:Captain Underpants,
BeatmapID:1363171
BeatmapSetID:643026

[Difficulty]
HPDrainRate:5
CircleSize:5
OverallDifficulty:5
ApproachRate:5
SliderMultiplier:1.4
SliderTickRate:1

[Events]
//Background and Video events
0,0,"comic-desktop.jpg",0,0
//Break Periods
2,62132,72751
//Storyboard Layer 0 (Background)
//Storyboard Layer 1 (Fail)
//Storyboard Layer 2 (Pass)
//Storyboard Layer 3 (Foreground)
//Storyboard Sound Samples

[TimingPoints]
2284.36842105263,350.877192982456,4,1,0,100,1,0

[Colours]
Combo1 : 255,255,255
Combo2 : 255,0,0
Combo3 : 255,255,255
Combo4 : 255,0,0

[HitObjects]
216,72,4389,6,0,P|176:116|264:64,2,455
296,176,7459,6,0,P|264:216|292:120,2,385
40,80,12986,5,0,0:0:0:0:
96,80,13161,1,0,0:0:0:0:
40,152,13687,1,0,0:0:0:0:
104,148,13863,1,0,0:0:0:0:
200,148,14389,1,0,0:0:0:0:
260,148,14565,1,0,0:0:0:0:
136,80,16056,1,0,0:0:0:0:
300,144,16933,1,0,0:0:0:0:
188,236,17635,1,0,0:0:0:0:
116,72,18336,1,0,0:0:0:0:
104,76,20003,1,0,0:0:0:0:
152,76,20529,1,0,0:0:0:0:
108,132,20793,1,0,0:0:0:0:
160,128,21231,1,0,0:0:0:0:
140,176,21494,1,0,0:0:0:0:
52,80,22547,5,0,0:0:0:0:
104,72,22898,1,0,0:0:0:0:
56,132,23337,1,0,0:0:0:0:
112,128,23600,1,0,0:0:0:0:
88,176,23863,1,0,0:0:0:0:
160,32,26144,1,0,0:0:0:0:
228,32,26407,1,0,0:0:0:0:
308,36,27021,2,0,L|324:344,1,280
8,88,28951,2,0,L|384:88,1,350
48,296,31670,2,0,L|424:296,1,350
88,92,33424,1,0,0:0:0:0:
140,92,33600,1,0,0:0:0:0:
196,96,33687,1,0,0:0:0:0:
244,100,33951,1,0,0:0:0:0:
296,96,34126,1,0,0:0:0:0:
188,80,35617,1,0,0:0:0:0:
252,76,35793,1,0,0:0:0:0:
320,80,36056,1,0,0:0:0:0:
96,24,40442,2,0,L|96:296,2,245
436,24,43249,6,0,L|452:284,2,245
0,64,44915,1,0,0:0:0:0:
64,140,45091,1,0,0:0:0:0:
132,76,45266,1,0,0:0:0:0:
236,140,45442,1,0,0:0:0:0:
312,56,45617,1,0,0:0:0:0:
156,160,47108,1,0,0:0:0:0:
224,160,47284,1,0,0:0:0:0:
292,164,47547,1,0,0:0:0:0:
176,72,50705,1,0,0:0:0:0:
252,184,50968,1,0,0:0:0:0:
340,136,51319,1,0,0:0:0:0:
352,52,51670,1,0,0:0:0:0:
176,104,52196,1,0,0:0:0:0:
252,104,52459,1,0,0:0:0:0:
320,104,52722,1,0,0:0:0:0:
120,248,53512,1,0,0:0:0:0:
192,248,53775,1,0,0:0:0:0:
356,256,54301,1,0,0:0:0:0:
416,256,54477,1,0,0:0:0:0:
208,144,54915,1,0,0:0:0:0:
272,144,55354,1,0,0:0:0:0:
336,148,55529,1,0,0:0:0:0:
124,72,59214,5,0,0:0:0:0:
184,76,59652,1,0,0:0:0:0:
244,76,60091,1,0,0:0:0:0:
124,72,60705,1,0,0:0:0:0:
184,76,61056,1,0,0:0:0:0:
244,76,61231,2,0,L|256:376,1,280
16,104,73951,6,0,L|352:184,3,315
136,252,76933,2,0,L|472:112,3,350
176,152,80793,1,0,0:0:0:0:
248,156,80968,1,0,0:0:0:0:
120,48,83600,5,0,0:0:0:0:
184,48,83863,1,0,0:0:0:0:
248,48,84389,2,0,L|264:364,1,315
16,60,86670,1,0,0:0:0:0:
84,64,86845,1,0,0:0:0:0:
164,68,87284,2,0,L|420:48,1,245
48,140,89477,1,0,0:0:0:0:
116,144,89652,1,0,0:0:0:0:
228,140,89915,1,0,0:0:0:0:
292,144,90179,1,0,0:0:0:0:
0,64,90880,1,0,0:0:0:0:
64,140,91056,1,0,0:0:0:0:
132,76,91231,1,0,0:0:0:0:
236,140,91407,1,0,0:0:0:0:
312,56,91582,1,0,0:0:0:0:
132,84,93073,1,0,0:0:0:0:
252,208,93249,1,0,0:0:0:0:
344,80,93512,1,0,0:0:0:0:
208,124,97459,1,0,0:0:0:0:
284,124,97635,1,0,0:0:0:0:
144,64,98073,1,0,0:0:0:0:
236,64,98424,1,0,0:0:0:0:
336,68,98600,1,0,0:0:0:0:
76,144,100529,2,0,L|380:156,2,280
88,92,102459,1,0,0:0:0:0:
140,92,102635,1,0,0:0:0:0:
196,96,102722,1,0,0:0:0:0:
244,100,102986,1,0,0:0:0:0:
296,96,103161,1,0,0:0:0:0:
256,56,104565,1,0,0:0:0:0:
260,200,104740,1,0,0:0:0:0:
260,336,105003,1,0,0:0:0:0:
100,88,108161,1,0,0:0:0:0:
172,88,108424,1,0,0:0:0:0:
308,92,108863,1,0,0:0:0:0:
372,96,109126,1,0,0:0:0:0:
192,156,109652,1,0,0:0:0:0:
252,156,109915,1,0,0:0:0:0:
316,156,110179,1,0,0:0:0:0:
64,256,111056,1,0,0:0:0:0:
144,260,111319,1,0,0:0:0:0:
304,256,111758,1,0,0:0:0:0:
376,260,112021,1,0,0:0:0:0:
80,252,112459,1,0,0:0:0:0:
152,256,112722,1,0,0:0:0:0:
224,256,112986,1,0,0:0:0:0:
76,64,113951,1,0,0:0:0:0:
312,80,114652,1,0,0:0:0:0:
96,252,115354,1,0,0:0:0:0:
352,280,116056,1,0,0:0:0:0:
44,76,117196,2,0,L|316:76,3,245
132,128,119652,1,0,0:0:0:0:
200,132,119915,1,0,0:0:0:0:
208,216,120354,1,0,0:0:0:0:
136,216,120705,1,0,0:0:0:0:
168,60,121144,1,0,0:0:0:0:
240,60,121407,1,0,0:0:0:0:
304,64,121670,1,0,0:0:0:0:
56,88,122547,1,0,0:0:0:0:
56,172,122810,1,0,0:0:0:0:
156,84,123249,1,0,0:0:0:0:
152,176,123512,1,0,0:0:0:0:
200,128,124038,1,0,0:0:0:0:
280,128,124301,1,0,0:0:0:0:
352,128,124565,1,0,0:0:0:0:
96,88,125354,1,0,0:0:0:0:
168,92,125529,1,0,0:0:0:0:
312,80,125705,1,0,0:0:0:0:
404,80,126056,1,0,0:0:0:0:
200,208,126845,1,0,0:0:0:0:
268,212,127021,1,0,0:0:0:0:
336,212,127196,1,0,0:0:0:0:
256,192,128336,12,0,131056,0:0:0:0:
