osu file format v5

[General]
AudioFilename: Wierd Al Yankovic - Amish Paradise.mp3
AudioLeadIn: 0
PreviewTime: -1
Countdown: 2
SampleSet: Normal
StackLeniency: 0.7
Mode: 0
LetterboxInBreaks: 1

[Metadata]
Title:Amish Paradise
Artist:Weird Al Yankovic
Creator:Agent Spin Here
Version:Normal
Source:
Tags:

[Difficulty]
HPDrainRate:4
CircleSize:4
OverallDifficulty:4
SliderMultiplier:1.4
SliderTickRate:2

[Events]
//Background and Video events
0,0,"wierd al.jpg"
1,0,"Amish Paradise.avi"
//Break Periods
2,34891,39407
2,99065,103582
2,140257,145139
//Storyboard Layer 0 (Background)
//Storyboard Layer 1 (Failing)
//Storyboard Layer 2 (Passing)
//Storyboard Layer 3 (Foreground)
//Storyboard Sound Samples
//Background Colour Transformations
3,100,163,162,255

[TimingPoints]
301,365.853658536585,4,1,0,70,1,0
47280,-100,4,2,0,100,0,0
70146,-100,4,1,0,70,0,0
116640,-100,4,2,0,100,0,0
140971,-100,4,1,0,100,0,0

[Colours]
Combo1 : 230,138,0
Combo2 : 64,0,0
Combo3 : 128,64,0
Combo4 : 206,103,0

[HitObjects]
232,80,11642,2,0,B|328:80,2,70
104,80,12374,2,0,B|72:168|200:192|24:288|272:344,2,350,0|0|8
248,200,14935,6,0,B|360:296|480:176,1,210,0|8
448,80,15849,2,0,B|232:80,1,210
112,88,16764,2,0,B|112:240,1,140
112,288,17313,1,4
240,288,17679,6,0,B|320:288|320:288|320:288,1,70
312,168,18227,1,0
320,40,18593,2,0,B|216:40|216:40|216:152|216:152|80:152|72:152|72:152|72:0|72:0|88:0,1,490,8|8
112,208,20422,6,0,B|112:288,1,70
176,280,20788,1,0
272,272,21154,2,0,B|272:112|272:112|336:112|336:112|336:192|336:192|176:192|176:192|176:72,1,560
80,96,22983,1,8
320,48,23715,6,8,B|408:48|408:48|408:120|408:120|336:120|336:120|336:240|336:240|408:240,2,420
136,48,26642,6,8,B|56:48|56:48|56:120|56:120|120:120|120:120|120:232|120:232|-8:232,2,420
200,48,29020,5,6
328,40,29386,5,0
328,104,29569,2,0,B|328:256,1,140
224,240,30300,2,0,B|152:240,2,70
288,240,30849,2,0,B|376:240,3,70
328,184,31581,2,0,B|152:184,1,140
256,192,32130,12,4,34691
120,56,40727,6,0,B|120:136,1,70
184,128,41093,1,0
248,128,41276,2,0,B|248:224,2,70
312,128,41825,1,0
376,128,42008,2,0,B|480:128|488:296,1,210,8|0
424,272,42740,6,0,B|296:272|200:160,1,210,0|8
80,48,44203,6,0,B|240:48,1,140
216,176,44935,2,0,B|56:176,1,140,8|0
80,304,45666,2,0,B|248:304,3,140,0|0|8|0
192,80,47496,5,8
360,72,47861,2,0,B|416:144|360:208,1,140
200,192,48593,2,0,B|120:208|168:328,1,140
328,312,49325,1,4
328,144,49691,5,0
160,144,50057,2,0,B|80:168|96:272,2,140,8|0|8
328,160,51154,1,0
360,320,51520,2,0,B|448:344|472:248,2,140,0|8|4
352,64,53349,5,4
352,232,53715,2,0,B|352:72,1,140
416,144,54264,2,0,B|264:144,1,140
104,144,54996,1,4
312,280,55544,5,0
144,280,55910,2,0,B|136:176|264:168,1,140
384,176,56642,1,8
72,48,57374,2,0,B|48:128|176:160,1,140
304,200,58105,1,8
448,280,58471,1,2
208,48,59203,6,0,B|128:8|56:80,1,140
80,232,59935,2,0,B|144:288|216:224,3,140,0|0|0|8
304,96,61398,6,0,B|368:120|400:216,1,140
280,200,62130,1,0
392,200,62496,1,8
392,312,62861,1,0
504,312,63227,1,0
504,200,63593,1,0
448,104,63959,1,4
256,192,64691,12,4,69447
120,144,70361,6,0,B|128:72|208:88,1,70
216,112,70726,2,0,B|216:184|128:168,1,70
96,256,71276,2,0,B|112:328|248:328|312:320|384:304,1,280,8|0
360,200,72374,1,0
360,88,72740,1,8
120,120,73471,6,0,B|48:152|48:152|112:168|112:168|48:200,1,210,0|8
368,176,74935,2,0,B|400:232|328:280|248:248|216:152|368:144,1,280,0|8
184,64,76215,6,0,B|184:168,3,70
272,64,77130,2,0,B|360:64|360:64|360:120|360:120|296:120|296:120|296:200|296:200|376:200|376:200|376:136,1,420,8|0
480,280,79325,6,0,B|376:344|376:344|248:248,1,280,0|8
152,160,80422,1,0
64,64,80788,2,0,B|8:8,4,70,0|0|0|0|8
408,232,82252,6,0,B|408:312,2,70,0|0|0
360,184,82800,1,0
312,144,82983,2,0,B|216:144,2,70,8|0|0
312,80,83532,2,0,B|400:80,2,70
248,80,84081,2,0,B|248:0,2,70,0|0|8
344,144,84813,6,0,B|424:144,1,70
416,208,85179,2,0,B|336:208,1,70
352,272,85544,2,0,B|352:368,1,70,0|0
288,344,85910,1,4
152,216,86276,6,0,B|0:328|216:296,1,210
216,248,87008,2,0,B|296:248,1,70
344,248,87374,1,4
208,328,88105,6,0,B|136:336|88:256,1,140
72,136,88837,2,0,B|24:96|56:64|104:64|136:96|128:152,1,140,8|0
248,96,89569,2,0,B|328:80|408:144|400:168,1,140
408,256,90300,1,8
168,200,91032,6,0,B|96:200,2,70
232,200,91581,1,4
336,208,91947,6,0,B|424:304|424:304|480:184,2,210
336,80,93410,5,6
208,80,93959,6,0,B|48:40|8:224,2,280,0|8|0
336,80,95788,1,0
464,80,96154,1,8
336,224,96520,6,8,B|336:152,1,70
272,160,96886,2,8,B|272:248,1,70
208,232,97252,2,8,B|208:144,2,70,8|8|2
104,168,97983,1,0
96,40,98349,6,0,B|368:40,1,210,0|4
96,160,104935,6,0,B|200:96|240:80,1,140
344,96,105666,2,0,B|416:72|504:128,1,140
456,280,106398,2,0,B|392:232|304:280,1,140
152,272,107130,2,0,B|64:192|96:112,1,140
88,64,107679,1,4
296,200,108227,6,0,B|296:120,1,70
296,48,108593,2,0,B|272:96|256:112|224:136|168:208|288:424|424:240|360:160|328:112|296:24,1,490,0|4
72,56,111154,5,0
256,56,111520,2,0,B|408:56,1,140,0|0
392,240,112252,1,8
240,240,112618,1,0
240,240,112801,2,0,B|136:240,2,70,0|0|4
256,192,113715,12,12,116642
112,144,117740,5,0
296,144,118105,2,0,B|224:144|224:144|224:56,1,140
312,72,118654,2,0,B|392:72|392:72|392:168,1,140
392,312,119386,1,4
128,248,119935,5,0
128,160,120115,1,0
128,64,120298,2,0,B|216:24|264:120,1,140
248,184,120847,1,8
248,368,121213,2,0,B|344:352|376:200,1,210
368,120,121944,1,0
440,176,122127,1,0
488,104,122310,1,4
80,56,123591,5,0
88,224,123957,2,0,B|56:272|200:312,1,140,8|0
264,304,124505,1,0
432,296,124871,2,4,B|432:144,1,140
208,56,125786,6,0,B|304:56,1,70
368,56,126152,2,0,B|368:208,1,140
280,192,126700,1,8
96,192,127069,2,0,B|88:272|248:320,1,210
312,256,127800,1,0
368,184,127983,2,0,B|456:184,1,70,0|4
216,64,129447,6,0,B|128:80|104:200,1,140,0|8
296,152,130179,1,0
296,152,130361,2,0,B|296:304,2,140,0|0|4
24,152,131642,5,0
24,152,131825,1,0
24,152,132008,2,0,B|120:136|136:240,2,140,0|0|8
24,240,132922,1,0
24,328,133105,1,0
208,328,133471,2,0,B|288:328|304:232,2,140,0|0|8
208,232,134386,1,0
208,136,134569,1,0
408,88,135300,5,0
224,88,135666,2,0,B|192:176|328:240,1,140,8|0
360,208,136215,2,0,B|400:296|336:336,2,140,0|0|4
120,72,137496,6,0,B|208:72,1,70
280,72,137861,2,0,B|368:96|368:208,1,140
184,216,138593,2,0,B|48:216|56:320,1,140,8|0
240,216,139325,2,0,B|352:216|360:344,1,140
456,288,140057,1,4
152,104,146642,5,0
152,104,146825,1,0
216,104,147008,2,0,B|216:352,1,210
408,312,148105,1,0
408,312,148288,1,0
344,312,148471,2,0,B|344:136,1,140,0|8
344,48,149203,5,0
344,48,149386,1,0
280,48,149569,2,0,B|128:48,1,140
144,176,150301,2,0,B|304:176,1,140
288,304,151032,2,0,B|120:304,1,140
24,312,151764,1,8
24,56,152496,5,0
152,56,152862,1,0
280,48,153227,1,8
408,48,153593,1,0
408,176,153959,1,0
280,176,154325,1,0
280,304,154691,1,8
408,304,155057,1,0
408,176,155422,6,0,B|408:8,1,140
280,40,156154,2,0,B|280:200,1,140,8|0
280,240,156886,2,0,B|280:396,1,140
408,384,157618,2,0,B|408:240,1,140,8|0
264,56,158532,6,0,B|184:56,1,70
192,120,158898,2,0,B|296:120,1,70,0|4
256,312,159630,2,0,B|184:312,2,70
256,248,160179,2,2,B|184:248,1,70,8|0
256,192,160727,12,4,163471
