osu file format v7

[General]
AudioFilename: Weezer_-_The Blue Album [Deluxe Edition]_-_11_-_Mykel And Carli (B-Side).mp3
AudioLeadIn: 0
PreviewTime: -1
Countdown: 1
SampleSet: Soft
StackLeniency: 0.7
Mode: 0
LetterboxInBreaks: 1

[Editor]
DistanceSpacing: 0.800000011920929
BeatDivisor: 4
GridSize: 8

[Metadata]
Title:Mykel And Carli
Artist:Weezer
Creator:hadoken_zero
Version:Normal
Source:
Tags:Weezer Blue Album Mikel And Carli Hear You Me

[Difficulty]
HPDrainRate:5
CircleSize:5
OverallDifficulty:5
SliderMultiplier:1.4
SliderTickRate:1

[Events]
//Background and Video events
//Break Periods
2,36914,41152
2,64673,73538
2,110648,119803
//Storyboard Layer 0 (Background)
//Storyboard Layer 1 (Fail)
//Storyboard Layer 2 (Pass)
//Storyboard Layer 3 (Foreground)
//Storyboard Sound Samples
//Background Colour Transformations
3,100,163,162,255

[TimingPoints]
280.682079081633,578.313253012048,4,2,0,100,1,0
139365,-200,4,2,0,100,0,1

[Colours]
Combo1 : 0,0,0
Combo2 : 0,128,192
Combo3 : 5,5,240
Combo4 : 0,0,128

[HitObjects]
264,192,19509,1,0
208,192,19798,1,0
160,168,20087,1,0
112,200,20377,1,0
144,240,20666,1,0
344,168,21822,1,0
304,176,22112,1,0
248,184,22401,1,0
200,192,22690,1,0
144,208,22979,1,0
360,136,24136,1,0
344,192,24425,1,0
304,232,24714,1,0
248,248,25003,1,0
192,240,25292,1,0
152,32,26449,1,0
136,72,26738,1,0
120,120,27027,1,0
128,176,27316,1,0
152,232,27605,1,0
328,120,28618,1,0
296,88,28907,1,0
248,88,29196,1,0
208,112,29486,1,0
200,152,29775,1,0
408,144,30931,1,0
344,144,31220,1,0
280,152,31509,1,0
240,200,31798,1,0
264,256,32087,1,0
456,128,33244,1,0
392,136,33533,1,0
328,144,33822,1,0
272,168,34112,1,0
232,208,34401,1,0
272,256,34690,1,0
336,264,34979,1,0
424,176,35557,1,0
368,152,35846,1,0
304,152,36136,1,0
256,184,36425,1,0
224,232,36714,1,0
320,152,42352,5,0
280,152,42642,1,0
208,152,42931,1,0
208,224,43220,1,0
208,224,43509,1,0
232,304,44377,1,0
416,232,44666,1,0
344,224,44955,1,0
264,216,45244,1,0
208,232,45533,1,0
232,288,45822,1,0
392,136,46979,1,0
352,104,47268,1,0
296,96,47557,1,0
240,104,47846,1,0
184,120,48136,1,0
376,240,49292,1,0
320,224,49581,1,0
264,208,49871,1,0
224,168,50160,1,0
272,120,50449,1,0
496,64,51605,1,0
424,72,51895,1,0
376,80,52184,1,0
336,88,52473,1,0
272,120,52762,1,0
256,160,53051,1,0
280,192,53340,1,0
408,160,54063,1,0
408,120,54352,1,0
368,104,54642,1,0
296,96,54931,1,0
256,120,55220,1,0
464,56,56377,1,0
368,64,56955,1,0
240,80,57533,1,0
192,88,57822,1,0
344,120,58690,1,0
344,168,58979,1,0
288,184,59268,1,0
224,168,59557,1,0
208,104,59846,1,0
440,88,61003,1,0
336,88,61581,1,0
240,80,62160,1,0
176,120,62449,1,0
336,112,63316,1,0
232,128,63895,1,0
152,72,64473,1,0
368,96,74738,5,0
312,88,75027,1,0
256,88,75316,1,0
200,112,75605,1,0
224,176,75895,1,0
432,104,76907,1,0
392,136,77196,1,0
360,168,77486,1,0
320,184,77775,1,0
272,200,78064,1,0
192,8,79220,1,0
232,40,79509,1,0
288,80,79798,1,0
312,144,80087,1,0
296,192,80376,1,0
144,80,81533,1,0
192,88,81822,1,0
240,96,82112,1,0
296,112,82401,1,0
328,160,82690,1,0
488,24,83702,1,0
440,64,83991,1,0
376,104,84280,1,0
344,128,84569,1,0
280,160,84858,1,0
144,0,86015,1,0
192,56,86304,1,0
232,96,86593,1,0
272,128,86882,1,0
312,160,87171,1,0
352,88,88473,1,0
312,128,88762,1,0
256,120,89051,1,0
240,168,89340,1,0
240,168,89630,1,0
296,192,89919,1,0
360,200,90208,1,0
408,96,90786,1,0
352,112,91075,1,0
296,120,91365,1,0
240,128,91654,1,0
184,136,91943,1,0
400,144,93099,1,0
304,136,93678,1,0
208,136,94256,1,0
224,208,94545,1,0
360,128,95413,1,0
408,144,95702,1,0
400,192,95991,1,0
344,208,96280,1,0
288,176,96569,1,0
288,128,97726,1,0
240,224,98304,1,0
344,208,98883,1,0
392,208,99172,1,0
448,56,100039,1,0
368,112,100618,1,0
272,144,101196,1,0
208,88,102208,1,0
256,104,102498,1,0
288,144,102787,1,0
296,192,103076,1,0
248,216,103365,1,0
112,48,104666,1,0
160,64,104955,1,0
208,80,105244,1,0
248,112,105533,1,0
256,168,105822,1,0
448,32,106979,1,0
392,64,107268,1,0
336,88,107557,1,0
280,120,107846,1,0
224,160,108136,1,0
248,192,108425,1,0
320,200,108714,1,0
376,112,109292,1,0
328,96,109581,1,0
280,96,109870,1,0
232,120,110159,1,0
200,160,110448,1,0
344,176,121003,5,0
296,200,121292,1,0
248,192,121581,1,0
200,216,121871,1,0
200,280,122160,1,0
320,104,123172,1,0
312,152,123461,1,0
312,200,123751,1,0
264,224,124040,1,0
208,224,124329,1,0
112,56,125485,1,0
168,80,125774,1,0
232,88,126063,1,0
296,88,126352,1,0
368,112,126642,1,0
208,240,127798,1,0
256,200,128087,1,0
272,136,128377,1,0
200,120,128666,1,0
160,120,128955,1,0
384,120,130112,1,0
400,176,130401,1,0
360,224,130690,1,0
296,232,130979,1,0
232,240,131268,1,0
128,48,132425,1,0
168,88,132714,1,0
208,128,133003,1,0
240,184,133292,1,0
272,248,133581,1,0
400,112,134738,1,0
360,136,135027,1,0
312,152,135316,1,0
264,168,135605,1,0
224,216,135895,1,0
216,272,136184,1,0
280,256,136473,1,0
368,168,137051,1,0
312,144,137340,1,0
256,152,137630,1,0
192,168,137919,1,0
192,224,138208,1,0
392,136,139365,1,0
296,160,139943,1,0
200,160,140521,1,0
176,88,140810,1,0
328,152,141678,1,0
272,160,141967,1,0
216,184,142256,1,0
208,248,142545,1,0
272,280,142834,1,0
392,104,144136,1,0
328,152,144569,1,0
216,136,145148,1,0
176,184,145437,1,0
352,224,146304,1,0
240,256,146883,1,0
296,152,147461,1,0
384,136,148618,1,0
272,136,149196,1,0
304,240,149774,1,0
272,200,150063,1,0
368,80,150931,1,0
304,120,151220,1,0
264,136,151509,1,0
240,176,151798,1,0
272,208,152087,1,0
368,200,152521,1,0
368,136,152810,1,0
304,120,153099,1,0
192,144,153678,1,0
216,248,154256,1,0
264,256,154545,1,0
384,144,155413,1,0
280,152,155991,1,0
192,208,156569,1,0
424,208,157726,1,0
256,192,161630,1,0
