osu file format v5

[General]
AudioFilename: My Name Is Jonas.mp3
AudioLeadIn: 1985
PreviewTime: -1
Countdown: 1
SampleSet: Normal
StackLeniency: 0.7
Mode: 0
LetterboxInBreaks: 1
EditorBookmarks: 7763,15546,18509,24646,61766,69504,158782

[Metadata]
Title:My Name Is Jonas
Artist:Weezer
Creator:captainova
Version:Hard
Source:
Tags:

[Difficulty]
HPDrainRate:7
CircleSize:6
OverallDifficulty:6
SliderMultiplier:0.8
SliderTickRate:1

[Events]
//Background and Video events
0,0,"Weezer - Weezer.jpg"
//Break Periods
//Storyboard Layer 0 (Background)
//Storyboard Layer 1 (Failing)
//Storyboard Layer 2 (Passing)
//Storyboard Layer 3 (Foreground)
//Storyboard Sound Samples
//Background Colour Transformations
3,100,163,162,255

[TimingPoints]
8400,322.164948453608,3,1,0,100

[HitObjects]
160,64,8399,2,0,B|224:96,1,60
256,96,8923,1,0
288,96,9124,1,0
352,96,9447,1,0
352,256,11621,5,0
320,256,11943,1,0
288,256,12265,1,0
256,256,12587,1,0
224,256,12909,2,0,B|96:128,1,160
384,64,15890,5,0
384,96,16212,2,0,B|416:160,1,60
416,160,16615,1,0
384,192,16856,1,0
416,224,17178,2,0,B|288:352,1,160
128,352,19756,5,0
128,320,19917,1,0
128,256,20239,1,0
128,160,20642,1,0
128,64,21044,2,0,B|206:19,1,80
160,256,24911,5,0
192,224,25233,1,0
160,192,25555,1,0
192,160,25877,1,0
160,128,26200,2,0,B|160:192,1,60
320,96,26763,5,0
352,128,27085,1,0
320,160,27407,1,0
352,192,27729,1,0
320,224,28052,2,0,B|320:160,1,60
256,288,28696,5,0
256,256,29018,1,0
256,224,29340,1,0
256,192,29662,1,0
256,160,29985,1,0
256,128,30307,2,0,B|256:32,1,80
352,192,30991,5,0
338,193,31112,1,0
288,192,31273,1,0
224,192,31636,2,0,B|160:256|96:192,1,140
32,32,32615,5,0
32,96,32938,1,0
32,160,33260,1,0
32,224,33582,1,0
32,288,33904,2,0,B|0:352,1,60
96,352,34548,1,0
160,352,34871,1,0
224,352,35193,1,0
288,352,35515,1,0
352,352,35837,2,0,B|416:384,1,60
448,320,36481,1,0
448,256,36804,1,0
448,192,37126,1,0
448,128,37448,1,0
448,64,37770,1,0
384,64,38092,2,0,B|251:-66|211:191|174:-74|32:64,1,360
192,128,40052,5,0
320,128,40374,1,0
192,192,40697,1,0
320,192,41019,1,0
192,256,41341,1,0
320,256,41663,1,0
132,245,41985,2,0,B|132:117,1,120
320,128,43878,5,0
192,128,44200,1,0
320,192,44523,1,0
192,192,44845,1,0
320,256,45167,1,0
192,256,45489,1,0
376,251,45811,2,0,B|376:123,1,120
192,128,47744,5,0
320,128,48066,1,0
192,192,48389,1,0
320,192,48711,1,0
192,256,49033,1,0
320,256,49355,2,0,B|416:256,4,80
0,192,51650,5,0
32,192,51932,1,0
64,192,52254,1,0
96,224,52577,1,0
128,256,52899,1,0
160,288,53221,1,0
192,256,53543,2,0,B|256:192|256:192|384:320|352:288|352:288|448:192|448:192|544:192,1,460
96,224,62564,5,0
128,224,62684,1,0
192,224,63047,1,0
256,224,63289,1,0
256,160,63530,2,0,B|416:160,1,140
480,224,65786,5,0
448,224,65906,1,0
416,224,66108,1,0
352,224,66430,1,0
288,224,66752,1,0
224,224,67074,2,0,B|160:224|160:224|96:288|0:288,1,220
224,160,69973,5,0
288,160,70295,1,0
224,192,70617,1,0
288,192,70939,1,0
192,288,71261,2,0,B|320:288,1,120
288,192,73517,5,0
224,192,73839,1,0
288,160,74161,1,0
224,160,74483,1,0
352,64,74805,2,0,B|96:64,1,240
171,63,76094,5,2
224,64,76416,1,2
279,67,76738,2,0,B|279:323|279:323|151:323|160:256,1,400
416,192,79034,5,0
352,192,79356,1,0
288,192,79678,1,0
224,192,80001,1,0
160,192,80323,2,0,B|96:192,1,60
96,192,80967,5,0
160,192,81289,1,0
224,192,81611,1,0
288,192,81934,1,0
352,192,82256,2,0,B|416:192,1,60
256,32,82860,5,0
256,96,83182,1,0
256,160,83504,1,0
256,224,83827,1,0
256,288,84149,2,0,B|256:352,1,60
256,348,84793,5,0
256,288,85115,1,0
256,224,85437,1,0
256,160,85760,1,0
256,96,86082,2,0,B|256:32,1,60
416,192,86726,5,0
352,192,87048,1,0
288,192,87370,1,0
224,192,87693,1,0
160,192,88015,2,0,B|96:192,1,60
100,192,88659,5,0
160,192,88981,1,0
224,192,89303,1,0
288,192,89626,1,0
352,192,89948,2,0,B|416:192,1,60
0,192,90592,5,0
64,192,90914,1,0
128,192,91236,1,0
128,192,91599,1,0
192,192,91921,1,0
256,192,92243,2,0,B|320:192,1,60
384,192,92726,1,0
416,192,92888,1,0
416,192,92968,1,0
480,192,93210,1,0
480,192,93371,1,0
96,256,94176,5,0
160,256,94498,1,0
224,256,94820,1,0
288,256,95143,1,0
352,256,95465,1,0
416,256,95787,1,0
352,128,96109,2,0,B|192:128,1,140
96,128,98001,5,0
160,128,98323,1,0
224,128,98645,1,0
288,128,98968,1,0
352,128,99290,1,0
416,128,99612,1,0
352,256,99934,2,0,B|160:256,1,180
192,32,101867,5,0
192,96,102189,1,0
192,160,102511,1,0
192,224,102834,1,0
192,288,103156,1,0
192,352,103478,1,0
320,288,103800,2,0,B|320:96,1,180
320,352,105733,5,0
320,288,106055,1,0
320,224,106377,1,0
320,160,106700,1,0
320,64,107063,1,0
320,0,107385,1,0
224,32,107707,2,0,B|224:288,1,240
256,288,109559,5,0
256,288,109881,1,0
256,288,110203,1,0
192,160,110525,2,0,B|320:160,1,120
312,160,111251,1,0
404,96,111492,2,0,B|84:96,1,300
160,288,113425,5,0
160,288,113747,1,0
160,288,114069,1,0
192,160,114391,2,0,B|320:160,1,120
320,160,115117,1,0
404,96,115358,2,0,B|84:96,1,300
352,288,117291,5,0
352,288,117613,1,0
352,288,117935,1,0
192,160,118257,2,0,B|320:160,1,120
312,160,118983,1,0
403,96,119224,2,0,B|83:96,1,300
256,384,121157,5,0
256,384,121479,1,0
256,384,121801,1,0
192,160,122123,2,0,B|320:160,1,120
312,160,122888,1,0
448,96,123090,2,0,B|64:96,1,380
192,32,125063,2,0,B|320:32,1,120
