osu file format v5

[General]
AudioFilename: My Name Is Jonas.mp3
AudioLeadIn: 1985
PreviewTime: -1
Countdown: 1
SampleSet: Normal
StackLeniency: 0.7
Mode: 0
EditorBookmarks: 19470

[Metadata]
Title:My Name Is Jonas
Artist:Weezer
Creator:captainova
Version:Easy
Source:
Tags:

[Difficulty]
HPDrainRate:4
CircleSize:4
OverallDifficulty:4
SliderMultiplier:0.599999999999999
SliderTickRate:1

[Events]
//Background and Video events
0,0,"Weezer - Weezer.jpg"
//Break Periods
2,55706,61353
//Storyboard Layer 0 (Background)
//Storyboard Layer 1 (Failing)
//Storyboard Layer 2 (Passing)
//Storyboard Layer 3 (Foreground)
//Storyboard Sound Samples
//Background Colour Transformations
3,100,163,162,255

[TimingPoints]
8400,320.284,3,1,0,100

[HitObjects]
192,96,8483,1,0
288,96,9124,1,0
320,96,9444,1,0
448,256,11686,5,0
384,256,12007,1,0
256,256,12647,1,0
192,256,12967,2,0,B|64:256,1,120
384,64,15850,5,0
384,128,16170,1,0
384,256,16811,1,0
384,320,17131,1,0
128,320,19693,5,0
128,256,19930,1,0
128,128,20654,1,0
128,64,20975,1,0
160,352,24818,1,0
160,288,25138,1,0
160,224,25459,1,0
160,96,26099,2,0,B|224:32,1,59.9999999999999
352,64,26740,5,0
352,128,27060,1,0
352,192,27380,1,0
352,320,28021,2,0,B|416:384,1,49.9999999999999
256,352,28661,5,0
256,288,28982,1,0
256,224,29302,1,0
256,160,29622,1,0
256,96,29943,1,0
256,32,30259,1,0
352,192,30980,5,0
288,192,31300,1,0
224,192,31620,2,0,B|96:192,1,120
32,32,32581,5,0
32,96,32901,1,0
32,160,33222,1,0
32,288,33862,1,0
96,352,34503,1,0
160,352,34823,1,0
224,352,35143,1,0
320,352,35784,1,0
448,320,36425,1,0
448,256,36745,1,0
448,192,37065,1,0
448,128,37385,1,0
448,64,37706,1,0
358,32,38026,2,0,B|128:32,1,225
224,128,39947,5,0
224,192,40587,1,0
224,256,41228,1,0
197,324,41868,2,0,B|358:323,1,120
288,128,43857,5,0
288,192,44498,1,0
288,256,45138,1,0
316,335,45779,2,0,B|188:335,1,120
224,128,47635,5,0
224,192,48275,1,0
224,256,49236,2,0,B|288:256,4,59.9999999999999
64,192,51596,5,0
96,224,51877,1,0
128,256,52198,1,0
160,288,52518,1,0
192,256,52838,1,0
224,224,53159,1,0
256,192,53479,2,0,B|384:320|352:288|352:288|480:192,1,299.999999999999
160,128,62527,6,0,B|224:128,1,59.9999999999999
292,128,63168,2,0,B|356:128,3,59.9999999999999
64,256,65730,5,0
192,256,66370,1,0
256,256,66691,1,0
320,256,67011,2,0,B|480:256,1,120
224,160,69984,5,0
224,224,70625,1,0
192,320,71265,2,0,B|320:320,1,120
288,224,73507,5,0
288,160,74148,1,0
352,96,74788,2,0,B|160:96,1,180
192,64,76070,2,0,B|256:64,1,59.9999999999999
320,64,76710,2,0,B|320:320|320:320|192:320|224:256,1,359.999999999999
416,128,79022,5,0
320,128,79662,1,0
224,128,80240,2,0,B|160:128,1,59.9999999999999
96,256,80944,5,0
192,256,81585,1,0
288,256,82226,2,0,B|352:256,1,59.9999999999999
416,128,82866,5,0
320,128,83507,1,0
224,128,84147,2,0,B|160:128,1,59.9999999999999
100,256,84787,5,0
192,256,85427,1,0
288,256,86068,2,0,B|352:256,1,59.9999999999999
416,128,86749,5,0
320,128,87389,1,0
224,128,88030,2,0,B|160:128,1,59.9999999999999
100,256,88670,5,0
224,256,89311,1,0
352,256,89951,2,0,B|416:256,1,59.9999999999999
480,160,90552,5,0
370,160,91233,1,0
306,160,91602,1,0
192,160,92242,2,0,B|128:160,1,59.9999999999999
32,160,93203,1,0
32,160,93523,1,0
128,288,94164,5,0
256,288,94805,1,0
384,288,95445,1,0
352,192,96086,2,0,B|160:192,1,180
96,128,98007,5,0
224,128,98648,1,0
352,128,99289,1,0
320,224,99929,2,0,B|128:224,1,180
192,32,101851,5,0
192,160,102491,1,0
192,288,103132,1,0
256,288,103773,2,0,B|256:96,1,180
320,352,105694,5,0
320,224,106335,1,0
320,96,106967,1,0
320,0,107396,1,0
288,32,107716,2,0,B|288:288,1,240
128,224,109662,5,0
128,224,109982,1,0
128,224,110302,1,0
192,224,110623,2,0,B|320:224,1,120
404,288,111583,2,0,B|84:288,1,299.999999999999
384,160,113505,5,0
384,160,113825,1,0
384,160,114146,1,0
320,160,114466,2,0,B|192:160,1,120
108,96,115427,2,0,B|428:96,1,299.999999999999
128,224,117349,5,0
128,224,117669,1,0
128,224,117989,1,0
192,224,118309,2,0,B|320:224,1,120
403,288,119270,2,0,B|83:288,1,299.999999999999
384,160,121192,5,0
384,160,121512,1,0
384,160,121833,1,0
320,160,122153,2,0,B|192:160,1,120
108,96,123114,2,0,B|428:96,1,299.999999999999
320,32,125035,2,0,B|192:32,1,120
