osu file format v10

[General]
AudioFilename: Weezer - (If You Are Wondering If I Want You To) I Want You To.mp3
AudioLeadIn: 0
PreviewTime: -1
Countdown: 0
SampleSet: Normal
StackLeniency: 0.7
Mode: 0
LetterboxInBreaks: 1

[Editor]
DistanceSpacing: 1
BeatDivisor: 2
GridSize: 8

[Metadata]
Title:I Want You To
TitleUnicode:
Artist:Weezer
ArtistUnicode:
Creator:Rolled
Version:Insane
Source:
Tags:(If You Are Wondering If I Want You To)
BeatmapID:176501
BeatmapSetID:58767

[Difficulty]
HPDrainRate:6
CircleSize:4
OverallDifficulty:8
ApproachRate:9
SliderMultiplier:1.6
SliderTickRate:1

[Events]
//Background and Video events
0,0,"Weezer_Wallpaper_by_Feenster64(www.wallz.eu).jpg"
//Break Periods
2,61867,69658
2,144503,160885
//Storyboard Layer 0 (Background)
//Storyboard Layer 1 (Fail)
//Storyboard Layer 2 (Pass)
//Storyboard Layer 3 (Foreground)
//Storyboard Sound Samples
//Background Colour Transformations
3,100,0,0,0

[TimingPoints]
4940.32467532467,272.727272727273,4,2,1,70,1,0
39849,-100,4,2,2,40,0,0
48576,-100,4,1,1,60,0,1
57167,-100,4,1,1,25,0,1
57644,-100,4,1,1,30,0,1
58053,-100,4,1,1,35,0,1
58325,-100,4,1,1,40,0,1
58597,-100,4,1,1,45,0,1
58869,-100,4,1,1,50,0,1
59278,-100,4,1,1,55,0,1
61664,-100,4,1,1,60,0,1
62758,-100,4,2,1,70,0,0
83485,-100,4,2,1,75,0,0
100803,-100,4,2,2,40,0,0
109667,-100,4,1,2,60,0,1
118326,-100,4,1,2,25,0,1
118735,-100,4,1,2,35,0,1
119144,-100,4,1,2,40,0,1
119416,-100,4,1,2,50,0,1
119825,-100,4,1,2,60,0,1
120370,-100,4,1,2,75,0,1
120713,-100,4,1,2,25,0,1
120780,-100,4,1,2,35,0,1
121052,-100,4,1,2,42,0,1
121324,-100,4,1,2,48,0,1
121596,-100,4,1,2,55,0,1
122141,-100,4,1,2,60,0,1
122549,-100,4,1,2,70,0,1
122826,-100,4,1,2,65,0,1
126235,-100,4,1,2,65,0,1
126780,-100,4,1,2,70,0,1
127052,-100,4,1,2,75,0,1
135713,-100,4,1,2,35,0,1
136326,-100,4,1,2,45,0,1
136871,-100,4,1,2,55,0,1
137416,-100,4,1,2,65,0,1
137893,-100,4,1,2,75,0,1
144303,-100,4,1,2,20,0,0
161344,-100,4,2,2,40,0,0
170485,-100,4,1,2,60,0,0
170758,-100,4,1,2,60,0,1
179419,-100,4,1,2,30,0,1
179964,-100,4,1,2,40,0,1
180509,-100,4,1,2,45,0,1
181054,-100,4,1,2,50,0,1
181599,-100,4,1,2,60,0,1
181743,-100,4,1,2,30,0,1
182288,-100,4,1,2,40,0,1
182833,-100,4,1,2,50,0,1
183378,-100,4,1,2,60,0,1
183943,-100,4,1,2,30,0,1
184354,-100,4,1,2,35,0,1
184763,-100,4,1,2,40,0,1
185172,-100,4,1,2,45,0,1
185581,-100,4,1,2,50,0,1
185990,-100,4,1,2,60,0,1
196803,-100,4,1,2,30,0,1
197416,-100,4,1,2,40,0,1
197961,-100,4,1,2,50,0,1
198642,-100,4,1,2,60,0,1
199187,-100,4,1,2,30,0,1
199735,-100,4,1,2,40,0,1
200280,-100,4,1,2,50,0,1
200825,-100,4,1,2,60,0,1
201370,-100,4,1,2,30,0,1
201917,-100,4,1,2,40,0,1
202462,-100,4,1,2,50,0,1
203007,-100,4,1,2,60,0,1
203552,-100,4,1,2,30,0,1
204099,-100,4,1,2,40,0,1
204508,-100,4,1,2,50,0,1
205053,-100,4,1,2,60,0,1
205325,-100,4,1,2,70,0,1
205597,-100,4,1,2,80,0,1

[Colours]
Combo1 : 107,175,194
Combo2 : 162,221,23
Combo3 : 255,145,91
Combo4 : 250,116,223
SliderBorder : 255,255,255
SliderTrackOverride : 255,255,255

[HitObjects]
440,40,4940,1,0,0:0:0
352,224,5213,1,2,0:0:0
144,248,5485,2,0,B|72:328,1,80
184,152,5758,2,0,B|160:64,1,80,2|0,0:0|0:0,0:0:0
352,80,6167,1,0,0:0:0
296,136,6303,2,0,B|256:216|288:304,1,160,10|0,0:0|0:0,0:0:0
352,336,6713,1,0,0:0:0
208,304,6849,2,0,B|192:224|88:192,1,160,10|4,0:0|0:0,0:0:0
416,216,7394,5,6,0:0:0
208,112,7667,2,0,B|176:80|184:32,1,80
120,136,7940,2,0,B|88:224,1,80,2|0,0:0|0:0,0:0:0
392,40,8349,5,0,0:0:0
328,88,8485,2,0,B|304:144|320:192,1,80,10|0,0:0|0:0,0:0:0
272,232,8758,1,0,0:0:0
216,288,8894,1,0,0:0:0
136,304,9031,1,10,0:0:0
456,320,9303,5,4,0:0:0
368,184,9576,2,0,B|312:136|240:136|200:144,1,160,6|0,0:0|0:0,0:0:0
152,96,9985,1,0,0:0:0
120,24,10122,1,2,0:0:0
152,96,10258,2,0,B|192:160|184:224|144:264,1,160
120,312,10667,2,0,B|48:352,1,80,10|0,0:0|0:0,0:0:0
200,280,10940,1,0,0:0:0
280,288,11076,1,0,0:0:0
344,336,11213,1,10,0:0:0
424,336,11349,1,0,0:0:0
384,264,11485,6,0,B|456:216,1,80,4|0,0:0|0:0,0:0:0
320,216,11758,2,0,B|248:168,1,80,6|0,0:0|0:0,0:0:0
400,168,12031,2,0,B|472:120,1,80,0|0,0:0|0:0,0:0:0
304,120,12303,2,0,B|232:72,1,80,2|0,0:0|0:0,0:0:0
168,32,12576,1,0,0:0:0
144,328,12849,5,10,0:0:0
104,256,12985,2,0,B|120:176|104:128|80:96,1,160
144,168,13394,2,0,B|216:216,1,80,10|0,0:0|0:0,0:0:0
272,264,13667,5,4,0:0:0
472,352,13940,1,6,0:0:0
336,208,14213,1,0,0:0:0
264,176,14349,1,0,0:0:0
224,104,14485,1,2,0:0:0
160,56,14622,2,0,B|128:16|72:0|24:32|8:64,1,160
88,120,15031,2,2,B|8:160,1,80,10|0,0:0|0:0,0:0:0
56,224,15303,1,0,0:0:0
128,256,15440,1,0,0:0:0
176,320,15576,1,10,0:0:0
240,368,15713,1,0,0:0:0
320,360,15849,6,0,B|352:320|400:320,1,80,4|0,0:0|0:0,0:0:0
480,248,16122,1,6,0:0:0
408,216,16258,1,0,0:0:0
344,168,16394,2,0,B|304:152|288:104,1,80
192,40,16667,1,6,0:0:0
128,88,16803,1,0,0:0:0
120,168,16940,2,0,B|144:216|128:264,1,80
64,360,17213,2,0,B|112:336|168:336,1,80,6|0,0:0|0:0,0:0:0
232,248,17485,2,0,B|208:208|216:160,1,80,4|0,0:0|0:0,0:0:0
264,80,17758,2,0,B|304:32|376:24|416:48,1,160,6|4,0:0|0:0,0:0:0
432,344,18303,5,2,0:0:0
144,336,18576,2,0,B|112:280|64:280,1,80,0|0,0:0|0:0,0:0:0
40,216,18849,1,2,0:0:0
48,136,18985,1,0,0:0:0
464,128,19258,2,0,B|440:224,1,80,0|10,0:0|0:0,0:0:0
400,272,19531,1,0,0:0:0
368,200,19667,2,0,B|392:104,1,80
344,56,19940,1,10,0:0:0
136,184,20213,6,0,B|160:256|112:312|48:312,1,160,4|6,0:0|0:0,0:0:0
152,288,20622,1,0,0:0:0
216,240,20758,2,0,B|208:176|240:152,1,80
216,88,21031,1,2,0:0:0
136,96,21167,1,0,0:0:0
352,320,21440,1,0,0:0:0
424,360,21576,2,0,B|504:368,2,80,10|0|0,0:0|0:0|0:0,0:0:0
352,320,21985,1,0,0:0:0
312,248,22122,2,0,B|272:184|288:112|328:88,1,160,10|4,0:0|0:0,0:0:0
40,32,22667,5,6,0:0:0
64,352,22940,2,0,B|104:320|104:272,1,80
176,248,23213,1,2,0:0:0
200,328,23349,2,0,B|168:272|208:200|248:160,1,160
288,128,23758,1,10,0:0:0
360,160,23894,2,0,B|448:176,2,80
288,128,24303,1,10,0:0:0
224,80,24440,1,0,0:0:0
112,24,24576,6,0,B|64:64|48:136|80:184,2,160,4|6|0,0:0|0:0|0:0,0:0:0
136,120,25258,1,0,0:0:0
144,200,25394,1,2,0:0:0
80,248,25531,2,0,B|64:296|104:336|160:344|200:304,1,160
304,280,25940,5,10,0:0:0
232,248,26076,1,0,0:0:0
304,280,26213,2,0,B|368:344,1,80
440,328,26485,2,0,B|400:272|408:200|448:160,1,160,10|4,0:0|0:0,0:0:0
296,24,27031,5,6,0:0:0
256,96,27167,1,0,0:0:0
192,144,27303,1,0,0:0:0
112,144,27440,1,0,0:0:0
48,96,27576,2,0,B|8:128|32:176,1,80,2|0,0:0|0:0,0:0:0
464,288,27985,6,0,B|504:256|480:208,1,80,0|10,0:0|0:0,0:0:0
408,232,28258,1,0,0:0:0
344,280,28394,1,0,0:0:0
296,344,28531,1,0,0:0:0
224,368,28667,1,10,0:0:0
144,360,28803,1,0,0:0:0
80,320,28940,2,0,B|24:280|32:200|56:168,2,160,4|6|0,0:0|0:0|0:0,0:0:0
296,80,29758,5,2,0:0:0
216,96,29894,2,0,B|168:136|96:136|48:88,1,160
176,168,30303,2,0,B|256:216,1,80,10|0,0:0|0:0,0:0:0
312,248,30576,1,0,0:0:0
312,336,30713,2,0,B|408:312,1,80,0|10,0:0|0:0,0:0:0
464,304,30985,1,0,0:0:0
389,316,31122,6,0,B|352:264|352:184|376:144,1,160,4|6,0:0|0:0,0:0:0
312,248,31531,2,0,B|232:288,1,80
168,312,31803,1,0,0:0:0
168,312,31940,1,2,0:0:0
96,280,32076,2,0,B|128:216|120:152|88:112,1,160
200,208,32485,2,0,B|160:144|184:72|200:48,1,160,10|0,0:0|0:0,0:0:0
195,54,32894,1,0,0:0:0
264,104,33031,2,0,B|328:160,1,80,10|0,0:0|0:0,0:0:0
440,216,33303,6,0,B|390:279,1,80,4|0,0:0|0:0,0:0:0
256,312,33576,2,0,B|305:248,1,80,6|0,0:0|0:0,0:0:0
312,40,33849,2,0,B|262:103,1,80
96,184,34122,2,0,B|145:120,2,80,6|0|0,0:0|0:0|0:0,0:0:0
56,256,34531,1,0,0:0:0
96,328,34667,1,6,0:0:0
176,336,34803,1,0,0:0:0
256,312,34940,2,0,B|312:288|344:296,1,80,4|0,0:0|0:0,0:0:0
416,304,35213,2,0,B|384:248|392:176|424:144,1,160,6|4,0:0|0:0,0:0:0
192,32,35758,6,0,B|208:80|192:128,2,80,2|0|0,0:0|0:0|0:0,0:0:0
112,48,36167,1,0,0:0:0
56,104,36303,1,2,0:0:0
56,184,36440,1,0,0:0:0
456,200,36713,5,0,0:0:0
376,216,36849,2,0,B|344:256|352:304,1,80,10|0,0:0|0:0,0:0:0
288,176,37122,2,0,B|312:136|312:96,1,80
376,48,37394,2,0,B|416:48|456:24,2,80,10|0|4,0:0|0:0|0:0,0:0:0
208,88,37803,5,0,0:0:0
160,152,37940,1,6,0:0:0
152,232,38076,1,0,0:0:0
200,296,38213,2,0,B|272:328,1,80
352,312,38485,2,0,B|440:288,1,80,2|0,0:0|0:0,0:0:0
152,232,38894,6,0,B|64:272,1,80,0|10,0:0|0:0,0:0:0
80,184,39167,1,0,0:0:0
24,128,39303,2,0,B|8:80|24:24,2,80,0|0|10,0:0|0:0|0:0,0:0:0
56,328,39849,6,0,B|216:320,1,160,0|8,0:0|0:0,0:0:0
296,344,40258,1,0,0:0:0
376,344,40394,2,0,B|400:288|456:288,1,80,0|0,0:0|0:0,0:0:0
328,272,40667,1,8,0:0:0
264,224,40803,2,0,B|208:192|216:88|272:72,1,160,0|0,0:0|0:0,0:0:0
200,176,41213,6,0,B|144:248,1,80,10|2,0:0|0:0,0:0:0
88,104,41485,2,0,B|144:32,1,80,0|2,0:0|0:0,0:0:0
200,96,41758,1,10,0:0:0
272,136,41894,1,0,0:0:0
448,264,42031,6,0,B|376:248|296:288|288:344,2,160,0|8|0,0:0|0:0|0:0,0:0:0
384,192,42713,1,0,0:0:0
352,112,42849,2,0,B|416:40,1,80,8|0,0:0|0:0,0:0:0
168,304,43258,5,0,0:0:0
88,280,43394,2,0,B|24:352,1,80,10|2,0:0|0:0,0:0:0
80,200,43667,1,0,0:0:0
152,176,43803,2,0,B|176:136|144:80,1,80,2|8,0:0|0:0,0:0:0
472,336,44213,6,0,B|392:336,1,80
328,288,44485,1,8,0:0:0
272,232,44622,2,0,B|232:256|256:336,2,80
344,192,45031,1,8,0:0:0
424,184,45167,2,0,B|472:152|472:64|424:16,1,160
360,40,45576,2,0,B|272:96,1,80,10|2,0:0|0:0,0:0:0
216,56,45849,2,0,B|128:112,1,80,0|2,0:0|0:0,0:0:0
72,136,46122,1,10,0:0:0
72,136,46258,1,0,0:0:0
48,256,46394,6,0,B|128:256|160:312|168:352,2,160,0|8|0,0:0|0:0|0:0,0:0:0
136,232,47076,1,0,0:0:0
216,216,47213,2,0,B|288:208|304:184,1,80,8|0,0:0|0:0,0:0:0
432,96,47622,1,0,0:0:0
432,96,47758,1,10,0:0:0
432,96,48576,6,2,B|344:32|176:32|64:120|32:232,1,480,6|6,0:0|0:0,0:0:0
112,240,49531,2,0,B|144:184|200:144|240:144,1,160,2|8,0:0|0:0,0:0:0
312,144,49940,2,0,B|368:144|400:176,1,80,8|0,0:0|0:0,0:0:0
456,208,50213,2,0,B|368:256,1,80
280,280,50485,2,0,B|352:336,1,80,8|0,0:0|0:0,0:0:0
224,352,50758,2,2,B|136:352|40:312|40:208|48:192,2,240
304,368,51713,1,0,0:0:0
384,360,51849,1,0,0:0:0
456,208,52122,1,8,0:0:0
256,80,52394,5,0,0:0:0
216,152,52531,1,0,0:0:0
144,192,52667,1,8,0:0:0
80,240,52803,1,0,0:0:0
16,288,52940,2,0,B|40:336|96:368|176:352,1,160,4|8,0:0|0:0,0:0:0
256,320,53349,1,2,0:0:0
296,152,53622,5,0,0:0:0
368,192,53758,1,8,0:0:0
432,240,53895,1,0,0:0:0
496,288,54031,2,0,B|472:336|416:368|336:352,1,160,0|8,0:0|0:0,0:0:0
256,320,54440,1,2,0:0:0
64,56,54713,5,0,0:0:0
144,56,54849,2,0,B|232:112,1,80,8|0,0:0|0:0,0:0:0
176,176,55122,2,0,B|136:136|80:128|32:152|16:176,1,160,4|8,0:0|0:0,0:0:0
80,224,55531,1,2,0:0:0
448,56,55803,5,0,0:0:0
368,56,55939,2,0,B|280:112,1,80,8|0,0:0|0:0,0:0:0
336,176,56212,2,0,B|376:136|432:128|480:152|496:176,1,160,0|8,0:0|0:0,0:0:0
432,224,56621,1,2,0:0:0
256,344,57031,5,8,0:0:0
48,240,57303,2,0,B|104:288|176:264|200:232,1,160,4|8,0:0|0:0,0:0:0
144,176,57713,1,0,0:0:0
32,152,57849,2,0,B|96:88,1,80,0|0,0:0|0:0,0:0:0
168,88,58122,1,8,0:0:0
224,152,58258,1,0,0:0:0
288,200,58394,2,0,B|376:184,1,80
480,160,58667,1,8,0:0:0
480,160,58803,1,0,0:0:0
448,232,58940,2,0,B|384:272|400:336|432:376,1,160,0|8,0:0|0:0,0:0:0
368,320,59349,1,0,0:0:0
256,192,59485,12,4,61667,0:0:0
416,312,70258,5,0,0:0:0
352,264,70394,2,0,B|328:168|248:120,1,160,0|2,0:0|0:0,0:0:0
128,80,70803,1,0,0:0:0
80,144,70940,2,0,B|104:240|184:288,1,160,0|2,0:0|0:0,0:0:0
96,240,71349,2,0,B|64:312|-16:352,1,160
96,240,71758,2,0,B|200:216,1,80,10|0,0:0|0:0,0:0:0
256,216,72031,1,0,0:0:0
328,176,72167,1,0,0:0:0
376,112,72303,2,0,B|400:64|464:56,2,80,10|0|4,0:0|0:0|0:0,0:0:0
456,344,72849,5,6,0:0:0
376,328,72985,2,0,B|312:296|248:296|184:320,1,160
144,328,73394,2,0,B|64:304|64:216|80:192,1,160,2|0,0:0|0:0,0:0:0
144,168,73803,1,0,0:0:0
200,104,73940,1,10,0:0:0
120,80,74076,2,0,B|80:64|64:16,2,80
232,176,74485,6,0,B|288:232|368:232|408:224,1,160,10|4,0:0|0:0,0:0:0
168,312,75031,1,6,0:0:0
168,312,75167,1,0,0:0:0
104,264,75303,2,0,B|112:208|72:152|24:128,1,160,0|2,0:0|0:0,0:0:0
104,168,75713,2,0,B|168:224|256:256,1,160
304,296,76122,1,10,0:0:0
352,360,76258,1,0,0:0:0
304,296,76394,1,0,0:0:0
304,216,76531,1,0,0:0:0
328,144,76667,1,10,0:0:0
384,88,76803,1,0,0:0:0
304,216,76940,6,0,B|248:288,1,80,4|0,0:0|0:0,0:0:0
104,264,77213,2,0,B|48:336,2,80,4|0|0,0:0|0:0|0:0,0:0:0
112,184,77622,1,0,0:0:0
128,104,77758,2,0,B|177:40,1,80,4|0,0:0|0:0,0:0:0
184,232,78031,2,0,B|233:168,1,80
256,360,78303,2,0,B|305:296,1,80,4|0,0:0|0:0,0:0:0
376,264,78576,1,4,0:0:0
424,200,78713,1,0,0:0:0
456,128,78849,2,0,B|496:64|448:8|368:24,1,160,4|4,0:0|0:0,0:0:0
112,184,79394,5,2,0:0:0
104,264,79531,2,0,B|104:336|48:352,1,80
104,264,79803,1,0,0:0:0
112,184,79940,1,2,0:0:0
160,120,80076,2,0,B|192:64|248:32|288:24,1,160
424,64,80485,2,0,B|336:88,1,80,10|0,0:0|0:0,0:0:0
256,176,80758,2,0,B|368:168,1,80
456,208,81031,2,0,B|424:288,1,80,10|0,0:0|0:0,0:0:0
312,344,81303,6,0,B|240:288|136:336,1,160,4|8,0:0|0:0,0:0:0
64,304,81713,2,0,B|152:264|176:192,1,160,4|8,0:0|0:0,0:0:0
256,176,82122,2,0,B|232:136|224:48|240:16,1,160,12|8,0:0|0:0,0:0:0
184,80,82531,2,0,B|144:128|72:128|32:120,1,160,4|8,0:0|0:0,0:0:0
104,168,82940,2,0,B|192:208,1,80,12|0,0:0|0:0,0:0:0
256,176,83213,1,12,0:0:0
336,152,83349,1,8,0:0:0
448,64,83485,6,0,B|408:112|416:184|448:224,1,160,4|2,0:0|0:0,0:0:0
456,296,83894,1,0,0:0:0
504,360,84031,1,0,0:0:0
456,296,84167,1,0,0:0:0
384,272,84303,1,2,0:0:0
304,272,84440,2,0,B|240:304|200:360|128:352,1,160
88,352,84849,1,10,0:0:0
88,352,84985,1,0,0:0:0
48,264,85122,6,0,B|64:224|56:176,1,80
144,192,85394,2,0,B|136:144|144:112,1,80,10|0,0:0|0:0,0:0:0
216,72,85667,2,0,B|264:64|288:40,1,80,4|0,0:0|0:0,0:0:0
368,56,85940,1,6,0:0:0
440,96,86076,1,0,0:0:0
480,168,86213,2,0,B|440:224|456:296|480:320,2,160,0|2|0,0:0|0:0|0:0,0:0:0
216,72,87031,5,10,0:0:0
144,104,87167,2,0,B|96:80|24:112|32:184,1,160,0|0,0:0|0:0,0:0:0
80,240,87576,2,0,B|96:280|72:336,1,80,10|0,0:0|0:0,0:0:0
208,272,87849,6,0,B|240:208|304:168|344:152,1,160,4|6,0:0|0:0,0:0:0
392,120,88258,1,0,0:0:0
440,56,88394,2,0,B|496:104|496:176|472:232,1,160,0|2,0:0|0:0,0:0:0
400,208,88803,2,0,B|352:256|360:328|384:376,1,160,0|0,0:0|0:0,0:0:0
320,296,89213,1,10,0:0:0
280,232,89349,1,0,0:0:0
208,192,89485,2,0,B|144:192|112:128|128:80,1,160,0|10,0:0|0:0,0:0:0
120,160,89894,6,0,B|80:232,1,80,0|4,0:0|0:0,0:0:0
320,296,90303,2,0,B|400:152,1,160,6|0,0:0|0:0,0:0:0
392,240,90713,1,0,0:0:0
408,320,90849,1,2,0:0:0
320,296,90985,2,0,B|264:272|200:272|136:296,1,160,0|0,0:0|0:0,0:0:0
56,288,91394,6,0,B|0:360,1,80,10|0,0:0|0:0,0:0:0
64,192,91667,2,0,B|112:128,1,80
184,96,91940,1,10,0:0:0
264,88,92076,1,0,0:0:0
432,16,92213,6,0,B|480:64|480:128|408:184,1,160,4|6,0:0|0:0,0:0:0
360,184,92622,1,0,0:0:0
360,184,92758,2,0,B|288:224|296:320,1,160,0|2,0:0|0:0,0:0:0
248,256,93167,2,0,B|240:208|184:160|128:160,1,160
72,112,93576,2,0,B|56:32,2,80,10|0|0,0:0|0:0|0:0,0:0:0
133,160,93985,1,0,0:0:0
104,232,94122,2,0,B|56:296,1,80,10|0,0:0|0:0,0:0:0
144,352,94394,5,4,0:0:0
144,352,94531,1,0,0:0:0
256,328,94667,1,6,0:0:0
256,328,94803,1,0,0:0:0
368,352,94940,1,0,0:0:0
368,352,95076,1,0,0:0:0
328,256,95213,2,0,B|352:176,1,80,6|0,0:0|0:0,0:0:0
184,256,95485,2,0,B|160:176,1,80
256,112,95758,2,0,B|256:24,2,80,6|0|4,0:0|0:0|0:0,0:0:0
256,192,96167,1,0,0:0:0
176,336,96303,2,0,B|344:336,1,160,6|4,0:0|0:0,0:0:0
256,32,96849,5,2,0:0:0
184,72,96985,2,0,B|120:104|24:96,1,160
80,160,97394,2,0,B|168:184,1,80,2|0,0:0|0:0,0:0:0
424,320,97803,5,0,0:0:0
376,256,97940,1,10,0:0:0
376,256,98076,1,0,0:0:0
424,192,98213,2,0,B|472:176|496:152,1,80,0|0,0:0|0:0,0:0:0
440,96,98485,1,10,0:0:0
392,32,98622,1,0,0:0:0
256,80,98758,6,0,B|224:120|232:184,1,80,4|0,0:0|0:0,0:0:0
256,232,99031,2,0,B|256:280|224:304,1,80,6|0,0:0|0:0,0:0:0
152,344,99303,1,0,0:0:0
80,304,99440,2,0,B|32:304|-16:336,2,80,0|2|0,0:0|0:0|0:0,0:0:0
256,80,99985,5,0,0:0:0
312,136,100122,2,0,B|352:160|392:160,1,80,10|0,0:0|0:0,0:0:0
448,208,100394,2,0,B|408:248|408:320|424:360,1,160,0|10,0:0|0:0,0:0:0
48,48,100940,5,0,0:0:0
128,48,101076,1,0,0:0:0
184,112,101213,1,8,0:0:0
256,80,101349,2,0,B|336:88|416:64,1,160
376,136,101758,1,8,0:0:0
296,160,101894,2,0,B|232:168|176:200|144:240,1,160
88,272,102303,2,0,B|16:320,1,80,10|2,0:0|0:0,0:0:0
176,304,102576,2,0,B|248:352,1,80,0|2,0:0|0:0,0:0:0
352,328,102849,2,0,B|448:304,1,80,10|0,0:0|0:0,0:0:0
424,200,103122,5,0,0:0:0
376,136,103258,1,0,0:0:0
344,64,103394,1,8,0:0:0
280,112,103531,2,0,B|216:152|144:152|112:152,1,160
56,192,103940,1,8,0:0:0
112,256,104076,2,0,B|200:280|264:336,1,160,0|0,0:0|0:0,0:0:0
320,280,104485,2,0,B|344:200,1,80,2|2,0:0|0:0,0:0:0
424,200,104758,1,0,0:0:0
424,200,104894,1,2,0:0:0
472,136,105031,2,0,B|416:128|368:80|368:32,1,160,8|0,0:0|0:0,0:0:0
256,8,105440,5,0,0:0:0
232,80,105576,2,0,B|232:144|256:176,1,80,8|0,0:0|0:0,0:0:0
160,128,105849,2,0,B|168:80|136:32,1,80
72,72,106122,1,8,0:0:0
72,152,106258,2,0,B|48:192|48:264|72:312,1,160,0|0,0:0|0:0,0:0:0
144,272,106667,1,10,0:0:0
224,264,106803,1,2,0:0:0
280,320,106940,2,0,B|328:352|400:344|440:328,1,160,0|10,0:0|0:0,0:0:0
400,192,107349,5,0,0:0:0
328,160,107485,2,0,B|360:80,1,80
264,112,107758,2,0,B|234:186,1,80,8|0,0:0|0:0,0:0:0
224,264,108031,1,0,0:0:0
144,272,108167,1,0,0:0:0
80,320,108303,1,8,0:0:0
80,320,108440,1,0,0:0:0
80,64,108713,1,0,0:0:0
80,64,108849,1,2,0:0:0
80,64,109667,6,2,B|24:128|24:240|112:312|192:320|288:288,1,400,6|0,0:0|0:0,0:0:0
344,328,110485,1,2,0:0:0
408,280,110622,2,2,B|448:232|376:160|400:112,1,160,2|8,0:0|0:0,0:0:0
320,136,111031,2,0,B|272:200,1,80,8|0,0:0|0:0,0:0:0
200,232,111303,1,0,0:0:0
120,256,111440,1,0,0:0:0
80,328,111576,1,8,0:0:0
48,40,111849,6,2,B|80:104|176:112|224:96|272:56,2,240
80,112,112803,2,0,B|144:176,1,80
136,168,113213,1,8,0:0:0
256,304,113485,5,0,0:0:0
296,232,113622,1,0,0:0:0
368,192,113758,1,8,0:0:0
432,144,113894,1,0,0:0:0
496,96,114031,2,0,B|472:48|416:16|336:32,1,160,4|8,0:0|0:0,0:0:0
256,64,114440,1,2,0:0:0
216,232,114713,5,0,0:0:0
144,192,114849,1,8,0:0:0
80,144,114986,1,0,0:0:0
16,96,115122,2,0,B|40:48|96:16|176:32,1,160,0|8,0:0|0:0,0:0:0
256,64,115531,1,2,0:0:0
448,328,115804,5,0,0:0:0
368,328,115940,2,0,B|280:272,1,80,8|0,0:0|0:0,0:0:0
336,208,116213,2,0,B|376:248|432:256|480:232|496:208,1,160,4|8,0:0|0:0,0:0:0
432,160,116622,1,2,0:0:0
64,328,116894,5,0,0:0:0
144,328,117030,2,0,B|232:272,1,80,8|0,0:0|0:0,0:0:0
176,208,117303,2,0,B|136:248|80:256|32:232|16:208,1,160,0|8,0:0|0:0,0:0:0
80,160,117712,1,2,0:0:0
256,32,118122,5,0,0:0:0
256,32,118394,2,0,B|248:96|288:144|368:152,1,160,0|8,0:0|0:0,0:0:0
408,192,118803,1,0,0:0:0
456,256,118940,2,0,B|496:336,1,80
376,264,119213,1,8,0:0:0
304,240,119349,1,0,0:0:0
224,240,119485,2,2,B|224:168|136:56|40:72,1,240
184,96,120031,2,2,B|248:160|328:168|408:152,1,240
304,240,120576,6,0,B|248:320,1,80,4|0,0:0|0:0,0:0:0
224,240,120849,1,8,0:0:0
168,296,120985,2,0,B|112:376,2,80
224,240,121394,2,0,B|272:184|280:104|240:40|208:16,1,240,8|0,0:0|0:0,0:0:0
272,80,121940,2,0,B|304:152,1,80,8|0,0:0|0:0,0:0:0
376,192,122213,2,0,B|440:200|472:264|464:320,1,160,0|8,0:0|0:0,0:0:0
256,312,122622,5,0,0:0:0
224,240,122758,2,0,B|208:200|160:184,1,80,4|0,0:0|0:0,0:0:0
216,128,123031,2,0,B|184:104|184:56,1,80,8|0,0:0|0:0,0:0:0
104,24,123303,2,2,B|120:80|112:152|96:224|72:264,1,240
436,258,123985,1,0,0:0:0
392,192,124122,2,0,B|368:144|368:88|392:32,1,160,8|0,0:0|0:0,0:0:0
389,36,124531,1,0,0:0:0
344,104,124667,2,0,B|336:160|296:176,1,80,8|0,0:0|0:0,0:0:0
112,192,124940,6,10,B|40:232|40:328|104:376|184:368,2,240,2|2|2,0:0|0:0|0:0,0:0:0
184,168,125894,1,0,0:0:0
232,104,126031,1,0,0:0:0
448,192,126303,1,8,0:0:0
440,272,126440,1,0,0:0:0
472,344,126576,1,0,0:0:0
272,312,126849,1,8,0:0:0
192,288,126986,1,0,0:0:0
64,256,127122,6,2,B|112:216|128:144|128:72|96:24,1,240,6|2,0:0|0:0,0:0:0
152,96,127667,2,2,B|160:160|232:200|296:200,1,160
344,192,128076,1,2,0:0:0
64,256,128349,5,0,0:0:0
104,328,128485,2,0,B|168:384,1,80,8|0,0:0|0:0,0:0:0
192,288,128758,2,0,B|256:240,1,80
344,192,129031,2,0,B|432:232,1,80,8|0,0:0|0:0,0:0:0
448,144,129303,2,2,B|368:112|328:40|200:56,2,240,2|2|2,0:0|0:0|0:0,0:0:0
472,224,130258,1,0,0:0:0
472,304,130394,1,0,0:0:0
472,304,130667,1,8,0:0:0
40,80,130940,5,0,0:0:0
104,128,131076,1,0,0:0:0
136,200,131213,1,8,0:0:0
128,280,131349,1,0,0:0:0
136,200,131485,2,0,B|152:144|200:96|256:96,1,160,4|8,0:0|0:0,0:0:0
256,16,131894,1,2,0:0:0
408,256,132167,5,0,0:0:0
376,184,132304,1,8,0:0:0
384,104,132440,1,0,0:0:0
376,184,132576,2,0,B|360:240|312:288|256:288,1,160,0|8,0:0|0:0,0:0:0
256,368,132985,1,2,0:0:0
104,128,133258,5,0,0:0:0
184,96,133394,2,0,B|160:16,1,80,8|0,0:0|0:0,0:0:0
168,176,133667,2,0,B|136:208|128:256|136:288|160:328,1,160,4|8,0:0|0:0,0:0:0
224,272,134076,1,2,0:0:0
408,256,134349,5,0,0:0:0
328,288,134485,2,0,B|352:368,1,80,8|0,0:0|0:0,0:0:0
344,208,134758,2,0,B|376:176|384:128|376:96|352:56,1,160,0|8,0:0|0:0,0:0:0
288,112,135167,1,2,0:0:0
256,192,135576,5,8,0:0:0
256,192,135849,2,0,B|256:248|232:272,1,80,4|0,0:0|0:0,0:0:0
235,267,136122,1,8,0:0:0
184,208,136258,2,0,B|176:160|208:128,1,80,0|0,0:0|0:0,0:0:0
203,133,136531,1,0,0:0:0
232,56,136667,1,8,0:0:0
288,112,136803,1,0,0:0:0
336,176,136940,2,0,B|336:232|304:256,1,80
311,249,137213,1,8,0:0:0
296,328,137349,1,0,0:0:0
235,267,137485,1,0,0:0:0
235,267,137622,1,0,0:0:0
184,208,137758,1,8,0:0:0
296,328,138031,6,0,B|320:264|384:208|448:192|480:192,1,240,4|0,0:0|0:0,0:0:0
376,184,138576,2,0,B|320:168|272:112|264:48|272:-16,1,240,0|0,0:0|0:0,0:0:0
216,56,139122,2,0,B|192:120|128:176|64:192|32:192,1,240,4|0,0:0|0:0,0:0:0
136,200,139667,2,0,B|192:216|240:272|248:336|240:400,1,240
256,192,140213,12,0,144303,0:0:0
96,264,161485,5,0,0:0:0
96,264,161758,1,8,0:0:0
96,264,162031,2,0,B|192:240|272:248,1,160,0|8,0:0|0:0,0:0:0
328,288,162440,2,0,B|400:336,1,80
472,352,162713,1,0,0:0:0
472,352,162849,1,8,0:0:0
448,280,162985,2,0,B|416:232|424:160|448:112,1,160,0|0,0:0|0:0,0:0:0
392,64,163394,2,0,B|352:136,1,80,10|2,0:0|0:0,0:0:0
353,133,163667,1,0,0:0:0
288,72,163803,2,0,B|249:141,1,80,10|2,0:0|0:0,0:0:0
136,248,164076,5,0,0:0:0
176,176,164213,2,0,B|192:128|160:64|96:56,1,160,0|8,0:0|0:0,0:0:0
176,88,164622,1,0,0:0:0
176,176,164758,2,0,B|232:240,1,80
280,296,165031,1,8,0:0:0
352,328,165167,2,0,B|416:336|480:288|488:232,1,160
384,240,165576,2,0,B|368:160,1,80,10|2,0:0|0:0,0:0:0
288,64,165849,1,0,0:0:0
288,64,165985,2,0,B|304:152,1,80,2|10,0:0|0:0,0:0:0
96,328,166394,5,0,0:0:0
96,328,166531,2,0,B|80:240,1,80,0|8,0:0|0:0,0:0:0
72,168,166803,1,0,0:0:0
144,200,166940,2,0,B|152:176|152:136|120:104,1,80
72,72,167213,1,8,0:0:0
134,122,167349,2,0,B|152:160|208:184|264:192|288:192,1,160,0|0,0:0|0:0,0:0:0
352,192,167758,1,2,0:0:0
408,136,167894,1,2,0:0:0
352,192,168031,1,0,0:0:0
312,264,168167,2,0,B|296:304|304:344,1,80,2|2,0:0|0:0,0:0:0
448,360,168440,5,0,0:0:0
448,360,168576,2,0,B|464:296|464:240|448:168,1,160
408,136,168985,1,0,0:0:0
336,96,169122,2,0,B|312:64|304:24,1,80
256,96,169394,1,0,0:0:0
224,168,169531,2,0,B|216:232|160:272|96:272,1,160
48,328,169940,1,2,0:0:0
48,328,170758,6,2,B|128:288|160:232|168:160|152:88|120:40|24:16,1,400,6|2,0:0|0:0,0:0:0
128,48,171576,2,0,B|160:96|224:112,1,80,2|0,0:0|0:0,0:0:0
392,248,171985,1,0,0:0:0
440,312,172122,2,0,B|488:336|504:368,2,80,8|0|0,0:0|0:0|0:0,0:0:0
392,248,172531,1,0,0:0:0
336,192,172667,2,0,B|312:152|328:96,1,80,8|0,0:0|0:0,0:0:0
272,56,172940,2,2,B|264:112|232:184|184:221|128:240,2,240
272,56,173894,1,0,0:0:0
352,48,174031,1,0,0:0:0
160,336,174303,1,8,0:0:0
280,168,174576,5,0,0:0:0
328,232,174713,1,0,0:0:0
400,264,174849,1,8,0:0:0
480,264,174985,1,0,0:0:0
400,264,175122,2,0,B|336:264|280:296|256:328,1,160,4|8,0:0|0:0,0:0:0
258,326,175531,1,2,0:0:0
184,152,175803,5,0,0:0:0
112,120,175939,1,8,0:0:0
32,120,176075,1,0,0:0:0
112,120,176212,2,0,B|176:120|232:88|256:56,1,160,0|8,0:0|0:0,0:0:0
254,58,176622,1,2,0:0:0
116,271,176894,5,0,0:0:0
116,351,177031,2,0,B|20:367,1,80,8|0,0:0|0:0,0:0:0
116,271,177303,2,0,B|260:191,1,160,4|8,0:0|0:0,0:0:0
255,193,177713,1,2,0:0:0
396,271,177985,5,0,0:0:0
396,351,178122,2,0,B|492:367,1,80,8|0,0:0|0:0,0:0:0
396,271,178394,2,0,B|252:191,1,160,0|8,0:0|0:0,0:0:0
257,193,178804,1,2,0:0:0
255,193,179213,5,0,0:0:0
96,48,179485,2,0,P|64:96|64:128,1,80
104,184,179758,1,8,0:0:0
136,256,179894,2,0,P|128:304|96:344,2,80
257,193,180303,1,8,0:0:0
224,264,180440,1,0,0:0:0
208,344,180576,2,0,P|264:320|352:320|392:336,1,160,2|8,0:0|0:0,0:0:0
448,344,180985,1,0,0:0:0
416,272,181122,2,0,P|400:224|400:144|416:104,1,160,2|8,0:0|0:0,0:0:0
344,24,181531,5,0,0:0:0
288,80,181667,2,0,P|208:80,1,80,4|0,0:0|0:0,0:0:0
128,80,181940,1,8,0:0:0
48,80,182076,1,0,0:0:0
88,152,182213,2,0,P|96:192|80:240,1,80
48,296,182485,2,0,P|96:264|168:256|240:272|288:304,1,240,8|0,0:0|0:0,0:0:0
232,232,183031,2,0,P|216:192|224:144,1,80,10|0,0:0|0:0,0:0:0
168,216,183303,2,0,P|184:256|184:320|176:352|168:376,1,160,0|10,0:0|0:0,0:0:0
352,320,183713,5,0,0:0:0
408,264,183849,2,0,P|424:224|416:176,1,80,4|0,0:0|0:0,0:0:0
376,120,184122,2,0,P|376:72|392:40,1,80,8|0,0:0|0:0,0:0:0
328,96,184394,2,0,P|288:160|232:192|160:184|120:168,1,240,0|0,0:0|0:0,0:0:0
72,320,185076,1,0,0:0:0
136,272,185213,2,0,P|72:224,1,80,8|0,0:0|0:0,0:0:0
160,344,185485,2,0,P|232:288,1,80
288,248,185758,2,0,P|352:320,1,80,8|0,0:0|0:0,0:0:0
472,336,186031,6,6,P|392:248|392:112|488:32,1,320,6|2,0:0|0:0,0:0:0
256,80,186849,1,0,0:0:0
200,136,186985,1,2,0:0:0
200,136,187122,1,0,0:0:0
312,136,187258,1,2,0:0:0
312,136,187394,1,0,0:0:0
256,192,187531,1,0,0:0:0
256,192,187667,1,2,0:0:0
256,192,187940,1,2,0:0:0
256,192,188213,6,0,P|336:208|344:280|336:344|248:368,1,240,4|0,0:0|0:0,0:0:0
232,272,188758,2,0,P|152:256|144:184|152:120|240:96,1,240,0|0,0:3|0:3,0:3:0
48,48,189440,5,0,0:0:0
72,120,189576,1,8,0:0:0
72,200,189713,1,0,0:0:0
40,272,189849,1,0,0:0:0
48,352,189985,2,0,P|128:336,1,80,0|8,0:0|0:0,0:0:0
208,352,190258,1,0,0:0:0
176,280,190394,2,0,P|152:224|152:152|168:96,1,160,2|8,0:0|0:0,0:0:0
232,24,190803,2,0,P|248:88|240:160|240:184,1,160,2|0,0:0|0:0,0:0:0
176,280,191213,1,10,0:0:0
176,280,191349,1,0,0:0:0
176,280,191485,1,0,0:0:0
328,40,191758,1,8,0:0:0
472,304,192031,5,0,0:0:0
408,256,192167,1,0,0:0:0
376,184,192304,1,8,0:0:0
384,104,192440,1,0,0:0:0
376,184,192576,2,0,B|360:240|312:288|256:288,1,160,4|8,0:0|0:0,0:0:0
256,368,192985,1,2,0:0:0
104,128,193258,5,0,0:0:0
136,200,193395,1,8,0:0:0
128,280,193531,1,0,0:0:0
136,200,193667,2,0,B|152:144|200:96|256:96,1,160,0|8,0:0|0:0,0:0:0
256,16,194076,1,2,0:0:0
408,256,194349,5,0,0:0:0
328,288,194485,2,0,B|352:368,1,80,8|0,0:0|0:0,0:0:0
344,208,194758,2,0,B|376:176|384:128|376:96|352:56,1,160,4|8,0:0|0:0,0:0:0
288,112,195167,1,2,0:0:0
104,128,195440,5,0,0:0:0
184,96,195576,2,0,B|160:16,1,80,8|0,0:0|0:0,0:0:0
168,176,195849,2,0,B|136:208|128:256|136:288|160:328,1,160,0|8,0:0|0:0,0:0:0
224,272,196258,1,2,0:0:0
224,272,196667,5,8,0:0:0
224,272,196940,2,0,B|280:288|304:320,1,80
376,328,197213,1,8,0:0:0
456,328,197349,1,0,0:0:0
416,256,197485,2,0,B|400:216|416:176,1,80
392,40,197758,2,0,B|384:88|352:112,1,80,8|0,0:0|0:0,0:0:0
248,136,198031,2,2,B|200:160|128:160|88:152,1,160,2|8,0:0|0:0,0:0:0
32,200,198440,1,0,0:0:0
104,240,198576,2,2,B|160:240|208:272|232:320,1,160,2|8,0:0|0:0,0:0:0
336,256,198985,5,0,0:0:0
376,184,199122,2,0,B|432:120,1,80,4|0,0:0|0:0,0:0:0
352,104,199394,1,8,0:0:0
272,104,199531,1,0,0:0:0
208,64,199667,1,0,0:0:0
160,0,199803,2,0,B|176:48|160:96,1,80,0|10,0:0|0:0,0:0:0
160,160,200076,1,0,0:0:0
224,208,200213,2,0,B|216:256|224:288,1,80
128,336,200485,6,0,B|48:352,2,80,10|0|0,0:0|0:0|0:0,0:0:0
223,287,200894,2,0,B|280:264|312:264,1,80,0|10,0:0|0:0,0:0:0
384,272,201167,1,0,0:0:0
440,200,201303,2,0,B|456:120,1,80,4|0,0:0|0:0,0:0:0
376,32,201576,1,8,0:0:0
376,32,201713,1,0,0:0:0
312,80,201849,2,0,B|296:160,1,80
224,200,202122,2,0,B|200:160|120:136|64:160,1,160,8|0,0:0|0:0,0:0:0
79,154,202531,1,0,0:0:0
79,154,202667,1,8,0:0:0
24,304,202940,6,0,B|72:264|72:216,1,80
79,154,203213,2,0,B|88:96|120:80,1,80,8|0,0:0|0:0,0:0:0
192,96,203485,1,4,0:0:0
256,40,203622,1,0,0:0:0
256,40,203758,1,8,0:0:0
496,104,204031,5,4,0:0:0
416,104,204167,1,0,0:0:0
376,176,204304,5,8,0:0:0
344,248,204440,1,0,0:0:0
304,320,204576,1,4,0:0:0
256,248,204713,5,0,0:0:0
256,168,204849,1,8,0:0:0
256,248,204985,1,0,0:0:0
208,320,205122,5,4,0:0:0
168,248,205258,1,0,0:0:0
136,176,205394,1,12,0:0:0
96,104,205531,5,0,0:0:0
16,104,205667,1,4,0:0:0
