osu file format v14

[General]
AudioFilename: Weebos Zunder feat. el nio de las salchipapas - Salchipapa.mp3
AudioLeadIn: 2000
PreviewTime: 12290
Countdown: 0
SampleSet: Normal
StackLeniency: 0.7
Mode: 1
LetterboxInBreaks: 0
WidescreenStoryboard: 0

[Editor]
DistanceSpacing: 1.2
BeatDivisor: 4
GridSize: 8
TimelineZoom: 2.1

[Metadata]
Title:Salchipapa
TitleUnicode:Salchipapa
Artist:Weebos Zunder feat. el nino de las salchipapas
ArtistUnicode:Weebos Zunder feat. el niño de las salchipapas
Creator:Hanjamon
Version:Oni
Source:
Tags:salchicha sausage patata potato kid youtube megamix remix
BeatmapID:671100
BeatmapSetID:299103

[Difficulty]
HPDrainRate:6
CircleSize:5
OverallDifficulty:5
ApproachRate:5
SliderMultiplier:1.4
SliderTickRate:1

[Events]
//Background and Video events
0,0,"salchipapaBG.jpg",0,0
//Break Periods
//Storyboard Layer 0 (Background)
//Storyboard Layer 1 (Fail)
//Storyboard Layer 2 (Pass)
//Storyboard Layer 3 (Foreground)
//Storyboard Sound Samples

[TimingPoints]
0,387.096774193548,4,1,0,80,1,0
12387,-100,4,1,0,80,0,1
24774,-100,4,1,0,80,0,0
37161,-100,4,1,0,80,0,1
49548,-100,4,1,0,80,0,0
74322,-100,4,1,0,80,0,1
86709,-100,4,1,0,80,0,0

[HitObjects]
224,96,0,5,8,0:0:0:0:
240,96,290,1,0,0:0:0:0:
256,136,580,1,0,0:0:0:0:
248,136,774,1,8,0:0:0:0:
240,144,1064,1,0,0:0:0:0:
240,144,1354,1,0,0:0:0:0:
240,144,1548,1,8,0:0:0:0:
272,136,1935,1,8,0:0:0:0:
280,136,2129,1,8,0:0:0:0:
280,136,2322,1,8,0:0:0:0:
280,136,2709,1,0,0:0:0:0:
280,136,3096,1,8,0:0:0:0:
288,168,3387,1,0,0:0:0:0:
288,168,3677,1,0,0:0:0:0:
288,168,3870,1,8,0:0:0:0:
296,160,4161,1,0,0:0:0:0:
296,160,4451,1,0,0:0:0:0:
296,160,4645,1,8,0:0:0:0:
296,160,5032,1,8,0:0:0:0:
296,160,5419,1,8,0:0:0:0:
296,160,5806,1,8,0:0:0:0:
296,160,6000,1,0,0:0:0:0:
296,160,6193,1,8,0:0:0:0:
328,192,6483,1,0,0:0:0:0:
328,192,6774,1,0,0:0:0:0:
328,192,6967,1,8,0:0:0:0:
328,192,7258,1,0,0:0:0:0:
328,192,7548,1,0,0:0:0:0:
328,192,7741,1,8,0:0:0:0:
256,176,8129,1,8,0:0:0:0:
320,168,8322,1,8,0:0:0:0:
272,184,8516,1,8,0:0:0:0:
208,152,8903,1,0,0:0:0:0:
208,168,9290,1,8,0:0:0:0:
296,144,9580,1,0,0:0:0:0:
248,184,9870,1,0,0:0:0:0:
248,184,10064,1,8,0:0:0:0:
264,192,10354,1,0,0:0:0:0:
264,200,10645,1,0,0:0:0:0:
272,168,10838,1,8,0:0:0:0:
264,168,11225,1,8,0:0:0:0:
288,160,11419,1,0,0:0:0:0:
320,144,11612,1,0,0:0:0:0:
320,144,11709,1,0,0:0:0:0:
328,144,11903,1,0,0:0:0:0:
328,144,11999,1,8,0:0:0:0:
328,144,12193,1,8,0:0:0:0:
328,144,12387,1,4,0:0:0:0:
400,200,12580,1,8,0:0:0:0:
328,184,12677,1,0,0:0:0:0:
400,200,12774,1,0,0:0:0:0:
288,160,12967,1,8,0:0:0:0:
264,160,13161,1,0,0:0:0:0:
264,160,13354,1,8,0:0:0:0:
264,160,13451,1,8,0:0:0:0:
264,160,13548,1,0,0:0:0:0:
288,152,13741,1,8,0:0:0:0:
288,152,13935,1,0,0:0:0:0:
240,144,14129,1,8,0:0:0:0:
240,144,14225,1,8,0:0:0:0:
240,144,14322,1,8,0:0:0:0:
240,128,14709,1,0,0:0:0:0:
320,144,14903,1,8,0:0:0:0:
312,144,15000,1,8,0:0:0:0:
304,144,15096,1,0,0:0:0:0:
296,168,15290,1,8,0:0:0:0:
296,168,15483,1,0,0:0:0:0:
280,144,15677,1,8,0:0:0:0:
280,152,15774,1,8,0:0:0:0:
280,152,15870,1,8,0:0:0:0:
264,168,16064,1,8,0:0:0:0:
264,168,16258,1,0,0:0:0:0:
296,168,16451,1,8,0:0:0:0:
296,168,16548,1,8,0:0:0:0:
296,168,16645,1,0,0:0:0:0:
264,168,16838,1,8,0:0:0:0:
264,168,17032,1,0,0:0:0:0:
240,152,17225,1,8,0:0:0:0:
240,152,17322,1,8,0:0:0:0:
232,144,17419,1,8,0:0:0:0:
224,160,17806,1,0,0:0:0:0:
224,160,17903,1,0,0:0:0:0:
224,160,18096,1,0,0:0:0:0:
224,160,18193,1,0,0:0:0:0:
240,152,18387,1,8,0:0:0:0:
232,88,18580,1,4,0:0:0:0:
216,144,18774,1,8,0:0:0:0:
216,144,18870,1,0,0:0:0:0:
216,144,18967,1,0,0:0:0:0:
224,152,19161,1,8,0:0:0:0:
208,144,19354,1,0,0:0:0:0:
256,160,19548,1,8,0:0:0:0:
208,160,19645,1,8,0:0:0:0:
208,160,19741,1,0,0:0:0:0:
248,136,19935,1,8,0:0:0:0:
248,152,20129,1,0,0:0:0:0:
224,152,20322,1,8,0:0:0:0:
224,152,20419,1,8,0:0:0:0:
224,152,20516,1,8,0:0:0:0:
312,152,20903,1,0,0:0:0:0:
240,136,21096,1,8,0:0:0:0:
240,144,21193,1,8,0:0:0:0:
240,144,21290,1,0,0:0:0:0:
248,144,21483,1,8,0:0:0:0:
248,152,21677,1,0,0:0:0:0:
248,128,21870,1,8,0:0:0:0:
240,128,21967,1,8,0:0:0:0:
248,128,22064,1,8,0:0:0:0:
280,136,22258,1,8,0:0:0:0:
280,136,22451,1,0,0:0:0:0:
248,144,22645,1,8,0:0:0:0:
248,144,22741,1,8,0:0:0:0:
248,144,22838,1,0,0:0:0:0:
248,144,23032,1,8,0:0:0:0:
184,160,23225,1,0,0:0:0:0:
248,128,23419,1,8,0:0:0:0:
248,128,23516,1,8,0:0:0:0:
248,152,23612,1,8,0:0:0:0:
264,136,23999,1,0,0:0:0:0:
248,152,24096,1,0,0:0:0:0:
248,152,24290,1,0,0:0:0:0:
248,152,24387,1,0,0:0:0:0:
256,128,24580,1,8,0:0:0:0:
256,128,24774,1,4,0:0:0:0:
256,160,25064,1,0,0:0:0:0:
256,160,25354,1,8,0:0:0:0:
256,160,25548,1,0,0:0:0:0:
240,160,25838,1,0,0:0:0:0:
232,160,26129,1,8,0:0:0:0:
232,160,26322,1,0,0:0:0:0:
280,144,26612,1,8,0:0:0:0:
224,160,26903,1,8,0:0:0:0:
256,152,27096,1,0,0:0:0:0:
224,160,27870,1,0,0:0:0:0:
256,160,28161,1,8,0:0:0:0:
264,160,28451,1,8,0:0:0:0:
264,160,28645,1,0,0:0:0:0:
264,136,28935,1,8,0:0:0:0:
240,152,29225,1,8,0:0:0:0:
240,152,29419,1,0,0:0:0:0:
240,144,29709,1,8,0:0:0:0:
288,128,29999,1,8,0:0:0:0:
224,152,30193,1,0,0:0:0:0:
280,136,30967,1,0,0:0:0:0:
248,144,31258,1,0,0:0:0:0:
248,160,31548,1,8,0:0:0:0:
248,160,31741,1,0,0:0:0:0:
256,152,32032,1,0,0:0:0:0:
232,160,32322,1,8,0:0:0:0:
264,152,32516,1,0,0:0:0:0:
232,128,32806,1,8,0:0:0:0:
224,96,33096,1,8,0:0:0:0:
232,136,33290,1,0,0:0:0:0:
264,112,34064,1,0,0:0:0:0:
224,144,34354,1,8,0:0:0:0:
216,128,34645,1,8,0:0:0:0:
368,144,34838,1,0,0:0:0:0:
248,128,35129,1,8,0:0:0:0:
232,152,35419,1,8,0:0:0:0:
232,152,35612,1,0,0:0:0:0:
208,152,35709,1,8,0:0:0:0:
208,152,35806,1,0,0:0:0:0:
208,152,35999,1,0,0:0:0:0:
232,144,36193,1,8,0:0:0:0:
272,144,36387,1,0,0:0:0:0:
272,144,36483,1,0,0:0:0:0:
264,144,36677,1,8,0:0:0:0:
224,152,36774,1,0,0:0:0:0:
152,192,36967,1,8,0:0:0:0:
256,104,37161,1,4,0:0:0:0:
264,136,37354,1,8,0:0:0:0:
264,136,37451,1,8,0:0:0:0:
264,136,37548,1,0,0:0:0:0:
272,144,37741,1,8,0:0:0:0:
272,144,37935,1,0,0:0:0:0:
296,144,38129,1,8,0:0:0:0:
296,144,38225,1,0,0:0:0:0:
296,144,38322,1,0,0:0:0:0:
272,128,38516,1,8,0:0:0:0:
264,128,38709,1,0,0:0:0:0:
312,144,38903,1,8,0:0:0:0:
312,144,38999,1,8,0:0:0:0:
312,144,39096,1,8,0:0:0:0:
280,144,39483,1,0,0:0:0:0:
280,160,39677,1,8,0:0:0:0:
280,160,39774,1,8,0:0:0:0:
296,208,39870,1,0,0:0:0:0:
296,208,40064,1,8,0:0:0:0:
264,160,40258,1,0,0:0:0:0:
256,176,40451,1,8,0:0:0:0:
256,176,40548,1,8,0:0:0:0:
256,176,40645,1,8,0:0:0:0:
264,176,40838,1,8,0:0:0:0:
264,176,41032,1,0,0:0:0:0:
256,152,41225,1,8,0:0:0:0:
256,152,41322,1,8,0:0:0:0:
256,152,41419,1,0,0:0:0:0:
256,160,41612,1,8,0:0:0:0:
264,168,41806,1,0,0:0:0:0:
280,168,41999,1,8,0:0:0:0:
280,168,42096,1,8,0:0:0:0:
280,168,42193,1,8,0:0:0:0:
224,160,42580,1,0,0:0:0:0:
224,160,42677,1,0,0:0:0:0:
224,160,42870,1,0,0:0:0:0:
224,160,42967,1,0,0:0:0:0:
288,168,43161,1,8,0:0:0:0:
272,168,43354,1,4,0:0:0:0:
280,168,43548,1,8,0:0:0:0:
280,176,43645,1,8,0:0:0:0:
280,176,43741,1,0,0:0:0:0:
232,160,43935,1,8,0:0:0:0:
296,184,44129,1,0,0:0:0:0:
288,176,44322,1,8,0:0:0:0:
288,176,44419,1,0,0:0:0:0:
288,176,44516,1,0,0:0:0:0:
256,168,44709,1,8,0:0:0:0:
248,160,44903,1,0,0:0:0:0:
248,160,45096,1,8,0:0:0:0:
248,160,45193,1,8,0:0:0:0:
240,160,45290,1,8,0:0:0:0:
256,160,45677,1,0,0:0:0:0:
280,160,45870,1,8,0:0:0:0:
280,160,45967,1,8,0:0:0:0:
280,160,46064,1,0,0:0:0:0:
280,160,46258,1,8,0:0:0:0:
272,152,46451,1,0,0:0:0:0:
272,152,46645,1,8,0:0:0:0:
272,152,46741,1,8,0:0:0:0:
272,160,46838,1,8,0:0:0:0:
256,152,47032,1,8,0:0:0:0:
256,144,47225,1,0,0:0:0:0:
264,144,47419,1,8,0:0:0:0:
264,144,47516,1,8,0:0:0:0:
264,152,47612,1,0,0:0:0:0:
264,152,47806,1,8,0:0:0:0:
248,152,47999,1,0,0:0:0:0:
248,160,48193,5,8,0:0:0:0:
248,160,48290,5,8,0:0:0:0:
248,160,48387,1,8,0:0:0:0:
272,160,48774,1,0,0:0:0:0:
264,160,48870,1,0,0:0:0:0:
264,160,49064,1,0,0:0:0:0:
264,160,49161,1,0,0:0:0:0:
232,152,49354,1,8,0:0:0:0:
256,128,49548,5,4,0:0:0:0:
304,176,49838,1,0,0:0:0:0:
304,176,49935,1,0,0:0:0:0:
312,176,50129,1,8,0:0:0:0:
296,160,50612,1,0,0:0:0:0:
296,160,50709,1,0,0:0:0:0:
304,160,50903,1,8,0:0:0:0:
304,160,51096,1,0,0:0:0:0:
304,160,51387,1,0,0:0:0:0:
304,168,51483,1,0,0:0:0:0:
304,168,51677,1,8,0:0:0:0:
256,152,52161,1,0,0:0:0:0:
256,152,52258,1,0,0:0:0:0:
280,152,52451,1,8,0:0:0:0:
280,152,52645,1,8,0:0:0:0:
272,160,52935,1,8,0:0:0:0:
272,160,53032,1,8,0:0:0:0:
272,168,53225,1,0,0:0:0:0:
256,160,53709,1,8,0:0:0:0:
256,160,53806,1,8,0:0:0:0:
248,160,53999,1,8,0:0:0:0:
248,168,54193,1,0,0:0:0:0:
256,176,54483,1,0,0:0:0:0:
256,176,54580,1,0,0:0:0:0:
256,176,54774,1,8,0:0:0:0:
304,192,55258,1,0,0:0:0:0:
304,192,55354,1,0,0:0:0:0:
304,200,55548,1,0,0:0:0:0:
304,240,55741,5,8,0:0:0:0:
296,184,56322,1,8,0:0:0:0:
272,152,56709,1,8,0:0:0:0:
272,152,56903,1,8,0:0:0:0:
256,168,57290,1,8,0:0:0:0:
256,152,57870,1,8,0:0:0:0:
240,144,58258,1,8,0:0:0:0:
240,144,58451,1,8,0:0:0:0:
256,136,58838,1,8,0:0:0:0:
240,144,59419,1,8,0:0:0:0:
224,160,59806,1,8,0:0:0:0:
232,168,59999,1,8,0:0:0:0:
232,160,60387,1,8,0:0:0:0:
232,160,60677,1,8,0:0:0:0:
224,128,60967,1,8,0:0:0:0:
232,128,61354,1,8,0:0:0:0:
232,128,61451,1,8,0:0:0:0:
232,128,61548,1,8,0:0:0:0:
232,128,61741,1,0,0:0:0:0:
312,224,61935,1,12,0:0:0:0:
310,146,62225,1,8,0:0:0:0:
310,146,62322,1,0,0:0:0:0:
310,146,62612,1,8,0:0:0:0:
310,146,62709,1,0,0:0:0:0:
310,146,62903,1,8,0:0:0:0:
310,146,63096,1,0,0:0:0:0:
314,160,63483,1,12,0:0:0:0:
321,151,63774,1,8,0:0:0:0:
321,151,63870,1,0,0:0:0:0:
323,150,64161,1,8,0:0:0:0:
323,150,64258,1,0,0:0:0:0:
309,156,64451,1,8,0:0:0:0:
309,156,64645,1,0,0:0:0:0:
317,152,65032,1,12,0:0:0:0:
309,146,65322,1,8,0:0:0:0:
312,153,65419,1,0,0:0:0:0:
310,155,65709,1,8,0:0:0:0:
259,116,65806,1,0,0:0:0:0:
283,173,65999,1,8,0:0:0:0:
283,173,66193,1,0,0:0:0:0:
286,125,66580,1,12,0:0:0:0:
283,164,66870,1,8,0:0:0:0:
283,164,66967,1,0,0:0:0:0:
283,162,67258,1,8,0:0:0:0:
283,162,67354,1,0,0:0:0:0:
269,172,67548,1,0,0:0:0:0:
268,172,67741,1,0,0:0:0:0:
322,152,68129,1,12,0:0:0:0:
323,157,68419,1,8,0:0:0:0:
323,157,68516,1,0,0:0:0:0:
276,151,68806,1,8,0:0:0:0:
276,151,68903,1,0,0:0:0:0:
247,129,69096,1,8,0:0:0:0:
277,156,69290,1,0,0:0:0:0:
329,164,69483,1,0,0:0:0:0:
281,149,69677,1,12,0:0:0:0:
262,145,69967,1,8,0:0:0:0:
262,145,70064,1,0,0:0:0:0:
256,144,70354,1,8,0:0:0:0:
256,144,70451,1,0,0:0:0:0:
245,151,70645,1,8,0:0:0:0:
245,153,70838,1,0,0:0:0:0:
305,162,71032,1,0,0:0:0:0:
276,129,71225,1,12,0:0:0:0:
273,162,71516,1,8,0:0:0:0:
280,167,71612,1,0,0:0:0:0:
252,160,71903,1,8,0:0:0:0:
253,160,71999,1,0,0:0:0:0:
302,167,72193,1,8,0:0:0:0:
290,177,72387,1,0,0:0:0:0:
286,158,72580,1,0,0:0:0:0:
290,165,72774,1,12,0:0:0:0:
280,167,73064,1,8,0:0:0:0:
280,167,73161,1,0,0:0:0:0:
283,167,73451,1,8,0:0:0:0:
283,167,73548,1,0,0:0:0:0:
283,167,73741,1,8,0:0:0:0:
283,167,73935,1,0,0:0:0:0:
273,164,74322,1,4,0:0:0:0:
280,167,74516,1,8,0:0:0:0:
280,167,74612,1,0,0:0:0:0:
280,167,74709,1,0,0:0:0:0:
261,160,74903,1,8,0:0:0:0:
261,160,75096,1,0,0:0:0:0:
248,160,75290,1,8,0:0:0:0:
250,162,75387,1,8,0:0:0:0:
250,162,75483,1,0,0:0:0:0:
279,160,75677,1,8,0:0:0:0:
279,160,75870,1,0,0:0:0:0:
249,152,76064,1,8,0:0:0:0:
249,153,76161,1,8,0:0:0:0:
251,155,76258,1,8,0:0:0:0:
242,160,76645,1,0,0:0:0:0:
250,153,76838,1,8,0:0:0:0:
248,153,76935,1,8,0:0:0:0:
250,154,77032,1,0,0:0:0:0:
249,152,77225,1,8,0:0:0:0:
267,150,77419,1,0,0:0:0:0:
249,152,77612,1,8,0:0:0:0:
246,149,77709,1,8,0:0:0:0:
246,149,77806,1,8,0:0:0:0:
230,160,77999,1,8,0:0:0:0:
244,140,78193,1,0,0:0:0:0:
214,144,78387,1,8,0:0:0:0:
214,144,78483,1,8,0:0:0:0:
214,144,78580,1,0,0:0:0:0:
214,144,78774,1,8,0:0:0:0:
239,140,78967,1,0,0:0:0:0:
240,147,79161,1,8,0:0:0:0:
238,142,79258,1,8,0:0:0:0:
240,147,79354,1,8,0:0:0:0:
201,149,79741,1,0,0:0:0:0:
201,149,79838,1,0,0:0:0:0:
203,149,80032,1,0,0:0:0:0:
203,149,80129,1,0,0:0:0:0:
236,161,80322,1,8,0:0:0:0:
232,164,80516,1,4,0:0:0:0:
229,165,80709,1,8,0:0:0:0:
228,165,80806,1,8,0:0:0:0:
227,166,80903,1,0,0:0:0:0:
290,154,81096,1,8,0:0:0:0:
266,150,81290,1,0,0:0:0:0:
269,153,81483,1,8,0:0:0:0:
269,158,81580,1,0,0:0:0:0:
268,162,81677,1,0,0:0:0:0:
266,178,81870,1,8,0:0:0:0:
266,178,82064,1,0,0:0:0:0:
230,154,82258,1,8,0:0:0:0:
241,153,82354,1,8,0:0:0:0:
241,150,82451,1,8,0:0:0:0:
249,155,82838,1,0,0:0:0:0:
250,156,83032,1,8,0:0:0:0:
250,156,83129,1,8,0:0:0:0:
250,156,83225,1,0,0:0:0:0:
244,153,83419,1,8,0:0:0:0:
294,146,83612,1,0,0:0:0:0:
288,151,83806,1,8,0:0:0:0:
251,173,83903,1,8,0:0:0:0:
252,159,83999,1,8,0:0:0:0:
260,160,84193,1,8,0:0:0:0:
262,164,84387,1,0,0:0:0:0:
259,172,84580,1,8,0:0:0:0:
259,172,84677,1,8,0:0:0:0:
259,172,84774,1,0,0:0:0:0:
259,172,84967,1,8,0:0:0:0:
255,169,85161,1,0,0:0:0:0:
275,162,85354,1,8,0:0:0:0:
275,162,85451,1,8,0:0:0:0:
275,162,85548,5,8,0:0:0:0:
290,173,85935,1,0,0:0:0:0:
298,180,86032,1,0,0:0:0:0:
252,150,86225,1,0,0:0:0:0:
261,158,86322,1,0,0:0:0:0:
264,159,86516,1,8,0:0:0:0:
313,151,86709,5,4,0:0:0:0:
