osu file format v14

[General]
AudioFilename: Weebos Zunder feat. el nio de las salchipapas - Salchipapa.mp3
AudioLeadIn: 2000
PreviewTime: 12290
Countdown: 0
SampleSet: Normal
StackLeniency: 0.7
Mode: 1
LetterboxInBreaks: 0
WidescreenStoryboard: 0

[Editor]
DistanceSpacing: 1.2
BeatDivisor: 4
GridSize: 8
TimelineZoom: 2.1

[Metadata]
Title:Salchipapa
TitleUnicode:Salchipapa
Artist:Weebos Zunder feat. el nino de las salchipapas
ArtistUnicode:Weebos Zunder feat. el niño de las salchipapas
Creator:Hanjamon
Version:Kantan
Source:
Tags:salchicha sausage patata potato kid youtube megamix remix
BeatmapID:671098
BeatmapSetID:299103

[Difficulty]
HPDrainRate:4
CircleSize:5
OverallDifficulty:3
ApproachRate:5
SliderMultiplier:1.4
SliderTickRate:1

[Events]
//Background and Video events
0,0,"salchipapaBG.jpg",0,0
//Break Periods
//Storyboard Layer 0 (Background)
//Storyboard Layer 1 (Fail)
//Storyboard Layer 2 (Pass)
//Storyboard Layer 3 (Foreground)
//Storyboard Sound Samples

[TimingPoints]
0,387.096774193548,4,1,0,80,1,0
12387,-100,4,1,0,80,0,1
24774,-100,4,1,0,80,0,0
37161,-100,4,1,0,80,0,1
49548,-100,4,1,0,80,0,0
74322,-100,4,1,0,80,0,1
86709,-100,4,1,0,80,0,0

[HitObjects]
224,96,0,5,8,0:0:0:0:
248,136,774,1,8,0:0:0:0:
240,144,1548,1,8,0:0:0:0:
280,136,2322,1,8,0:0:0:0:
280,136,3096,1,8,0:0:0:0:
288,168,3870,1,8,0:0:0:0:
296,160,4645,1,8,0:0:0:0:
296,160,5032,1,8,0:0:0:0:
296,160,5419,1,8,0:0:0:0:
296,160,6193,1,8,0:0:0:0:
328,192,6967,1,8,0:0:0:0:
328,192,7741,1,8,0:0:0:0:
272,184,8516,1,8,0:0:0:0:
208,168,9290,1,8,0:0:0:0:
248,184,10064,1,8,0:0:0:0:
272,168,10838,1,8,0:0:0:0:
264,168,11225,1,8,0:0:0:0:
320,144,11612,1,0,0:0:0:0:
328,144,12387,1,4,0:0:0:0:
264,160,13161,1,0,0:0:0:0:
264,160,13548,1,8,0:0:0:0:
288,152,13935,1,0,0:0:0:0:
296,168,15483,1,0,0:0:0:0:
264,168,16258,1,0,0:0:0:0:
296,168,16645,1,8,0:0:0:0:
264,168,17032,1,0,0:0:0:0:
256,120,17806,1,0,0:0:0:0:
232,88,18580,1,4,0:0:0:0:
208,144,19354,1,0,0:0:0:0:
256,160,19741,1,8,0:0:0:0:
248,152,20129,1,0,0:0:0:0:
248,152,21677,1,0,0:0:0:0:
280,136,22451,1,0,0:0:0:0:
248,144,22838,1,8,0:0:0:0:
184,160,23225,1,0,0:0:0:0:
272,144,23999,1,0,0:0:0:0:
256,128,24774,1,4,0:0:0:0:
256,160,25548,1,0,0:0:0:0:
232,160,26322,1,0,0:0:0:0:
224,160,27870,1,0,0:0:0:0:
264,160,28645,1,0,0:0:0:0:
240,152,29419,1,8,0:0:0:0:
280,136,30967,1,0,0:0:0:0:
248,160,31741,1,0,0:0:0:0:
264,152,32516,1,8,0:0:0:0:
264,112,34064,1,0,0:0:0:0:
368,144,34838,1,0,0:0:0:0:
232,152,35612,1,0,0:0:0:0:
208,152,35999,1,0,0:0:0:0:
272,144,36387,1,0,0:0:0:0:
256,104,37161,1,4,0:0:0:0:
272,144,37935,1,0,0:0:0:0:
296,144,38322,1,8,0:0:0:0:
264,128,38709,1,0,0:0:0:0:
264,160,40258,1,0,0:0:0:0:
264,176,41032,1,0,0:0:0:0:
256,152,41419,1,8,0:0:0:0:
264,168,41806,1,0,0:0:0:0:
248,168,42580,1,0,0:0:0:0:
272,168,43354,1,4,0:0:0:0:
296,184,44129,1,0,0:0:0:0:
288,176,44516,1,8,0:0:0:0:
248,160,44903,1,0,0:0:0:0:
272,152,46451,1,0,0:0:0:0:
256,144,47225,1,0,0:0:0:0:
264,144,47612,1,8,0:0:0:0:
248,152,47999,1,0,0:0:0:0:
256,152,48774,1,0,0:0:0:0:
256,128,49548,5,4,0:0:0:0:
304,160,51096,1,0,0:0:0:0:
304,168,51870,1,8,0:0:0:0:
280,152,52645,1,8,0:0:0:0:
248,168,54193,1,0,0:0:0:0:
256,176,54967,1,8,0:0:0:0:
304,240,55741,5,8,0:0:0:0:
256,168,57290,1,8,0:0:0:0:
256,136,58838,1,8,0:0:0:0:
232,160,60387,1,8,0:0:0:0:
312,224,61935,1,12,0:0:0:0:
310,146,62709,1,8,0:0:0:0:
310,146,63096,1,0,0:0:0:0:
314,160,63483,1,12,0:0:0:0:
323,150,64258,1,8,0:0:0:0:
317,152,65032,1,12,0:0:0:0:
259,116,65806,1,8,0:0:0:0:
283,173,66193,1,0,0:0:0:0:
286,125,66580,1,12,0:0:0:0:
322,152,68129,1,12,0:0:0:0:
276,151,68903,1,8,0:0:0:0:
277,156,69290,1,0,0:0:0:0:
281,149,69677,1,12,0:0:0:0:
256,144,70451,1,8,0:0:0:0:
276,129,71225,1,12,0:0:0:0:
253,160,71999,1,8,0:0:0:0:
290,177,72387,1,0,0:0:0:0:
290,165,72774,1,12,0:0:0:0:
273,164,74322,1,4,0:0:0:0:
261,160,75096,1,0,0:0:0:0:
248,160,75483,1,8,0:0:0:0:
279,160,75870,1,0,0:0:0:0:
267,150,77419,1,0,0:0:0:0:
244,140,78193,1,0,0:0:0:0:
214,144,78580,1,8,0:0:0:0:
239,140,78967,1,0,0:0:0:0:
240,152,79741,1,0,0:0:0:0:
232,164,80516,1,4,0:0:0:0:
266,150,81290,1,0,0:0:0:0:
269,153,81677,1,8,0:0:0:0:
266,178,82064,1,0,0:0:0:0:
294,146,83612,1,0,0:0:0:0:
262,164,84387,1,0,0:0:0:0:
259,172,84774,1,8,0:0:0:0:
255,169,85161,1,0,0:0:0:0:
290,173,85935,1,0,0:0:0:0:
313,151,86709,5,4,0:0:0:0:
