osu file format v7

[General]
AudioFilename: Narwhals.mp3
AudioLeadIn: 3000
PreviewTime: -1
Countdown: 1
SampleSet: Soft
StackLeniency: 0.7
Mode: 0
LetterboxInBreaks: 1

[Editor]
DistanceSpacing: 0.899999976158142
BeatDivisor: 4
GridSize: 8

[Metadata]
Title:Narwhals
Artist:Weebl
Creator:StrayerFox
Version:Swimming
Source:
Tags:weebl mrweeble mr narwhals youtube you tube

[Difficulty]
HPDrainRate:4
CircleSize:3
OverallDifficulty:3
SliderMultiplier:1.2
SliderTickRate:2

[Events]
//Background and Video events
0,0,"narw.jpg"
Video,0,"Narwhals.flv"
//Break Periods
//Storyboard Layer 0 (Background)
//Storyboard Layer 1 (Fail)
//Storyboard Layer 2 (Pass)
//Storyboard Layer 3 (Foreground)
//Storyboard Sound Samples
//Background Colour Transformations
3,100,202,202,255

[TimingPoints]
49.697144020866,397.350993377483,4,2,0,100,1,0
66407,-100,4,1,0,100,0,1

[Colours]
Combo1 : 219,219,219
Combo2 : 0,128,255
Combo3 : 169,214,199

[HitObjects]
48,48,49,2,0,B|144:104|200:8|304:80,1,240
376,112,1241,1,0
448,192,1639,6,2,B|416:256|328:232,1,120
256,288,2433,2,2,B|288:352|376:328,1,120
344,224,3228,5,8
248,184,3625,1,8
344,128,4023,2,0,B|408:168|408:168|448:112,1,120
376,40,4817,6,0,B|256:0|112:40|112:40,1,240
48,96,6009,1,0
136,152,6407,6,0,B|216:208|264:112|320:152,2,180
48,168,7996,6,0,B|48:232|96:288|96:288,1,120
184,336,8791,2,0,B|246:357|328:336|328:336,1,120
400,304,9586,5,6
432,88,10380,1,6
216,56,11175,6,0,B|104:40|40:112|80:192,1,240
112,288,12367,1,0
216,312,12764,5,0
320,296,13162,1,0
408,232,13559,2,2,B|442:166|400:104|400:104,1,120
320,48,14354,1,4
216,40,14751,6,2,B|184:88|136:16|96:88,3,120,2|2|2|6
64,168,16341,5,8
136,248,16738,1,8
208,168,17135,1,8
280,248,17533,1,4
256,192,17930,12,4,20711
256,192,21109,6,2,B|184:248|152:152|80:200|80:200,2,180
256,192,22698,6,2,B|328:248|360:152|432:200|432:200,2,180
256,88,24288,5,4
256,192,24685,1,4
472,192,25480,6,2,B|424:144|384:152|352:184,1,120
280,240,26274,2,2,B|216:264|160:208,1,120
96,136,27069,1,4
256,192,27466,6,2,B|328:248|360:152|432:200|432:200,2,180
256,192,29055,6,2,B|184:248|152:152|80:200|80:200,2,180
256,88,30645,5,4
256,192,31042,1,4
40,192,31837,6,2,B|88:144|128:152|160:184,1,120
232,240,32631,2,2,B|296:264|352:208,1,120
464,48,33427,6,0,B|368:104|312:8|208:80,1,240
136,112,34619,1,0
64,192,35017,6,2,B|96:256|184:232,1,120
256,288,35811,2,2,B|224:352|136:328,1,120
168,224,36606,5,8
264,184,37003,1,8
168,128,37401,2,0,B|104:168|104:168|64:112,1,120
136,40,38195,6,0,B|256:0|400:40|400:40,1,240
464,96,39387,1,0
376,152,39785,6,0,B|296:208|248:112|192:152,2,180
464,168,41374,6,0,B|464:232|416:288|416:288,1,120
328,336,42169,2,0,B|265:357|184:336|184:336,1,120
112,304,42964,5,6
80,88,43758,1,6
296,56,44553,6,0,B|408:40|472:112|432:192,1,240
400,288,45745,1,0
296,312,46142,5,0
192,296,46540,1,0
104,232,46937,2,2,B|69:166|112:104|112:104,1,120
192,48,47732,1,4
296,40,48129,6,2,B|328:88|376:16|416:88,3,120,2|2|2|6
448,168,49719,5,8
376,248,50116,1,8
304,168,50513,1,8
232,248,50911,1,4
256,192,51308,12,4,54089
256,192,54487,6,2,B|328:248|360:152|432:200|432:200,2,180
256,192,56076,6,2,B|184:248|152:152|80:200|80:200,2,180
256,88,57666,5,4
256,192,58063,1,4
40,192,58858,6,2,B|88:144|128:152|160:184,1,120
232,240,59652,2,2,B|296:264|352:208,1,120
416,136,60447,1,4
256,192,60844,6,2,B|184:248|152:152|80:200|80:200,2,180
256,192,62433,6,2,B|328:248|360:152|432:200|432:200,2,180
256,88,64023,5,4
256,192,64420,1,4
472,192,65215,6,2,B|424:144|384:152|352:184,1,120
280,240,66009,2,2,B|216:264|160:208,1,120
